<?xml version="1.0" standalone="no"?>
<!DOCTYPE svg PUBLIC "-//W3C//DTD SVG 1.1//EN" "http://www.w3.org/Graphics/SVG/1.1/DTD/svg11.dtd" >
<svg xmlns="http://www.w3.org/2000/svg" xmlns:xlink="http://www.w3.org/1999/xlink" version="1.1">
<metadata>
Created by FontForge 20170731 at Fri Aug 12 01:02:07 2011
 By Aleksey,,,
Courtesy of PUBLISHERS' PARADISE BBS  205-882-6886 9600 HST
</metadata>
<defs>
<font id="Baskerville-Normal" horiz-adv-x="500" >
  <font-face 
    font-family="Baskerville"
    font-weight="400"
    font-stretch="normal"
    units-per-em="1000"
    panose-1="2 0 5 3 0 0 0 0 0 0"
    ascent="800"
    descent="-200"
    x-height="415"
    cap-height="667"
    bbox="-189 -275 965 875"
    underline-thickness="133"
    underline-position="-397"
    unicode-range="U+0020-FB02"
  />
<missing-glyph horiz-adv-x="0" 
 />
    <glyph glyph-name=".notdef" horiz-adv-x="0" 
 />
    <glyph glyph-name=".null" horiz-adv-x="0" 
 />
    <glyph glyph-name="nonmarkingreturn" horiz-adv-x="333" 
 />
    <glyph glyph-name="space" unicode=" " horiz-adv-x="278" 
 />
    <glyph glyph-name="exclam" unicode="!" horiz-adv-x="247" 
d="M142 226h-36q-2 52 -20.5 160t-18.5 160q0 18 2 37t7 44t17 41t30 16t30.5 -15t18 -39.5t7.5 -44t2 -39.5q0 -51 -18.5 -159t-20.5 -161zM124 -13q-23 0 -39.5 16.5t-16.5 39.5t16.5 39.5t39.5 16.5t39 -16.5t16 -39.5t-16 -39.5t-39 -16.5z" />
    <glyph glyph-name="quotedbl" unicode="&#x22;" horiz-adv-x="355" 
d="M115 399h-40l-25 268h91zM279 399h-40l-25 268h91z" />
    <glyph glyph-name="numbersign" unicode="#" horiz-adv-x="589" 
d="M392 229l-47 -229h-43l47 229h-146l-47 -229h-43l47 229h-116l7 39h119l27 144h-116l7 39h119l44 216h43l-44 -216h145l45 216h43l-44 -216h109l-6 -39h-113l-27 -144h110l-7 -39h-113zM359 268l27 144h-146l-27 -144h146z" />
    <glyph glyph-name="dollar" unicode="$" horiz-adv-x="467" 
d="M262 639v-253q1 0 4 -2t5 -2q91 -45 121 -70q59 -50 59 -126q0 -74 -57 -130t-132 -56v-108h-37v108q-94 5 -159 68q-45 42 -45 73q0 17 12.5 29t28.5 12q19 0 34 -20.5t25.5 -46t37.5 -49.5t66 -30v265q-13 7 -50 24.5t-52.5 27.5t-38.5 30t-32.5 45t-9.5 59
q0 84 49 132t134 53v100h37v-100q90 -12 138 -64q35 -39 35 -72q0 -18 -10 -30t-27 -12q-16 0 -25 13t-14 32t-13 39t-29 37.5t-55 23.5zM225 639q-48 -2 -84.5 -30t-36.5 -75q0 -25 10 -46t30.5 -37.5t37 -26.5t43.5 -23v238zM262 36q48 5 85 40.5t37 82.5q0 20 -6.5 36.5
t-22.5 30.5t-26 21t-35.5 20t-31.5 17v-248z" />
    <glyph glyph-name="percent" unicode="%" horiz-adv-x="543" 
d="M129 327q-40 0 -67 29t-37.5 65.5t-10.5 74.5q0 63 28.5 116t86.5 53q57 0 86 -53.5t29 -115.5t-29 -115.5t-86 -53.5zM129 345q20 0 34 17.5t19 46t7 48.5t2 40t-2 40t-7 48.5t-19 46t-34 17.5t-34 -17.5t-19.5 -46t-7.5 -49t-2 -39.5t2 -39.5t7.5 -49t19.5 -46
t34 -17.5zM474 667l-369 -667h-35l369 667h35zM415 -5q-57 0 -86 53.5t-29 115.5t29 115.5t86 53.5q40 0 67 -29t37.5 -65.5t10.5 -74.5q0 -63 -28.5 -116t-86.5 -53zM415 13q20 0 34 17.5t19 46t7 48.5t2 40t-2 40t-7 48.5t-19 46t-34 17.5t-34 -17.5t-19 -46t-7 -48.5
t-2 -40t2 -40t7 -48.5t19 -46t34 -17.5z" />
    <glyph glyph-name="ampersand" unicode="&#x26;" horiz-adv-x="640" 
d="M373 395h207v-26q-46 -11 -73.5 -48t-51.5 -92.5t-47 -82.5q76 -101 136 -101q48 0 81 44l20 -26q-18 -32 -52.5 -53t-70.5 -21q-92 0 -165 91q-43 -46 -83 -68.5t-95 -22.5q-67 0 -118.5 51.5t-55.5 118.5q0 126 153 210q-22 35 -30 48.5t-19 43.5t-11 56q0 52 43.5 83
t97.5 31q49 0 91.5 -26.5t42.5 -72.5q0 -26 -9 -47.5t-31 -41.5t-35 -29t-44 -28q-7 -5 -11 -7q19 -26 68 -96.5t77 -108.5q61 71 61 143q0 52 -76 52v26zM225 405q88 54 88 115q0 31 -22.5 53t-53.5 22q-29 0 -51 -19t-22 -48q0 -22 10 -42.5t27 -44t24 -36.5zM175 343
q-43 -32 -66 -62.5t-23 -74.5q0 -56 39.5 -103t94.5 -52q73 0 119 52q-22 29 -164 240z" />
    <glyph glyph-name="quotesingle" unicode="'" horiz-adv-x="202" 
d="M122 399h-43l-25 268h94z" />
    <glyph glyph-name="parenleft" unicode="(" horiz-adv-x="295" 
d="M213 -275q-65 100 -99.5 223.5t-34.5 247.5t34.5 247.5t99.5 223.5h71q-140 -204 -140 -471t140 -471h-71z" />
    <glyph glyph-name="parenright" unicode=")" horiz-adv-x="295" 
d="M82 -275h-71q140 204 140 471t-140 471h71q65 -100 99.5 -223.5t34.5 -247.5t-34.5 -247.5t-99.5 -223.5z" />
    <glyph glyph-name="asterisk" unicode="*" horiz-adv-x="467" 
d="M252 529q16 5 55 34t65 29q16 0 27 -14.5t11 -31.5q0 -18 -14.5 -28t-27.5 -11.5t-34 -2.5h-25q-32 -2 -46 -8q9 -14 33.5 -30.5t43.5 -33.5t21 -38q0 -18 -13.5 -31.5t-31.5 -13.5q-21 0 -35.5 24.5t-26 58.5t-19.5 44q-9 -10 -19.5 -44t-25 -58.5t-36.5 -24.5
q-17 0 -31 13t-14 29q0 19 19 37.5t45 37t34 31.5q-14 5 -46 7h-25q-21 1 -33 2.5t-27 10t-16 25.5q0 19 9.5 34.5t27.5 15.5q25 0 64 -29t57 -34q0 21 -12 59t-12 59q0 19 11.5 30t28.5 11q18 0 30 -11.5t12 -29.5q0 -21 -12 -59t-12 -59z" />
    <glyph glyph-name="plus" unicode="+" 
d="M20 370h204v194h51v-194h205v-50h-205v-194h-51v194h-204v50z" />
    <glyph glyph-name="comma" unicode="," horiz-adv-x="237" 
d="M56 -173v17q79 57 79 119q0 18 -8 37q-13 -3 -29 -3q-22 0 -37.5 16.5t-15.5 38.5q0 23 16.5 39.5t39.5 16.5q39 0 63 -34t24 -75q0 -58 -38 -106.5t-94 -65.5z" />
    <glyph glyph-name="hyphen" unicode="-" horiz-adv-x="213" 
d="M213 241v-49h-213v49h213z" />
    <glyph glyph-name="period" unicode="." horiz-adv-x="237" 
d="M119 -13q-23 0 -39.5 16.5t-16.5 39.5t16.5 39.5t39.5 16.5t39 -16.5t16 -39.5t-16 -39.5t-39 -16.5z" />
    <glyph glyph-name="slash" unicode="/" horiz-adv-x="230" 
d="M305 667l-333 -942h-49l333 942h49z" />
    <glyph glyph-name="zero" unicode="0" horiz-adv-x="467" 
d="M233 -11q-101 0 -162 111q-51 88 -51 227q0 53 11 107.5t34 108.5t67 88t101 34q58 0 102 -34t67 -87.5t34 -108.5t11 -108t-11 -108t-34 -108.5t-67 -87.5t-102 -34zM233 14q40 0 67.5 37t38.5 96t14.5 100.5t3.5 81.5t-3.5 81.5t-14.5 100.5t-38.5 96t-67.5 37
q-33 0 -57 -26.5t-36.5 -62.5t-20 -84.5t-9 -80t-1.5 -61.5t1.5 -61.5t9 -80t20 -84.5t36.5 -62.5t57 -26.5z" />
    <glyph glyph-name="one" unicode="1" horiz-adv-x="467" 
d="M194 568h-83v29q42 2 69 12t51 27t40 24q1 1 2 1q4 0 4 -5v-545q0 -48 21 -66t69 -18v-27h-267v27q53 0 73.5 16.5t20.5 67.5v457z" />
    <glyph glyph-name="two" unicode="2" horiz-adv-x="467" 
d="M447 150l-38 -150h-388l9 41q61 51 107.5 96t97 106.5t78.5 129.5t28 135q0 54 -35 94.5t-88 40.5t-90 -35t-37 -88q0 -30 16.5 -58.5t43.5 -38.5q-9 -25 -45 -25q-33 0 -50 32t-17 68q0 75 54 121t130 46q84 0 143 -53t59 -136q0 -37 -11.5 -74t-26 -65.5t-45 -64
t-50 -56t-60.5 -54t-57.5 -46t-58.5 -43.5h237q13 0 23 4t17.5 14t11.5 17t10 22t9 20h23z" />
    <glyph glyph-name="three" unicode="3" horiz-adv-x="467" 
d="M107 189q-13 -29 -13 -57q0 -47 37 -80t85 -33q63 0 96.5 45.5t33.5 111.5q0 35 -8.5 67.5t-31.5 59t-58 28.5q-14 0 -35 -14.5t-35 -14.5t-25.5 10t-12.5 24q0 29 62 29q27 0 50 -4q39 16 59.5 52.5t20.5 80.5q0 61 -30 106.5t-86 45.5q-36 0 -62 -22t-26 -57
q0 -39 30 -72q-12 -8 -33 -8q-24 1 -40.5 19.5t-16.5 42.5q0 55 51 85.5t109 30.5q72 0 128.5 -46t56.5 -117q0 -57 -31.5 -97.5t-87.5 -51.5q60 -12 101 -61.5t41 -110.5q0 -90 -67.5 -141t-160.5 -51q-66 0 -121 32t-55 94q0 33 21.5 53.5t53.5 20.5z" />
    <glyph glyph-name="four" unicode="4" horiz-adv-x="467" 
d="M457 249l-25 -86h-99v-70q0 -38 16.5 -52t54.5 -14v-27h-226v27q39 0 56.5 14t17.5 52v70h-242l308 491q8 8 9 8q6 0 6 -8v-455q25 0 36 1t24.5 5.5t21.5 14.5t17 29h25zM252 199v165v142l-186 -307h186z" />
    <glyph glyph-name="five" unicode="5" horiz-adv-x="467" 
d="M171 572l-21 -194q39 36 103 36q73 0 124.5 -54.5t51.5 -127.5q0 -104 -73.5 -173.5t-177.5 -69.5q-57 0 -107.5 32t-50.5 86q0 21 11 38t31 18q20 0 29 -15.5t11.5 -37.5t7.5 -43.5t22 -37t49 -15.5q75 0 115.5 68.5t40.5 148.5q0 39 -9 71.5t-35 57.5t-66 25
q-26 0 -52 -19.5t-26 -44.5q0 -9 -7.5 -16t-17.5 -7q-5 0 -9 4.5t-4 9.5v1l39 341q100 -8 224 -8q27 0 48 21h26q-22 -29 -30.5 -39t-28 -28.5t-39.5 -25t-47 -6.5q-25 0 -71 2t-61 2z" />
    <glyph glyph-name="six" unicode="6" horiz-adv-x="467" 
d="M123 378q46 49 128 49q84 0 136 -64t52 -149q0 -92 -54 -158.5t-145 -66.5q-55 0 -97.5 24.5t-66.5 66t-36 89.5t-12 100q0 69 17 136.5t50.5 127t91.5 96t131 36.5q38 0 71.5 -14.5t33.5 -47.5q0 -15 -9.5 -25.5t-24.5 -10.5q-19 0 -32.5 19t-29.5 38.5t-39 20.5
q-53 0 -92 -49.5t-55 -107t-18 -110.5zM355 214q0 45 -8.5 85t-37 74t-73.5 34q-42 0 -70.5 -30t-39 -68t-10.5 -79q0 -34 5 -67t17 -68.5t38 -57.5t62 -22q35 0 59.5 20t36 52.5t16.5 63t5 63.5z" />
    <glyph glyph-name="seven" unicode="7" horiz-adv-x="467" 
d="M429 640l-240 -592q-7 -18 -12.5 -28.5t-18 -20.5t-28.5 -10q-43 0 -43 41q0 14 16 46l275 492h-204q-43 0 -71 -23.5t-37 -66.5h-28l28 189h23q0 -27 37 -27h303z" />
    <glyph glyph-name="eight" unicode="8" horiz-adv-x="467" 
d="M342 356q55 -21 87.5 -68.5t32.5 -106.5q0 -88 -68.5 -140t-160.5 -52q-85 0 -149.5 53t-64.5 136q0 54 33 97.5t85 67.5q-102 44 -102 149q0 76 62 124.5t140 48.5q81 0 144 -45.5t63 -124.5q0 -94 -102 -139zM289 374q76 34 76 123q0 60 -34.5 102.5t-92.5 42.5
q-55 0 -90 -37.5t-35 -92.5q0 -76 77 -103zM190 325q-88 -47 -88 -140q0 -67 35 -117t99 -50t102 47t38 113q0 41 -24.5 71.5t-64.5 43.5z" />
    <glyph glyph-name="nine" unicode="9" horiz-adv-x="467" 
d="M345 274q-45 -48 -121 -48q-84 0 -140 59.5t-56 143.5q0 91 58.5 163.5t147.5 72.5q55 0 97.5 -27.5t66 -72t35.5 -94.5t12 -101q0 -65 -17 -130t-49.5 -122t-88.5 -93t-126 -36q-51 0 -96 26t-45 73q0 20 11 33.5t30 13.5q16 0 27 -18.5t17 -40.5t25.5 -40.5t50.5 -18.5
q40 0 72.5 27t51 68t28 83.5t9.5 78.5zM352 430q0 32 -4.5 65t-16 69t-36.5 59t-59 23q-35 0 -60 -20t-37.5 -53t-17.5 -64.5t-5 -63.5t4.5 -63t16 -63.5t36 -52.5t59.5 -20q45 0 73.5 32t37.5 70t9 82z" />
    <glyph glyph-name="colon" unicode=":" horiz-adv-x="237" 
d="M119 -13q-23 0 -39.5 16.5t-16.5 39.5t16.5 39.5t39.5 16.5t39 -16.5t16 -39.5t-16 -39.5t-39 -16.5zM119 315q-23 0 -39.5 16.5t-16.5 39.5t16.5 39.5t39.5 16.5t39 -16.5t16 -39.5t-16 -39.5t-39 -16.5z" />
    <glyph glyph-name="semicolon" unicode=";" horiz-adv-x="237" 
d="M56 -173v17q79 57 79 119q0 18 -8 37q-13 -3 -29 -3q-22 0 -37.5 16.5t-15.5 38.5q0 23 16.5 39.5t39.5 16.5q39 0 63 -34t24 -75q0 -58 -38 -106.5t-94 -65.5zM117 315q-23 0 -39.5 16.5t-16.5 39.5t16.5 39t39.5 16t39 -16t16 -39t-16 -39.5t-39 -16.5z" />
    <glyph glyph-name="less" unicode="&#x3c;" 
d="M458 618v-43l-300 -194l300 -201v-114l-416 279v7z" />
    <glyph glyph-name="equal" unicode="=" 
d="M20 440h460v-48h-460v48zM20 297h460v-48h-460v48z" />
    <glyph glyph-name="greater" unicode="&#x3e;" 
d="M42 66v43l300 194l-300 201v114l416 -280v-6z" />
    <glyph glyph-name="question" unicode="?" horiz-adv-x="412" 
d="M196 226h-34v204h19q26 -34 51 -34q24 0 40 24.5t20.5 49.5t4.5 48q0 52 -22 93.5t-69 41.5q-21 0 -34.5 -10.5t-18.5 -23.5t-14 -24t-22 -12q-13 0 -22.5 8.5t-9.5 21.5q0 35 40.5 53t81.5 18q70 0 119 -51.5t49 -122.5q0 -55 -35 -102.5t-88 -47.5q-32 0 -56 17v-151z
M180 -13q-23 0 -39.5 16.5t-16.5 39.5t16.5 39.5t39.5 16.5t39 -16.5t16 -39.5t-16 -39.5t-39 -16.5z" />
    <glyph glyph-name="at" unicode="@" horiz-adv-x="776" 
d="M610 116l31 -10q-120 -120 -270 -120q-130 0 -221.5 99t-91.5 231q0 160 113 263t274 103q118 0 201.5 -73t83.5 -189q0 -144 -92 -229q-54 -52 -112 -52q-34 0 -50.5 27.5t-16.5 63.5q-61 -94 -135 -94q-45 0 -69.5 38.5t-24.5 85.5q0 53 23.5 113t70.5 105.5t101 45.5
q55 0 89 -53l8 41q29 2 56 6l-60 -237q-11 -42 -11 -62q0 -47 33 -47q42 0 89 55q65 78 65 188q0 101 -73 167t-176 66q-155 0 -249 -101q-38 -41 -66 -111.5t-28 -126.5q0 -117 84 -202.5t201 -85.5q102 0 223 95zM474 353l20 63q2 8 2 14q0 26 -15.5 46t-41.5 20
q-44 0 -81 -48t-54.5 -105.5t-17.5 -101.5q0 -29 13.5 -51.5t40.5 -22.5q47 0 82.5 55.5t47.5 110.5q2 14 4 20z" />
    <glyph glyph-name="A" unicode="A" horiz-adv-x="723" 
d="M382 678l252 -581q15 -34 36 -49.5t57 -16.5v-31h-275v31h22q58 0 58 31q0 15 -9 35l-54 129h-266l-52 -129q-7 -16 -7 -27q0 -39 62 -39h21v-31h-230v31q45 1 68.5 14.5t39.5 51.5l240 581h37zM450 268l-87 212q-22 58 -28 80q-1 -3 -3.5 -11.5t-4.5 -13.5l-108 -267
h231z" />
    <glyph glyph-name="B" unicode="B" horiz-adv-x="596" 
d="M337 361q88 -3 151 -49t63 -130q0 -82 -56.5 -132t-140.5 -50h-340v31q31 1 44.5 3t29 9.5t21 23.5t5.5 44v445q0 27 -5.5 43.5t-21 24t-29.5 9.5t-44 3v31h323q73 0 125.5 -38t52.5 -109q0 -134 -178 -159zM214 341v-230q0 -44 24.5 -59.5t72.5 -15.5q67 0 97 44t30 115
q0 27 -4.5 48.5t-15 36t-20.5 25.5t-29.5 17.5t-33 10.5t-38.5 5.5t-39.5 2t-43.5 0.5zM214 373q38 0 60.5 1.5t51 8.5t43.5 20t26 38.5t11 62.5q0 65 -25 97.5t-87 32.5h-80v-261z" />
    <glyph glyph-name="C" unicode="C" horiz-adv-x="698" 
d="M654 666l9 -241h-31q-55 223 -241 223q-59 0 -104.5 -28t-71.5 -73.5t-38.5 -98t-12.5 -107.5q0 -82 24 -149.5t81.5 -113.5t141.5 -46q76 0 145.5 46.5t97.5 116.5l36 -27q-38 -86 -123 -136t-182 -50q-148 0 -242 97t-94 246q0 150 95 254t243 104q117 0 217 -68
q9 15 22 51h28z" />
    <glyph glyph-name="D" unicode="D" horiz-adv-x="731" 
d="M13 636v31q22 0 67 -0.5t67 -0.5t66.5 0.5t66.5 0.5q125 0 184 -20q104 -36 162 -121.5t58 -197.5q0 -148 -92 -238t-240 -90h-339v31q31 1 44.5 3t29 9.5t21 23.5t5.5 44v445q0 27 -5.5 43.5t-21 24t-29.5 9.5t-44 3zM213 632v-487q0 -72 22.5 -91t95.5 -19q64 0 111 24
t73 66t38.5 93t12.5 112q0 147 -69.5 226t-212.5 79q-35 0 -71 -3z" />
    <glyph glyph-name="E" unicode="E" horiz-adv-x="584" 
d="M506 667l18 -163h-31q-15 62 -45.5 95.5t-88.5 33.5h-145v-262h63q46 0 68.5 23t24.5 70h31v-226h-31q-4 28 -8 43t-13.5 29.5t-26.5 20t-45 5.5h-63v-214q0 -50 26.5 -69t78.5 -19q38 0 60.5 2t50 9.5t48 25t37.5 45.5q29 51 31 90h29l-13 -206h-548v31q31 1 44.5 3
t29 9.5t21 23.5t5.5 44v445q0 27 -5.5 43.5t-21 24t-29.5 9.5t-44 3v31h492z" />
    <glyph glyph-name="F" unicode="F" horiz-adv-x="516" 
d="M396 463v-227h-31q0 100 -85 100h-69v-225q0 -28 5.5 -44t21.5 -23.5t29 -9.5t44 -3v-31h-298v31q31 1 44.5 3t29 9.5t21 23.5t5.5 44v445q0 27 -5.5 43.5t-21 24t-29.5 9.5t-44 3v31h489l18 -162h-30q-19 63 -47.5 96t-86.5 33h-145v-264h74q80 0 80 93h31z" />
    <glyph glyph-name="G" unicode="G" horiz-adv-x="750" 
d="M446 290h290v-31h-15q-73 0 -73 -63v-148q-38 -5 -128.5 -35t-145.5 -30q-141 0 -234 94t-93 235q0 154 95.5 262.5t247.5 108.5q117 0 202 -65q13 19 22 48h28l6 -227h-34q-13 91 -72.5 152t-148.5 61q-66 0 -113 -29.5t-71.5 -80t-35 -104.5t-10.5 -116
q0 -53 12.5 -104t38 -96t69.5 -72.5t101 -27.5q47 0 105.5 24.5t58.5 58.5v91q0 37 -19 50t-59 13h-24v31z" />
    <glyph glyph-name="H" unicode="H" horiz-adv-x="758" 
d="M545 331h-332v-220q0 -28 5.5 -44t21.5 -23.5t29 -9.5t44 -3v-31h-300v31q31 1 44.5 3t29 9.5t21 23.5t5.5 44v445q0 27 -5.5 43.5t-21 24t-29.5 9.5t-44 3v31h300v-31q-54 -2 -77 -14t-23 -66v-182h332v182q0 49 -22 63t-78 17v31h300v-31q-55 -2 -77 -14
q-23 -12 -23 -66v-445q0 -28 6 -44.5t19.5 -23.5t27.5 -9t38 -3h9v-31h-300v31q39 2 57 6t30.5 21.5t12.5 52.5v220z" />
    <glyph glyph-name="I" unicode="I" horiz-adv-x="327" 
d="M314 0h-300v31q31 1 44.5 3t29 9.5t21 23.5t5.5 44v445q0 27 -5.5 43.5t-21 24t-29.5 9.5t-44 3v31h300v-31q-54 -2 -77 -14t-23 -66v-445q0 -28 5.5 -44t21.5 -23.5t29 -9.5t44 -3v-31z" />
    <glyph glyph-name="J" unicode="J" horiz-adv-x="318" 
d="M5 636v31h300v-31q-54 -2 -77 -14q-23 -13 -23 -66v-550q0 -123 -42 -179q-33 -45 -85 -70.5t-109 -25.5q-24 0 -48.5 4t-50.5 13t-42.5 28t-16.5 45q0 21 16 36.5t37 15.5q19 0 32.5 -14.5t13.5 -33.5q0 -10 -6 -28q0 -33 60 -33q141 0 141 175v617q0 27 -6 43
t-21.5 23.5t-29.5 10t-43 3.5z" />
    <glyph glyph-name="K" unicode="K" horiz-adv-x="696" 
d="M354 414l255 -334q38 -49 109 -49v-31h-292v31q11 0 33 2q37 3 37 17q0 10 -15 30l-200 268l-68 -62v-175q0 -22 5 -37t11.5 -23t22 -12.5t26.5 -5.5t35 -2v-31h-300v31q31 1 44.5 3t29 9.5t21 23.5t5.5 44v445q0 27 -5.5 43.5t-21 24t-29.5 9.5t-44 3v31h300v-31
q-54 -2 -76 -14q-24 -13 -24 -66v-216l235 216q30 28 30 45q0 36 -70 36v30h262v-30q-75 0 -135 -56z" />
    <glyph glyph-name="L" unicode="L" horiz-adv-x="571" 
d="M574 206l-13 -206h-548v31q31 1 44.5 3t29 9.5t21 23.5t5.5 44v445q0 27 -5.5 43.5t-21 24t-29.5 9.5t-44 3v31h300v-31q-54 -2 -77 -14t-23 -66v-434q0 -50 26.5 -69t78.5 -19q38 0 60.5 2t50 9.5t48 25t37.5 45.5q29 51 31 90h29z" />
    <glyph glyph-name="M" unicode="M" horiz-adv-x="879" 
d="M426 0h-31l-197 474q-9 22 -24 63t-20 55v-53v-358v-30q0 -62 17 -88.5t82 -31.5v-31h-239v31q54 2 77 26.5t23 77.5v22v385q0 59 -20 75.5t-80 18.5v31h208l152 -364q32 -69 64 -174q2 4 4 11.5t4 11.5l213 515h207v-31q-54 -2 -76 -14q-24 -13 -24 -66v-445
q0 -46 15 -60q20 -20 75 -20h10v-31h-300v31q64 3 82 20.5t18 77.5v336q0 71 6 140q-9 -34 -29 -84z" />
    <glyph glyph-name="N" unicode="N" horiz-adv-x="725" 
d="M211 667l327 -451q14 -19 37 -68q0 12 -0.5 34t-0.5 34v320q0 30 -4 48t-14 26.5t-18.5 11.5t-26.5 6.5t-29 7.5v31h230v-31q-53 -1 -74.5 -24t-21.5 -76v-542h-42l-356 496q-33 44 -65 100v-424q0 -71 17 -100.5t82 -34.5v-31h-239v31q55 2 77.5 26.5t22.5 81.5v417
q0 27 -5.5 43.5t-21 24t-29.5 9.5t-44 3v31h198z" />
    <glyph glyph-name="O" unicode="O" horiz-adv-x="802" 
d="M400 -17q-152 0 -253 99t-101 251q0 154 100.5 252t253.5 98q154 0 254.5 -98t100.5 -252q0 -152 -101.5 -251t-253.5 -99zM400 18q66 0 114 27t74.5 73.5t38.5 100t12 115.5t-12 115.5t-38.5 100.5t-74.5 74t-114 27q-53 0 -94.5 -18.5t-68.5 -48.5t-44.5 -71.5
t-24.5 -85.5t-7 -93q0 -62 12 -115.5t38.5 -100t74.5 -73.5t114 -27z" />
    <glyph glyph-name="P" unicode="P" horiz-adv-x="536" 
d="M213 317v-206q0 -28 5.5 -44t21.5 -23.5t29 -9.5t44 -3v-31h-300v31q31 1 44.5 3t29 9.5t21 23.5t5.5 44v445q0 27 -5.5 43.5t-21 24t-29.5 9.5t-44 3v31h235q36 0 58 -0.5t56 -4t55 -10t46 -19.5t39.5 -31.5t24 -47t9.5 -64.5q0 -47 -22 -86.5t-62 -61.5
q-47 -25 -142 -25h-97zM213 348h77q66 0 102 39.5t36 106.5q0 78 -37 111.5t-116 33.5q-20 0 -62 -2v-289z" />
    <glyph glyph-name="Q" unicode="Q" horiz-adv-x="801" 
d="M402 -15q-154 0 -254.5 97t-100.5 251t103 252t257 98q152 0 251 -97.5t99 -249.5q0 -112 -59 -201t-162 -129q-36 -15 -108 -43t-108 -43q30 3 61 3q60 0 123 -19.5t106.5 -43t98.5 -43t102 -19.5q45 0 72.5 20.5t44.5 63.5q4 8 8 9q10 0 10 -11q0 -61 -67.5 -108
t-130.5 -47q-51 0 -109.5 28t-102.5 61t-101 61t-106 28q-30 0 -65 -19t-39 -19q-9 0 -15 8t-6 18q0 7 13 14q107 36 185 80zM641 346q0 60 -12.5 112t-38.5 97t-73 70.5t-111 25.5q-68 0 -117 -26.5t-75.5 -73t-38.5 -100.5t-12 -119q0 -49 7 -92.5t24 -85t43.5 -71
t68 -47.5t94.5 -18q70 0 119 27.5t74.5 76.5t36.5 103.5t11 120.5z" />
    <glyph glyph-name="R" unicode="R" horiz-adv-x="675" 
d="M213 315v-204q0 -28 5.5 -44t21.5 -23.5t29 -9.5t44 -3v-31h-300v31q31 1 44.5 3t29 9.5t21 23.5t5.5 44v445q0 27 -5.5 43.5t-21 24t-29.5 9.5t-44 3v31h284q124 0 182 -44q64 -49 64 -124q0 -74 -55.5 -121t-132.5 -49q19 -3 35.5 -9t28.5 -11.5t26.5 -17.5t21.5 -18.5
t21 -24.5t18 -24t19 -28t19 -28q6 -9 22.5 -35.5t26.5 -39t26.5 -30t36 -25t42.5 -7.5v-31h-152q-43 36 -104 141t-93 141q-30 33 -80 33h-56zM213 348h87q70 0 102 37t32 110q0 141 -149 141h-72v-288z" />
    <glyph glyph-name="S" unicode="S" horiz-adv-x="509" 
d="M434 674v-181h-30q-12 70 -53.5 115t-109.5 45q-44 0 -77.5 -26t-33.5 -68q0 -44 35.5 -77t86.5 -56.5t102 -50.5t86.5 -73.5t35.5 -110.5q0 -89 -55.5 -148.5t-144.5 -59.5q-99 0 -183 73q-15 -31 -22 -56h-31v210h31q10 -73 62 -129t123 -56q61 0 103.5 31.5t42.5 90.5
q0 50 -36 86.5t-87 60t-102.5 49t-87.5 68.5t-36 102q0 76 54.5 123t131.5 47q92 0 149 -49q6 8 22 40h24z" />
    <glyph glyph-name="T" unicode="T" horiz-adv-x="643" 
d="M470 0h-298v31q30 1 44.5 3.5t29.5 10t20.5 23.5t5.5 43v523h-112q-58 0 -86 -32.5t-47 -96.5h-30l17 162h614l17 -162h-29q-21 64 -48.5 96.5t-85.5 32.5h-112v-523q0 -28 5.5 -44t22 -23.5t29.5 -9.5t43 -3v-31z" />
    <glyph glyph-name="U" unicode="U" horiz-adv-x="698" 
d="M444 666h241v-30q-58 -5 -77 -16q-24 -14 -24 -71v-322q0 -117 -45 -180.5t-160 -63.5q-75 0 -121 9t-81 35t-49.5 73t-14.5 123v332q0 28 -5.5 44t-21 24t-29 10t-44.5 3v30h300v-30q-4 0 -17 -0.5t-18 -0.5t-16.5 -2t-16.5 -5t-12.5 -9t-11 -14.5t-6 -21t-2.5 -28.5
v-320q0 -42 3 -71.5t12.5 -59t27.5 -47t48.5 -28.5t74.5 -11q50 0 83.5 15.5t51 45.5t24 64.5t6.5 82.5v9v314q0 51 -22.5 67t-77.5 20v30z" />
    <glyph glyph-name="V" unicode="V" horiz-adv-x="723" 
d="M378 -11h-36l-253 580q-28 67 -93 67v31h275v-31h-22q-58 0 -58 -31q0 -14 9 -36l160 -382q19 -47 28 -78q1 4 4 11.5t4 11.5l176 437q7 17 7 31q0 36 -63 36h-20v31h230v-31l-9 -1q-43 -4 -63.5 -16.5t-35.5 -49.5z" />
    <glyph glyph-name="W" unicode="W" horiz-adv-x="946" 
d="M506 667l132 -384q33 -89 43 -143q3 14 23 90l96 326q8 26 8 40q0 7 -1.5 12.5t-5.5 9.5t-8 7t-11 5t-11 3t-13 1.5t-13 1t-13.5 0.5h-11.5v31h229v-31q-43 -1 -68 -14t-36 -51l-171 -582h-36l-176 506l-156 -506h-41l-177 582q-20 65 -92 65v31h269v-31h-15
q-62 0 -62 -34q0 -6 5 -23l97 -342q6 -17 23 -97l162 527h31z" />
    <glyph glyph-name="X" unicode="X" horiz-adv-x="710" 
d="M402 378l195 -290q35 -52 113 -57v-31h-291v31h20q52 0 52 25q0 13 -13 32l-140 207l-157 -207q-10 -12 -13 -24q0 -7 3 -12.5t9.5 -9t11.5 -5.5t15.5 -3t14.5 -1.5t15 -0.5l11 -1v-31h-248v31q94 0 136 57l181 241l-174 251q-21 31 -46.5 42.5t-67.5 13.5v31h288v-31
h-18q-50 0 -50 -22q0 -11 14 -34l115 -168l128 168q12 16 12 29q0 27 -64 27h-15v31h246v-31q-49 -4 -79.5 -14.5t-53.5 -41.5z" />
    <glyph glyph-name="Y" unicode="Y" horiz-adv-x="663" 
d="M381 297v-186q0 -27 6.5 -43.5t21.5 -24t29.5 -9.5t42.5 -3v-31h-298v31q30 1 44.5 3.5t29.5 10t20.5 23.5t5.5 43v186l-183 285q-19 29 -42.5 40.5t-60.5 13.5v31h286v-31h-25q-48 0 -48 -25q0 -9 9 -29l143 -246l149 246q9 18 9 26q0 28 -92 28v31h239v-31
q-42 -2 -70 -16.5t-48 -47.5z" />
    <glyph glyph-name="Z" unicode="Z" horiz-adv-x="590" 
d="M548 178h32l-15 -178h-555v16l422 613h-216q-110 0 -144 -127h-33l19 165h507v-14l-422 -615h247q68 0 102.5 35t55.5 105z" />
    <glyph glyph-name="bracketleft" unicode="[" horiz-adv-x="275" 
d="M94 667h170v-33h-95v-876h95v-33h-170v942z" />
    <glyph glyph-name="backslash" unicode="\" horiz-adv-x="230" 
d="M-75 667h49l333 -942h-49z" />
    <glyph glyph-name="bracketright" unicode="]" horiz-adv-x="275" 
d="M181 667v-942h-170v33h95v876h-95v33h170z" />
    <glyph glyph-name="asciicircum" unicode="^" 
d="M526 284h-43l-194 300l-201 -300h-114l279 416h7z" />
    <glyph glyph-name="underscore" unicode="_" 
d="M20 -89h460v-49h-460v49z" />
    <glyph glyph-name="grave" unicode="`" 
d="M291 608l52 -124q1 -2 1 -5v-1q0 -6 -12 -6q-4 1 -12 5l-158 114q-6 4 -6 9q0 8 12 8h123z" />
    <glyph glyph-name="a" unicode="a" horiz-adv-x="452" 
d="M436 88h30q-25 -99 -100 -99q-34 0 -55.5 18.5t-26.5 52.5q-27 -31 -66.5 -50.5t-79.5 -19.5q-44 0 -71 28.5t-27 73.5q0 40 15.5 67t44 41t57 22t66.5 16.5t61 18.5v34q0 53 -14.5 79t-63.5 26q-25 0 -39.5 -10t-20 -25t-10.5 -29.5t-15.5 -24.5t-29.5 -10q-16 0 -30 9
t-14 24q0 32 30 55.5t65 32.5t66 9q159 0 159 -127v-220q0 -42 26 -44q29 0 41 45q2 4 2 7zM284 228q-14 -6 -46.5 -16t-53.5 -18t-40 -27.5t-21 -46.5q0 -31 19 -52t51 -21q43 0 91 41v140z" />
    <glyph glyph-name="b" unicode="b" horiz-adv-x="541" 
d="M164 367q48 60 138 60q93 0 146 -62t53 -156t-58 -157t-151 -63q-70 0 -144 47q-18 -14 -32 -42l-35 6v556q0 79 -67 80v31q78 11 150 28v-328zM164 105q46 -76 122 -76q64 0 94.5 52t30.5 120q0 181 -120 181q-97 0 -127 -72v-205z" />
    <glyph glyph-name="c" unicode="c" horiz-adv-x="432" 
d="M382 108l30 -10q-38 -104 -156 -109q-94 0 -155 56t-61 149q0 98 56 165t153 67q26 0 57 -7.5t58.5 -27t27.5 -46.5q0 -16 -11 -27t-28 -11q-19 0 -35 13q-3 37 -18.5 54.5t-52.5 17.5q-41 0 -68 -29t-36.5 -65t-9.5 -76q0 -46 12 -87t44 -73t78 -32q75 0 115 78z" />
    <glyph glyph-name="d" unicode="d" horiz-adv-x="541" 
d="M377 367v189q0 79 -67 80v31q81 11 150 28v-584q0 -79 68 -80v-31q-54 0 -121 -5q-11 21 -14 41q-74 -47 -144 -47q-93 0 -151 63t-58 157t53 156t146 62q90 0 138 -60zM377 105v205q-30 72 -127 72q-35 0 -60 -16.5t-37.5 -45t-17.5 -57.5t-5 -62q0 -68 30.5 -120
t94.5 -52q78 0 122 76z" />
    <glyph glyph-name="e" unicode="e" horiz-adv-x="454" 
d="M416 223h-285q0 -196 128 -196q74 0 128 76l29 -16q-62 -98 -172 -98q-92 0 -148 60.5t-56 153.5t54.5 158.5t146.5 65.5q81 0 128 -60.5t47 -143.5zM327 258q0 1 0.5 4.5t0.5 5.5q0 122 -92 122q-51 0 -76.5 -38.5t-27.5 -93.5h195z" />
    <glyph glyph-name="f" unicode="f" horiz-adv-x="265" 
d="M256 416v-30h-90v-275q0 -48 19 -63.5t68 -17.5v-30h-237v31q38 1 52.5 20.5t14.5 59.5v275h-70v30h70q0 37 1 60.5t5.5 58t15.5 56.5t28 43.5t46 32t68 10.5q35 0 63.5 -18t28.5 -51q0 -16 -11.5 -28.5t-27.5 -12.5q-21 0 -30 12t-8.5 26t-6 26t-23.5 12q-66 0 -66 -105
v-122h90z" />
    <glyph glyph-name="g" unicode="g" horiz-adv-x="471" 
d="M356 361q22 -37 22 -85q0 -61 -40 -100.5t-102 -43.5q-128 -5 -132 -42q0 -20 38 -20q50 0 150 -6q71 -6 111 -35t40 -96q0 -89 -66.5 -140.5t-157.5 -51.5q-44 0 -89 13t-81 46t-36 79q0 44 36 74t81 30q5 0 17 -2q-3 -3 -13 -11t-14 -11.5t-11.5 -11t-10.5 -12.5
t-7.5 -13t-6 -16.5t-1.5 -18.5q0 -52 44 -78.5t99 -26.5q57 0 104 27.5t47 80.5q0 38 -27 57.5t-68 22.5q-7 1 -39 2.5t-51 3.5t-48.5 8.5t-46 16t-29.5 28t-13 42.5q0 32 28.5 52t63.5 23q-43 13 -67.5 47t-24.5 79q0 70 45.5 112.5t116.5 42.5q83 0 126 -51q41 48 92 51
q19 0 34 -10t15 -28q0 -16 -9.5 -27t-24.5 -11q-12 0 -28 14.5t-28 14.5q-17 0 -38 -19zM299 276q0 125 -81 125q-32 0 -51.5 -23t-25 -50t-5.5 -59q0 -46 18 -80.5t60 -34.5q44 0 64.5 37t20.5 85z" />
    <glyph glyph-name="h" unicode="h" horiz-adv-x="520" 
d="M507 0h-216v31q38 1 52 20.5t14 59.5v176q0 42 -21.5 66t-64.5 24q-52 0 -107 -46v-220q0 -40 14.5 -59.5t52.5 -20.5v-31h-217v31q38 1 52.5 20.5t14.5 59.5v445q0 79 -67 80v31q73 10 150 27v-323q77 56 148 56q64 0 96.5 -37t32.5 -101v-178q0 -40 14 -59.5t52 -20.5
v-31z" />
    <glyph glyph-name="i" unicode="i" horiz-adv-x="243" 
d="M163 422v-311q0 -40 14.5 -59.5t52.5 -20.5v-31h-217v31q38 1 52.5 20.5t14.5 59.5v172q0 39 -15 59.5t-52 21.5v30q60 8 150 28zM123 491q-21 0 -37 14.5t-16 35.5t16 35.5t37 14.5q20 0 35 -15t15 -35t-15 -35t-35 -15z" />
    <glyph glyph-name="j" unicode="j" horiz-adv-x="228" 
d="M163 422v-517q0 -77 -43.5 -128.5t-119.5 -51.5q-30 0 -61.5 15t-31.5 42q0 14 10.5 24.5t24.5 10.5q17 0 38.5 -26t40.5 -26q21 0 34 11t18 32t6 35.5t1 37.5v402q0 39 -15 59.5t-52 21.5v30q65 9 150 28zM125 491q-21 0 -37 14.5t-16 35.5t16 35.5t37 14.5q20 0 35 -15
t15 -35t-15 -35t-35 -15z" />
    <glyph glyph-name="k" unicode="k" horiz-adv-x="486" 
d="M244 263l155 -180q37 -43 87 -52v-31h-191v31h19q21 0 21 14q-4 9 -13 15l-137 157l-22 -19v-87q0 -40 14.5 -59.5t52.5 -20.5v-31h-217v31q38 1 52.5 20.5t14.5 59.5v445q0 79 -67 80v31q73 10 150 27v-454l132 104q11 9 12 20q0 20 -31 20q-2 0 -5 0.5t-5 0.5v30h174
v-30q-58 -6 -100 -41z" />
    <glyph glyph-name="l" unicode="l" horiz-adv-x="243" 
d="M230 0h-217v31q38 1 52.5 20.5t14.5 59.5v445q0 79 -67 80v31q73 10 150 27v-583q0 -40 14.5 -59.5t52.5 -20.5v-31z" />
    <glyph glyph-name="m" unicode="m" horiz-adv-x="794" 
d="M151 422q13 -26 13 -61q73 66 154 66q37 0 68 -17t44 -49q77 66 153 66q71 0 101 -36t30 -107v-173q0 -40 14.5 -59.5t52.5 -20.5v-31h-217v31q38 1 52.5 20.5t14.5 59.5v160q0 52 -17 78.5t-70 26.5q-58 0 -104 -49v-36v-180q0 -40 14 -59.5t52 -20.5v-31h-216v31
q38 1 52 20.5t14 59.5v168q0 97 -86 97q-50 0 -106 -49v-216q0 -40 14.5 -59.5t52.5 -20.5v-31h-217v31q38 1 52.5 20.5t14.5 59.5v172q0 39 -15 59.5t-52 21.5v30q83 12 137 28z" />
    <glyph glyph-name="n" unicode="n" horiz-adv-x="519" 
d="M150 422q13 -26 13 -61q73 66 154 66q122 0 122 -136v-180q0 -40 14 -59.5t52 -20.5v-31h-216v31q38 1 52 20.5t14 59.5v168q0 97 -86 97q-50 0 -106 -49v-216q0 -40 14.5 -59.5t52.5 -20.5v-31h-217v31q38 1 52.5 20.5t14.5 59.5v172q0 39 -15 59.5t-52 21.5v30
q83 12 137 28z" />
    <glyph glyph-name="o" unicode="o" horiz-adv-x="511" 
d="M471 206q0 -96 -60 -156.5t-156 -60.5q-99 0 -157 57t-58 156q0 101 58.5 163t159.5 62t157 -60t56 -161zM381 204q0 30 -2 53.5t-10 51t-21 46t-36.5 30.5t-55.5 12q-126 0 -126 -199q0 -74 29 -127t96 -53q47 0 77 30.5t39.5 69.5t9.5 86z" />
    <glyph glyph-name="p" unicode="p" horiz-adv-x="528" 
d="M163 35v-191q0 -48 19 -63.5t68 -17.5v-30h-237v31q38 1 52.5 20.5t14.5 59.5v439q0 78 -67 81v30q83 12 137 28q13 -21 13 -57q56 61 136 61q87 0 138 -62.5t51 -151.5q0 -92 -52 -157.5t-142 -65.5q-76 0 -131 46zM163 81q49 -49 107 -52q46 0 76.5 30.5t41.5 70.5
t11 86q0 67 -27.5 118.5t-88.5 51.5q-67 0 -120 -82v-223z" />
    <glyph glyph-name="q" unicode="q" horiz-adv-x="524" 
d="M444 422v-578q0 -40 14.5 -59.5t52.5 -20.5v-31h-237v30q49 2 68 17.5t19 63.5v197q-57 -52 -132 -52q-87 0 -138 61t-51 149q0 92 55.5 159.5t145.5 67.5q70 0 120 -44q41 14 83 40zM361 326q-48 57 -110 57q-34 0 -59 -18t-38 -47t-19 -59.5t-6 -62.5
q0 -66 29.5 -115.5t91.5 -49.5q46 0 111 46v249z" />
    <glyph glyph-name="r" unicode="r" horiz-adv-x="341" 
d="M163 315v-204q0 -46 14 -59.5t59 -21.5v-30h-223v31q38 1 52.5 20.5t14.5 59.5v172q0 39 -15 59.5t-52 21.5v30q83 12 137 28q13 -24 13 -75q55 73 119 73q24 0 41.5 -14.5t17.5 -37.5q0 -15 -10 -27.5t-25 -13.5q-15 0 -33 19t-32 19q-23 0 -44.5 -14.5t-33.5 -35.5z
" />
    <glyph glyph-name="s" unicode="s" horiz-adv-x="346" 
d="M292 415v-137h-23q-10 46 -38.5 79.5t-72.5 33.5q-25 0 -41.5 -16t-16.5 -41q0 -24 22 -43t53 -32.5t62.5 -30t53.5 -45t22 -67.5q0 -57 -34 -92t-90 -35q-64 0 -114 45l-17 -34h-24v143h24q6 -49 39 -82.5t81 -33.5q29 0 50 17t21 45q0 27 -22 47.5t-53 35t-62 31
t-53 44t-22 63.5q0 53 30.5 85t82.5 32q55 0 100 -48l19 36h23z" />
    <glyph glyph-name="t" unicode="t" horiz-adv-x="258" 
d="M256 418v-32h-111v-258q0 -31 11.5 -56t37.5 -25q14 0 29 8.5t20 13t22 21.5l20 -17q-49 -77 -122 -77q-101 0 -101 132v258h-49v22q49 8 73.5 55.5t24.5 102.5h34v-148h111z" />
    <glyph glyph-name="u" unicode="u" horiz-adv-x="519" 
d="M369 -5q-13 33 -13 60q-73 -66 -155 -66q-50 0 -85 28t-36 76v31v192q0 40 -14.5 59.5t-52.5 20.5v31h150v-290q0 -97 87 -97q50 0 106 49v227q0 40 -14.5 59.5t-52.5 20.5v31h150v-316q0 -79 67 -80v-31q-62 0 -137 -5z" />
    <glyph glyph-name="v" unicode="v" horiz-adv-x="466" 
d="M469 415v-30q-48 0 -61 -27l-164 -358h-26l-166 358q-14 27 -55 27v30h189v-30q-4 -2 -11 -2.5t-12.5 -1t-10.5 -4t-6 -10.5q0 -9 8 -29l101 -233l108 240q4 12 5 18q0 19 -34 21l-10 1v30h145z" />
    <glyph glyph-name="w" unicode="w" horiz-adv-x="668" 
d="M469 0h-34l-106 300l-115 -300h-34l-126 346q-5 14 -15.5 22t-16.5 10t-26 7v30h184v-30q-4 -2 -15 -2.5t-18 -3.5t-9 -12q0 -7 4 -21l80 -234l114 303h34l107 -303l93 234q5 15 5 20v1q0 14 -46 18v30h141v-30q-49 -4 -63 -39z" />
    <glyph glyph-name="x" unicode="x" horiz-adv-x="514" 
d="M491 415v-30q-51 0 -75 -25l-119 -130l131 -169q23 -30 77 -30v-31h-208v31h23h5t6.5 0.5t6 1.5t5 2.5t1.5 4.5q0 10 -11 21l-92 111l-102 -111q-11 -13 -11 -19q0 -11 27 -11h13v-31h-156v31q52 0 79 30l129 139l-122 152q-16 20 -32 26.5t-42 6.5v30h196v-30h-10
q-2 0 -6.5 -0.5t-8 -0.5t-7 -2t-4.5 -5q0 -9 8 -17l82 -101l93 101q8 6 8 13q0 11 -28 11q-3 0 -9.5 0.5t-9.5 0.5v30h163z" />
    <glyph glyph-name="y" unicode="y" horiz-adv-x="466" 
d="M470 415v-30l-10 -1q-42 -4 -58 -38l-213 -466q-1 -3 -8 -19t-10 -22.5t-10.5 -22t-13 -23.5t-14 -20.5t-16 -19t-17 -14t-20.5 -10.5t-22 -3q-19 0 -34 10t-15 29q0 12 7 22q3 0 8 -1t7 -1q28 0 52.5 15.5t45 45.5t33.5 54t30.5 63t22.5 50l-156 333q-18 37 -62 39v30
h192v-30q-43 0 -43 -21q0 -6 4 -18l108 -234l105 234q6 14 7 22v1q0 5 -2.5 8t-8 4.5t-9.5 2t-11 1t-8 0.5h-7v30h146z" />
    <glyph glyph-name="z" unicode="z" horiz-adv-x="392" 
d="M352 139h26l-8 -139h-357v33l257 353h-144q-23 0 -36 -13t-25.5 -41t-17.5 -36h-27l14 121h336v-31l-257 -353h139q20 0 36.5 9t29 28t19 32.5t15.5 36.5z" />
    <glyph glyph-name="braceleft" unicode="{" 
d="M104 303v16q47 3 71 19.5t24 60.5q0 19 -1 59t-1 59q0 44 1.5 68.5t9.5 52.5t23 41.5t42.5 23.5t68.5 11h41q12 0 18 1v-23q-67 -2 -97.5 -24t-31.5 -86q0 -24 -0.5 -71t-0.5 -71q0 -27 -2 -44t-9.5 -35.5t-25 -30t-44.5 -17.5v-4q27 -5 44 -17.5t24.5 -32.5t10 -38
t2.5 -45q0 -24 -0.5 -71t-0.5 -71q0 -76 28 -104t103 -28v-23h-15q-25 0 -35.5 0.5t-31.5 2t-30.5 4t-26 7t-23.5 11.5l-17.5 17.5t-14.5 24t-7.5 31.5t-3.5 41q0 30 0.5 63t1.5 74t1 63q-1 48 -23 65t-72 20z" />
    <glyph glyph-name="bar" unicode="|" 
d="M219 666h63v-833h-63v833z" />
    <glyph glyph-name="braceright" unicode="}" 
d="M396 319v-16q-48 -3 -71.5 -20t-23.5 -62q0 -23 1 -64t1.5 -75t0.5 -64q0 -76 -33 -106t-111 -32q-10 0 -30.5 -0.5t-30.5 -0.5v23q67 0 97.5 23t31.5 88q0 31 0.5 91t0.5 91q1 49 19 77.5t62 36.5v4q-79 17 -81 98q0 80 -1 120q0 48 -3 73t-16 47.5t-39 31t-71 9.5v23
q6 -1 18 -1q39 0 60 -1t46 -6.5t37 -15.5t23.5 -28.5t15.5 -46.5t4 -68q0 -24 -1 -73t-1 -73q0 -46 23 -63t72 -20z" />
    <glyph glyph-name="asciitilde" unicode="~" 
d="M456 405l18 -9q-26 -42 -64.5 -70.5t-81.5 -28.5q-32 0 -94 20.5t-95 20.5q-20 0 -39 -9.5t-27 -17t-29 -28.5l-18 10q69 100 145 100q32 0 92 -20t91 -20q55 0 102 52z" />
    <glyph glyph-name="exclamdown" unicode="&#xa1;" horiz-adv-x="247" 
d="M106 188h36q2 -53 20.5 -161.5t18.5 -158.5q0 -17 -2 -36.5t-7 -44.5t-17.5 -41t-30.5 -16q-57 0 -57 138q0 51 18.5 159.5t20.5 160.5zM124 427q23 0 39 -16.5t16 -39.5t-16 -39.5t-39 -16.5t-39.5 16.5t-16.5 39.5t16.5 39.5t39.5 16.5z" />
    <glyph glyph-name="cent" unicode="&#xa2;" horiz-adv-x="467" 
d="M263 519v-360q1 0 3.5 -0.5t3.5 -0.5q42 0 73.5 21t44.5 60l33 -10q-12 -50 -58.5 -80.5t-99.5 -31.5v-107h-34v107q-86 8 -134.5 65t-48.5 145q0 85 50.5 157t132.5 74v99h34v-99q42 0 86.5 -21.5t47.5 -58.5q0 -16 -11.5 -28t-27.5 -12q-20 0 -36 13q0 54 -59 68z
M229 519q-48 -11 -69.5 -60t-21.5 -106q0 -60 22 -112t69 -75v353z" />
    <glyph glyph-name="sterling" unicode="&#xa3;" horiz-adv-x="467" 
d="M377 321v-27h-118q-7 -133 -70 -213q68 -21 128 -21q49 0 96 24t48 69h12q3 -15 3 -29q0 -51 -34.5 -96t-84.5 -45q-80 0 -189 69q-58 -63 -126 -63q-28 0 -51 15.5t-23 41.5q0 30 26 48t58 18q37 0 96 -17q13 24 16 56q5 60 5 143h-106v27h107q0 47 4 89.5t16.5 95
t33.5 89.5t59 62.5t89 25.5q53 0 87 -28.5t34 -79.5q0 -39 -25.5 -66t-64.5 -27q-2 0 -6 0.5t-6 0.5q35 37 35 86q0 33 -20.5 59t-52.5 26q-34 0 -54.5 -26t-24.5 -62q-12 -107 -12 -245h115zM133 69q-34 17 -70 17q-18 0 -32 -9.5t-14 -26.5q0 -13 10 -22.5t24 -9.5
q41 0 82 51z" />
    <glyph glyph-name="currency" unicode="&#xa4;" horiz-adv-x="667" 
d="M58 100l92 92q-51 82 -51 151q0 63 49 148l-92 93l33 33l93 -93q69 52 151 52q68 0 150 -52l95 94l33 -33l-95 -96q49 -81 49 -150q0 -64 -50 -144l95 -95l-33 -34l-94 95q-80 -52 -150 -52t-148 50l-93 -93zM498 342q0 68 -48.5 117t-116.5 49q-67 0 -116 -49t-49 -117
q0 -67 49 -116t116 -49t116 48.5t49 116.5z" />
    <glyph glyph-name="yen" unicode="&#xa5;" horiz-adv-x="581" 
d="M335 268h202v-31h-202v-138q0 -47 10.5 -63.5t54.5 -16.5h33v-19h-278v19h35q43 0 53 16.5t10 63.5v138h-200v31h200v10l-63 105h-137v30h122l-76 152q-17 33 -24.5 45.5t-26.5 24.5t-48 13v19h236v-19h-30q-41 0 -44 -19q0 -13 16 -43l143 -267l129 234q22 40 22 60
q0 35 -69 35v19h178v-19q-25 -2 -45.5 -19t-29.5 -31.5t-25 -45.5l-73 -139h129v-30h-143l-59 -93v-22z" />
    <glyph glyph-name="brokenbar" unicode="&#xa6;" 
d="M219 666h63v-338h-63v338zM219 153h63v-320h-63v320z" />
    <glyph glyph-name="section" unicode="&#xa7;" horiz-adv-x="553" 
d="M392 129q59 -59 59 -115q0 -67 -51.5 -114t-118.5 -47q-61 0 -112 39t-51 98q0 14 8 24t22 11q17 0 28.5 -19t19 -42t30 -42t59.5 -19t65.5 24t28.5 61q0 29 -27.5 56t-66.5 50.5t-78 49.5t-66.5 63.5t-27.5 82.5q0 70 74 146q-59 55 -59 109q0 62 48 100t111 38
q46 0 95.5 -31t49.5 -75q0 -14 -8.5 -26.5t-21.5 -13.5h-1q-14 0 -25 16t-18.5 35t-26 35t-46.5 16q-32 0 -59.5 -19t-27.5 -50q0 -29 26.5 -56.5t64 -51.5t75.5 -50t64.5 -61.5t26.5 -76.5q0 -65 -63 -145zM213 412q-33 -47 -33 -83q0 -27 22.5 -55.5t47.5 -46.5
t64.5 -42.5t50.5 -32.5q24 54 24 81q0 28 -21 56.5t-44 46t-61 42t-50 34.5z" />
    <glyph glyph-name="dieresis" unicode="&#xa8;" 
d="M98 533q0 25 17.5 42.5t42.5 17.5t42.5 -17.5t17.5 -42.5t-17.5 -42.5t-42.5 -17.5t-42.5 17.5t-17.5 42.5zM281 533q0 25 18 42.5t42 17.5q25 0 42.5 -17.5t17.5 -42.5t-17.5 -42.5t-42.5 -17.5q-24 0 -42 17.5t-18 42.5z" />
    <glyph glyph-name="copyright" unicode="&#xa9;" horiz-adv-x="804" 
d="M549 524v-117h-17q-12 40 -41.5 65.5t-69.5 25.5q-62 0 -93 -48.5t-31 -114.5q0 -69 29 -115.5t95 -46.5q77 0 134 85v-38q-56 -74 -145 -74q-81 0 -135 50t-54 131q0 84 53 139.5t135 55.5q23 0 57 -12.5t45 -12.5q6 0 9.5 3.5t7.5 12t4 9.5zM402 -13q-143 0 -245 102
t-102 245t102 244.5t245 101.5t244.5 -101.5t101.5 -244.5t-101.5 -245t-244.5 -102zM402 21q129 0 221 92t92 221t-92 221t-221 92t-221 -92t-92 -221t92 -221t221 -92z" />
    <glyph glyph-name="ordfeminine" unicode="&#xaa;" horiz-adv-x="322" 
d="M295 442l11 -7q-23 -41 -57 -41q-22 0 -31.5 12.5t-13.5 37.5q-62 -50 -107 -50q-25 0 -43 16.5t-18 41.5q0 71 168 110v44q0 48 -53 48q-15 0 -37 -7.5t-22 -19.5q0 -5 5 -15.5t5 -16.5q0 -11 -8.5 -19t-19.5 -8q-12 0 -20.5 10t-8.5 22q0 33 37 52.5t73 19.5
q47 0 73 -17.5t26 -62.5v-134v-8q0 -33 15 -33q5 0 9 3t6 5.5t6 9.5zM204 543q-114 -27 -116 -81q0 -16 9.5 -27.5t26.5 -11.5q36 0 80 42v78zM313 332v-31h-283v31h283z" />
    <glyph glyph-name="guillemotleft" unicode="&#xab;" horiz-adv-x="433" 
d="M288 217l94 -120q12 -16 12 -26v-2q0 -13 -16 -13q-6 0 -12 2.5t-10 5.5t-10 8.5t-9 7.5l-128 120q-11 9 -11 17t11 17l128 120q26 21 39 24q18 0 18 -13q0 -10 -12 -28zM128 217l95 -120q11 -15 11 -26v-2q0 -13 -16 -13q-6 0 -12 3t-9.5 5.5t-10 8.5t-8.5 7l-129 120
q-11 9 -11 17t11 17l129 120q3 2 9 7t9.5 7.5t9 5.5t10.5 4q18 0 18 -13q0 -11 -11 -28z" />
    <glyph glyph-name="logicalnot" unicode="&#xac;" 
d="M359 0v220h-324v47h431v-267h-107z" />
    <glyph glyph-name="registered" unicode="&#xae;" horiz-adv-x="804" 
d="M517 152l-100 173h-66v-117q0 -21 6.5 -29.5t26.5 -8.5h17v-18h-164v18q27 0 37.5 6.5t10.5 31.5v252q0 20 -6.5 29t-26.5 9h-18v18h169q147 0 147 -100q0 -61 -69 -90l77 -131q14 -25 45 -25v-18h-86zM351 342h52q40 0 60 17t20 57q0 37 -22 57t-58 20h-52v-151z
M402 -13q-143 0 -245 102t-102 245t102 244.5t245 101.5t244.5 -101.5t101.5 -244.5t-101.5 -245t-244.5 -102zM402 21q129 0 221 92t92 221t-92 221t-221 92t-221 -92t-92 -221t92 -221t221 -92z" />
    <glyph glyph-name="macron" unicode="&#xaf;" 
d="M81 565h337v-39h-337v39z" />
    <glyph glyph-name="degree" unicode="&#xb0;" horiz-adv-x="423" 
d="M203 637q44 0 76 -26t32 -69q0 -37 -28.5 -63t-65.5 -26t-65.5 27t-28.5 64q0 34 22.5 61.5t57.5 31.5zM148 544q1 -28 21.5 -47.5t49.5 -19.5q28 0 47.5 20.5t19.5 48.5q0 27 -21.5 46.5t-48.5 19.5q-29 0 -48.5 -19.5t-19.5 -48.5z" />
    <glyph glyph-name="plusminus" unicode="&#xb1;" 
d="M20 379h204v195h51v-195h205v-49h-205v-190h-51v190h-204v49zM20 96h460v-49h-460v49z" />
    <glyph glyph-name="twosuperior" unicode="&#xb2;" horiz-adv-x="307" 
d="M292 361l-26 -95h-251l7 29q42 33 67.5 56t59.5 60t51 77t17 81q0 31 -21.5 53.5t-52.5 22.5t-53.5 -19.5t-22.5 -49.5q0 -18 10.5 -34t27.5 -21q-6 -20 -32 -20q-22 0 -34 19.5t-12 42.5q0 47 35.5 74.5t83.5 27.5q53 0 92 -32t39 -83q0 -16 -3.5 -31.5t-8 -28
t-15 -27.5t-16.5 -24.5t-22.5 -24.5t-22.5 -21.5t-26 -22t-24.5 -18.5t-26 -19t-23.5 -17h140q7 0 13 2.5t10.5 8.5t7 9t6.5 13.5t5 11.5h21z" />
    <glyph glyph-name="threesuperior" unicode="&#xb3;" horiz-adv-x="307" 
d="M79 383q-10 -20 -10 -35q0 -28 22.5 -46.5t50.5 -18.5q37 0 58 25.5t21 64.5q0 33 -14.5 59t-44.5 29q-8 0 -15 -6q-20 -11 -29 -11q-10 0 -18 6.5t-9 16.5v1q0 20 39 20q18 0 34 -3q22 6 35 28.5t13 46.5q0 35 -18.5 60.5t-51.5 25.5q-20 0 -36 -11.5t-16 -31.5
q0 -21 20 -43q-12 -7 -22 -7q-17 0 -29.5 11.5t-12.5 28.5q0 35 33.5 53t70.5 18q45 0 82 -27.5t37 -71.5q0 -61 -63 -88q78 -35 78 -101q0 -55 -44.5 -86t-102.5 -31q-42 0 -78 19.5t-36 58.5q0 18 14 32.5t32 14.5q1 0 5 -0.5t5 -0.5z" />
    <glyph glyph-name="acute" unicode="&#xb4;" 
d="M210 608h123q12 0 12 -8q0 -5 -6 -9l-158 -114q-8 -4 -12 -5q-12 0 -12 6v1q0 3 1 5z" />
    <glyph glyph-name="paragraph" unicode="&#xb6;" horiz-adv-x="570" 
d="M530 667v-25h-18q-42 0 -51.5 -12.5t-9.5 -53.5v-10v-569v-22q1 -28 11.5 -34.5t40.5 -6.5h21v-25h-122v731h-89v-731h-134v25h22q41 0 51 12t12 53v351q-8 0 -22.5 -0.5t-21.5 -0.5q-77 0 -125 43.5t-48 119.5q0 39 18.5 74.5t50.5 55.5q40 25 122 25h49h243zM264 642
q-85 0 -114.5 -27.5t-29.5 -115.5q0 -51 27.5 -85.5t76.5 -34.5h40v263z" />
    <glyph glyph-name="periodcentered" unicode="&#xb7;" horiz-adv-x="467" 
d="M234 161q-23 0 -39.5 16.5t-16.5 39.5t16.5 39.5t39.5 16.5t39 -16.5t16 -39.5t-16 -39.5t-39 -16.5z" />
    <glyph glyph-name="cedilla" unicode="&#xb8;" 
d="M212 -74l20 74h37l-9 -40q39 -4 65 -26t26 -60q0 -40 -35 -66.5t-77 -26.5q-40 0 -87 21l16 33q33 -13 54 -13t37.5 12t17.5 33q0 39 -65 59z" />
    <glyph glyph-name="onesuperior" unicode="&#xb9;" horiz-adv-x="294" 
d="M119 601h-52v24q44 1 111 41v-331q0 -29 12.5 -37.5t44.5 -8.5v-23h-175v23q33 0 46 8t13 38v266z" />
    <glyph glyph-name="ordmasculine" unicode="&#xba;" horiz-adv-x="322" 
d="M161 672q58 0 94 -39.5t36 -98.5q0 -61 -34.5 -101.5t-94.5 -40.5t-95 41t-35 102q0 58 36 97.5t93 39.5zM161 654q-76 0 -76 -120q0 -123 76 -123q77 0 77 123q0 120 -77 120zM303 332v-31h-283v31h283z" />
    <glyph glyph-name="guillemotright" unicode="&#xbb;" horiz-adv-x="433" 
d="M146 217l-95 120q-11 18 -11 25q0 16 16 16q6 0 12 -3t9.5 -5.5t10 -8.5t8.5 -7l129 -120q11 -11 11 -17q0 -8 -11 -17l-129 -120q-2 -2 -8 -7.5t-9.5 -8.5t-9.5 -5.5t-11 -2.5q-18 0 -18 13q0 14 11 27zM305 217l-94 120q-11 14 -12 25q0 16 16 16q15 0 41 -24l129 -120
q11 -14 11 -17q0 -6 -11 -17l-129 -120q-2 -2 -8.5 -7.5t-10 -8t-9.5 -5.5t-11 -3q-18 0 -18 15q1 12 12 25z" />
    <glyph glyph-name="onequarter" unicode="&#xbc;" horiz-adv-x="732" 
d="M119 601h-52v24q44 1 111 41v-332q0 -29 13 -37t44 -8v-23h-175v23q32 0 45.5 8t13.5 37v267zM565 667l-369 -667h-35l369 667h35zM724 154l-18 -58h-62v-38q0 -35 30 -35h15v-23h-149v23q23 0 34.5 7t11.5 28v38h-155l198 295q1 2 5 6q10 0 10 -8v-265q16 0 24 1
t17.5 7.5t14.5 19.5zM586 124v167l-107 -167h107z" />
    <glyph glyph-name="onehalf" unicode="&#xbd;" horiz-adv-x="732" 
d="M119 601h-52v24q44 1 111 41v-332q0 -29 13 -37t44 -8v-23h-175v23q32 0 45.5 8t13.5 37v267zM565 667l-369 -667h-35l369 667h35zM717 95l-26 -95h-251l7 29q35 28 53.5 44t50 47t48 56t30 59t13.5 68q0 31 -21.5 53.5t-52.5 22.5t-53.5 -19.5t-22.5 -49.5
q0 -18 10.5 -34t27.5 -21q-6 -20 -32 -20q-22 0 -34 19.5t-12 42.5q0 47 35.5 74.5t83.5 27.5q52 0 91.5 -32t39.5 -83q0 -16 -3.5 -31.5t-8 -28t-15 -27.5t-16.5 -24.5t-22.5 -24.5t-22.5 -21.5t-26 -22t-24.5 -18.5t-26 -19t-23.5 -17h139q7 0 13 2.5t10.5 8t7 10t6.5 13
t6 11.5h21z" />
    <glyph glyph-name="threequarters" unicode="&#xbe;" horiz-adv-x="745" 
d="M79 383q-10 -18 -10 -35q0 -27 22.5 -45.5t50.5 -18.5q38 0 58.5 25t20.5 64q0 33 -14.5 59t-44.5 29q-7 0 -18 -8.5t-26 -8.5q-10 0 -18 6.5t-9 16.5v1q0 20 44 20q5 0 14.5 -1t14.5 -1q22 5 35 27.5t13 47.5q0 34 -18.5 60t-51.5 26q-20 0 -36 -12t-16 -31
q0 -22 20 -44q-14 -7 -25 -7q-17 2 -28 13t-11 27q0 35 33.5 53.5t70.5 18.5q45 0 82 -27.5t37 -71.5q0 -62 -63 -89q78 -34 78 -101q0 -55 -44.5 -86t-102.5 -31q-42 0 -78 19.5t-36 58.5q0 19 13 33t32 14q2 0 5.5 -0.5t5.5 -0.5zM578 667l-369 -667h-35l369 667h35z
M737 154l-18 -58h-62v-38q0 -35 30 -35h15v-23h-149v23q23 0 34.5 7t11.5 28v38h-155l198 295q1 2 5 6q10 0 10 -8v-265q16 0 24 1t17.5 7.5t14.5 19.5zM599 124v167l-107 -167h107z" />
    <glyph glyph-name="questiondown" unicode="&#xbf;" horiz-adv-x="412" 
d="M262 188h35v-204h-20q-20 33 -51 33q-25 0 -40.5 -23.5t-19.5 -48t-4 -49.5q0 -52 21.5 -94t69.5 -42q21 0 34.5 10.5t18.5 23.5t14 24t21 12q33 0 33 -30q0 -35 -40.5 -52.5t-81.5 -17.5q-71 0 -119.5 51.5t-48.5 122.5q0 55 34.5 102.5t88.5 47.5q30 0 55 -17v151z
M279 427q23 0 39 -16.5t16 -39.5t-16 -39.5t-39 -16.5t-39.5 16.5t-16.5 39.5t16.5 39.5t39.5 16.5z" />
    <glyph glyph-name="Agrave" unicode="&#xc0;" horiz-adv-x="723" 
d="M382 678l252 -581q15 -34 36 -49.5t57 -16.5v-31h-275v31h22q58 0 58 31q0 15 -9 35l-54 129h-266l-52 -129q-7 -16 -7 -27q0 -39 62 -39h21v-31h-230v31q45 1 68.5 14.5t39.5 51.5l240 581h37zM450 268l-87 212q-22 58 -28 80q-1 -3 -3.5 -11.5t-4.5 -13.5l-108 -267
h231zM403 843l52 -124q1 -2 1 -5v-1q0 -6 -12 -6q-4 1 -12 5l-158 114q-6 4 -6 9q0 8 12 8h123z" />
    <glyph glyph-name="Aacute" unicode="&#xc1;" horiz-adv-x="723" 
d="M382 678l252 -581q15 -34 36 -49.5t57 -16.5v-31h-275v31h22q58 0 58 31q0 15 -9 35l-54 129h-266l-52 -129q-7 -16 -7 -27q0 -39 62 -39h21v-31h-230v31q45 1 68.5 14.5t39.5 51.5l240 581h37zM450 268l-87 212q-22 58 -28 80q-1 -3 -3.5 -11.5t-4.5 -13.5l-108 -267
h231zM321 843h123q12 0 12 -8q0 -5 -6 -9l-158 -114q-8 -4 -12 -5q-12 0 -12 6v1q0 3 1 5z" />
    <glyph glyph-name="Acircumflex" unicode="&#xc2;" horiz-adv-x="723" 
d="M382 678l252 -581q15 -34 36 -49.5t57 -16.5v-31h-275v31h22q58 0 58 31q0 15 -9 35l-54 129h-266l-52 -129q-7 -16 -7 -27q0 -39 62 -39h21v-31h-230v31q45 1 68.5 14.5t39.5 51.5l240 581h37zM450 268l-87 212q-22 58 -28 80q-1 -3 -3.5 -11.5t-4.5 -13.5l-108 -267
h231zM362 852l121 -119q7 -7 7 -12q0 -18 -16 -18h-1q-6 0 -15 7l-96 66l-95 -66q-9 -7 -15 -7h-1q-13 0 -17 15q0 7 8 15z" />
    <glyph glyph-name="Atilde" unicode="&#xc3;" horiz-adv-x="723" 
d="M382 678l252 -581q15 -34 36 -49.5t57 -16.5v-31h-275v31h22q58 0 58 31q0 15 -9 35l-54 129h-266l-52 -129q-7 -16 -7 -27q0 -39 62 -39h21v-31h-230v31q45 1 68.5 14.5t39.5 51.5l240 581h37zM450 268l-87 212q-22 58 -28 80q-1 -3 -3.5 -11.5t-4.5 -13.5l-108 -267
h231zM509 823l17 -12q-51 -79 -107 -81q-25 0 -72 13.5t-71 13.5q-26 0 -58 -34l-19 11q53 88 109 88q24 0 71 -14t72 -14q27 0 58 29z" />
    <glyph glyph-name="Adieresis" unicode="&#xc4;" horiz-adv-x="723" 
d="M382 678l252 -581q15 -34 36 -49.5t57 -16.5v-31h-275v31h22q58 0 58 31q0 15 -9 35l-54 129h-266l-52 -129q-7 -16 -7 -27q0 -39 62 -39h21v-31h-230v31q45 1 68.5 14.5t39.5 51.5l240 581h37zM450 268l-87 212q-22 58 -28 80q-1 -3 -3.5 -11.5t-4.5 -13.5l-108 -267
h231zM211 770q0 25 17.5 42.5t42.5 17.5t42.5 -17.5t17.5 -42.5t-17.5 -42.5t-42.5 -17.5t-42.5 17.5t-17.5 42.5zM394 770q0 25 18 42.5t42 17.5q25 0 42.5 -17.5t17.5 -42.5t-17.5 -42.5t-42.5 -17.5q-24 0 -42 17.5t-18 42.5z" />
    <glyph glyph-name="Aring" unicode="&#xc5;" horiz-adv-x="723" 
d="M382 678l252 -581q15 -34 36 -49.5t57 -16.5v-31h-275v31h22q58 0 58 31q0 15 -9 35l-54 129h-266l-52 -129q-7 -16 -7 -27q0 -39 62 -39h21v-31h-230v31q45 1 68.5 14.5t39.5 51.5l240 581h37zM450 268l-87 212q-22 58 -28 80q-1 -3 -3.5 -11.5t-4.5 -13.5l-108 -267
h231zM362 705q-34 0 -59.5 25.5t-25.5 59.5t25.5 59.5t59.5 25.5q35 0 60 -26t25 -62q0 -34 -25.5 -58t-59.5 -24zM362 744q19 0 32.5 13.5t13.5 32.5t-13.5 32.5t-32.5 13.5t-32.5 -13.5t-13.5 -32.5t13.5 -32.5t32.5 -13.5z" />
    <glyph glyph-name="AE" unicode="&#xc6;" horiz-adv-x="881" 
d="M842 207h30l-12 -207h-548v31q62 3 81 18.5t19 74.5v194h-158l-90 -182q-16 -33 -19 -54q0 -47 75 -51v-31h-223v31q42 1 67 21t45 61l233 471q5 14 6 17q0 35 -69 35h-7v31h529l19 -164h-31q-19 72 -51.5 100.5t-103.5 28.5h-122v-242h76q39 0 58 26.5t20 66.5h30v-227
h-30q-2 96 -74 96h-80v-228q0 -53 30.5 -72t86.5 -19q96 0 146.5 40t66.5 134zM412 352v286l-140 -286h140z" />
    <glyph glyph-name="Ccedilla" unicode="&#xc7;" horiz-adv-x="710" 
d="M654 667l9 -242h-31q-56 224 -241 224q-59 0 -105 -28t-71.5 -74t-38 -98t-12.5 -108q0 -60 14.5 -113.5t43 -98t77 -70.5t112.5 -26q77 0 145 45.5t98 116.5l36 -27q-38 -82 -118 -132.5t-172 -52.5l-12 -38q82 -19 82 -81q0 -37 -30.5 -62t-68.5 -25q-49 0 -94 29
l16 22q29 -16 59 -19q23 0 39.5 16t16.5 38t-15.5 35t-42.5 24l20 61q-142 2 -231.5 100.5t-89.5 241.5q0 150 94.5 254t243.5 104q116 0 217 -67q3 5 22 51h28z" />
    <glyph glyph-name="Egrave" unicode="&#xc8;" horiz-adv-x="584" 
d="M506 667l18 -163h-31q-15 62 -45.5 95.5t-88.5 33.5h-145v-262h63q46 0 68.5 23t24.5 70h31v-226h-31q-4 28 -8 43t-13.5 29.5t-26.5 20t-45 5.5h-63v-214q0 -50 26.5 -69t78.5 -19q38 0 60.5 2t50 9.5t48 25t37.5 45.5q29 51 31 90h29l-13 -206h-548v31q31 1 44.5 3
t29 9.5t21 23.5t5.5 44v445q0 27 -5.5 43.5t-21 24t-29.5 9.5t-44 3v31h492zM333 843l52 -124q1 -2 1 -5v-1q0 -6 -12 -6q-4 1 -12 5l-158 114q-6 4 -6 9q0 8 12 8h123z" />
    <glyph glyph-name="Eacute" unicode="&#xc9;" horiz-adv-x="584" 
d="M506 667l18 -163h-31q-15 62 -45.5 95.5t-88.5 33.5h-145v-262h63q46 0 68.5 23t24.5 70h31v-226h-31q-4 28 -8 43t-13.5 29.5t-26.5 20t-45 5.5h-63v-214q0 -50 26.5 -69t78.5 -19q38 0 60.5 2t50 9.5t48 25t37.5 45.5q29 51 31 90h29l-13 -206h-548v31q31 1 44.5 3
t29 9.5t21 23.5t5.5 44v445q0 27 -5.5 43.5t-21 24t-29.5 9.5t-44 3v31h492zM251 843h123q12 0 12 -8q0 -5 -6 -9l-158 -114q-8 -4 -12 -5q-12 0 -12 6v1q0 3 1 5z" />
    <glyph glyph-name="Ecircumflex" unicode="&#xca;" horiz-adv-x="584" 
d="M506 667l18 -163h-31q-15 62 -45.5 95.5t-88.5 33.5h-145v-262h63q46 0 68.5 23t24.5 70h31v-226h-31q-4 28 -8 43t-13.5 29.5t-26.5 20t-45 5.5h-63v-214q0 -50 26.5 -69t78.5 -19q38 0 60.5 2t50 9.5t48 25t37.5 45.5q29 51 31 90h29l-13 -206h-548v31q31 1 44.5 3
t29 9.5t21 23.5t5.5 44v445q0 27 -5.5 43.5t-21 24t-29.5 9.5t-44 3v31h492zM292 852l121 -119q7 -7 7 -12q0 -18 -16 -18h-1q-6 0 -15 7l-96 66l-95 -66q-9 -7 -15 -7h-1q-13 0 -17 15q0 7 8 15z" />
    <glyph glyph-name="Edieresis" unicode="&#xcb;" horiz-adv-x="584" 
d="M506 667l18 -163h-31q-15 62 -45.5 95.5t-88.5 33.5h-145v-262h63q46 0 68.5 23t24.5 70h31v-226h-31q-4 28 -8 43t-13.5 29.5t-26.5 20t-45 5.5h-63v-214q0 -50 26.5 -69t78.5 -19q38 0 60.5 2t50 9.5t48 25t37.5 45.5q29 51 31 90h29l-13 -206h-548v31q31 1 44.5 3
t29 9.5t21 23.5t5.5 44v445q0 27 -5.5 43.5t-21 24t-29.5 9.5t-44 3v31h492zM141 770q0 25 17.5 42.5t42.5 17.5t42.5 -17.5t17.5 -42.5t-17.5 -42.5t-42.5 -17.5t-42.5 17.5t-17.5 42.5zM324 770q0 25 18 42.5t42 17.5q25 0 42.5 -17.5t17.5 -42.5t-17.5 -42.5t-42.5 -17.5
q-24 0 -42 17.5t-18 42.5z" />
    <glyph glyph-name="Igrave" unicode="&#xcc;" horiz-adv-x="327" 
d="M314 0h-300v31q31 1 44.5 3t29 9.5t21 23.5t5.5 44v445q0 27 -5.5 43.5t-21 24t-29.5 9.5t-44 3v31h300v-31q-54 -2 -77 -14t-23 -66v-445q0 -28 5.5 -44t21.5 -23.5t29 -9.5t44 -3v-31zM205 843l52 -124q1 -2 1 -5v-1q0 -6 -12 -6q-4 1 -12 5l-158 114q-6 4 -6 9
q0 8 12 8h123z" />
    <glyph glyph-name="Iacute" unicode="&#xcd;" horiz-adv-x="327" 
d="M314 0h-300v31q31 1 44.5 3t29 9.5t21 23.5t5.5 44v445q0 27 -5.5 43.5t-21 24t-29.5 9.5t-44 3v31h300v-31q-54 -2 -77 -14t-23 -66v-445q0 -28 5.5 -44t21.5 -23.5t29 -9.5t44 -3v-31zM123 843h123q12 0 12 -8q0 -5 -6 -9l-158 -114q-8 -4 -12 -5q-12 0 -12 6v1
q0 3 1 5z" />
    <glyph glyph-name="Icircumflex" unicode="&#xce;" horiz-adv-x="327" 
d="M314 0h-300v31q31 1 44.5 3t29 9.5t21 23.5t5.5 44v445q0 27 -5.5 43.5t-21 24t-29.5 9.5t-44 3v31h300v-31q-54 -2 -77 -14t-23 -66v-445q0 -28 5.5 -44t21.5 -23.5t29 -9.5t44 -3v-31zM163 852l121 -119q7 -7 7 -12q0 -18 -16 -18h-1q-6 0 -15 7l-96 66l-95 -66
q-9 -7 -15 -7h-1q-13 0 -17 15q0 7 8 15z" />
    <glyph glyph-name="Idieresis" unicode="&#xcf;" horiz-adv-x="327" 
d="M314 0h-300v31q31 1 44.5 3t29 9.5t21 23.5t5.5 44v445q0 27 -5.5 43.5t-21 24t-29.5 9.5t-44 3v31h300v-31q-54 -2 -77 -14t-23 -66v-445q0 -28 5.5 -44t21.5 -23.5t29 -9.5t44 -3v-31zM12 770q0 25 17.5 42.5t42.5 17.5t42.5 -17.5t17.5 -42.5t-17.5 -42.5t-42.5 -17.5
t-42.5 17.5t-17.5 42.5zM195 770q0 25 18 42.5t42 17.5q25 0 42.5 -17.5t17.5 -42.5t-17.5 -42.5t-42.5 -17.5q-24 0 -42 17.5t-18 42.5z" />
    <glyph glyph-name="Eth" unicode="&#xd0;" horiz-adv-x="731" 
d="M13 636v31q22 0 67 -0.5t67 -0.5t66.5 0.5t66.5 0.5q125 0 184 -20q104 -36 162 -121.5t58 -197.5q0 -148 -92 -238t-240 -90h-339v31q31 1 44.5 3t29 9.5t21 23.5t5.5 44v220h-64v38h64v187q0 27 -5.5 43.5t-21 24t-29.5 9.5t-44 3zM213 632v-263h186v-38h-186v-186
q0 -72 22.5 -91t95.5 -19q64 0 111 24t73 66t38.5 93t12.5 112q0 147 -69.5 226t-212.5 79q-35 0 -71 -3z" />
    <glyph glyph-name="Ntilde" unicode="&#xd1;" horiz-adv-x="725" 
d="M211 667l327 -451q14 -19 37 -68q0 12 -0.5 34t-0.5 34v320q0 30 -4 48t-14 26.5t-18.5 11.5t-26.5 6.5t-29 7.5v31h230v-31q-53 -1 -74.5 -24t-21.5 -76v-542h-42l-356 496q-33 44 -65 100v-424q0 -71 17 -100.5t82 -34.5v-31h-239v31q55 2 77.5 26.5t22.5 81.5v417
q0 27 -5.5 43.5t-21 24t-29.5 9.5t-44 3v31h198zM509 823l17 -12q-51 -79 -107 -81q-25 0 -72 13.5t-71 13.5q-26 0 -58 -34l-19 11q53 88 109 88q24 0 71 -14t72 -14q27 0 58 29z" />
    <glyph glyph-name="Ograve" unicode="&#xd2;" horiz-adv-x="802" 
d="M400 -17q-152 0 -253 99t-101 251q0 154 100.5 252t253.5 98q154 0 254.5 -98t100.5 -252q0 -152 -101.5 -251t-253.5 -99zM400 18q66 0 114 27t74.5 73.5t38.5 100t12 115.5t-12 115.5t-38.5 100.5t-74.5 74t-114 27q-53 0 -94.5 -18.5t-68.5 -48.5t-44.5 -71.5
t-24.5 -85.5t-7 -93q0 -62 12 -115.5t38.5 -100t74.5 -73.5t114 -27zM441 843l52 -124q1 -2 1 -5v-1q0 -6 -12 -6q-4 1 -12 5l-158 114q-6 4 -6 9q0 8 12 8h123z" />
    <glyph glyph-name="Oacute" unicode="&#xd3;" horiz-adv-x="802" 
d="M400 -17q-152 0 -253 99t-101 251q0 154 100.5 252t253.5 98q154 0 254.5 -98t100.5 -252q0 -152 -101.5 -251t-253.5 -99zM400 18q66 0 114 27t74.5 73.5t38.5 100t12 115.5t-12 115.5t-38.5 100.5t-74.5 74t-114 27q-53 0 -94.5 -18.5t-68.5 -48.5t-44.5 -71.5
t-24.5 -85.5t-7 -93q0 -62 12 -115.5t38.5 -100t74.5 -73.5t114 -27zM359 843h123q12 0 12 -8q0 -5 -6 -9l-158 -114q-8 -4 -12 -5q-12 0 -12 6v1q0 3 1 5z" />
    <glyph glyph-name="Ocircumflex" unicode="&#xd4;" horiz-adv-x="802" 
d="M400 -17q-152 0 -253 99t-101 251q0 154 100.5 252t253.5 98q154 0 254.5 -98t100.5 -252q0 -152 -101.5 -251t-253.5 -99zM400 18q66 0 114 27t74.5 73.5t38.5 100t12 115.5t-12 115.5t-38.5 100.5t-74.5 74t-114 27q-53 0 -94.5 -18.5t-68.5 -48.5t-44.5 -71.5
t-24.5 -85.5t-7 -93q0 -62 12 -115.5t38.5 -100t74.5 -73.5t114 -27zM400 852l121 -119q7 -7 7 -12q0 -18 -16 -18h-1q-6 0 -15 7l-96 66l-95 -66q-9 -7 -15 -7h-1q-13 0 -17 15q0 7 8 15z" />
    <glyph glyph-name="Otilde" unicode="&#xd5;" horiz-adv-x="802" 
d="M400 -17q-152 0 -253 99t-101 251q0 154 100.5 252t253.5 98q154 0 254.5 -98t100.5 -252q0 -152 -101.5 -251t-253.5 -99zM400 18q66 0 114 27t74.5 73.5t38.5 100t12 115.5t-12 115.5t-38.5 100.5t-74.5 74t-114 27q-53 0 -94.5 -18.5t-68.5 -48.5t-44.5 -71.5
t-24.5 -85.5t-7 -93q0 -62 12 -115.5t38.5 -100t74.5 -73.5t114 -27zM547 822l17 -12q-51 -79 -107 -81q-25 0 -72 13.5t-71 13.5q-26 0 -58 -34l-19 11q53 88 109 88q24 0 71 -14t72 -14q27 0 58 29z" />
    <glyph glyph-name="Odieresis" unicode="&#xd6;" horiz-adv-x="802" 
d="M400 -17q-152 0 -253 99t-101 251q0 154 100.5 252t253.5 98q154 0 254.5 -98t100.5 -252q0 -152 -101.5 -251t-253.5 -99zM400 18q66 0 114 27t74.5 73.5t38.5 100t12 115.5t-12 115.5t-38.5 100.5t-74.5 74t-114 27q-53 0 -94.5 -18.5t-68.5 -48.5t-44.5 -71.5
t-24.5 -85.5t-7 -93q0 -62 12 -115.5t38.5 -100t74.5 -73.5t114 -27zM249 770q0 25 17.5 42.5t42.5 17.5t42.5 -17.5t17.5 -42.5t-17.5 -42.5t-42.5 -17.5t-42.5 17.5t-17.5 42.5zM432 770q0 25 18 42.5t42 17.5q25 0 42.5 -17.5t17.5 -42.5t-17.5 -42.5t-42.5 -17.5
q-24 0 -42 17.5t-18 42.5z" />
    <glyph glyph-name="multiply" unicode="&#xd7;" 
d="M94 536l156 -156l156 157l36 -36l-157 -156l156 -156l-34 -35l-156 156l-157 -157l-36 36l157 157l-156 155z" />
    <glyph glyph-name="Oslash" unicode="&#xd8;" horiz-adv-x="802" 
d="M640 598l3 -2q112 -102 112 -263q0 -153 -100.5 -251.5t-254.5 -98.5q-123 0 -213 64l-68 -83l-30 24l69 83q-3 2 -9 8q-103 102 -103 254q0 154 100.5 252t253.5 98q123 0 211 -62l68 84l30 -24zM593 546l-361 -458q61 -70 168 -70q66 0 114 27t74.5 73.5t38.5 100
t12 115.5q0 137 -46 212zM209 119l361 459q-66 73 -170 73q-65 0 -113.5 -27t-75 -73.5t-38.5 -100.5t-12 -116q0 -136 48 -215z" />
    <glyph glyph-name="Ugrave" unicode="&#xd9;" horiz-adv-x="698" 
d="M444 666h241v-30q-58 -5 -77 -16q-24 -14 -24 -71v-322q0 -117 -45 -180.5t-160 -63.5q-75 0 -121 9t-81 35t-49.5 73t-14.5 123v332q0 28 -5.5 44t-21 24t-29 10t-44.5 3v30h300v-30q-4 0 -17 -0.5t-18 -0.5t-16.5 -2t-16.5 -5t-12.5 -9t-11 -14.5t-6 -21t-2.5 -28.5
v-320q0 -42 3 -71.5t12.5 -59t27.5 -47t48.5 -28.5t74.5 -11q50 0 83.5 15.5t51 45.5t24 64.5t6.5 82.5v9v314q0 51 -22.5 67t-77.5 20v30zM390 843l52 -124q1 -2 1 -5v-1q0 -6 -12 -6q-4 1 -12 5l-158 114q-6 4 -6 9q0 8 12 8h123z" />
    <glyph glyph-name="Uacute" unicode="&#xda;" horiz-adv-x="698" 
d="M444 666h241v-30q-58 -5 -77 -16q-24 -14 -24 -71v-322q0 -117 -45 -180.5t-160 -63.5q-75 0 -121 9t-81 35t-49.5 73t-14.5 123v332q0 28 -5.5 44t-21 24t-29 10t-44.5 3v30h300v-30q-4 0 -17 -0.5t-18 -0.5t-16.5 -2t-16.5 -5t-12.5 -9t-11 -14.5t-6 -21t-2.5 -28.5
v-320q0 -42 3 -71.5t12.5 -59t27.5 -47t48.5 -28.5t74.5 -11q50 0 83.5 15.5t51 45.5t24 64.5t6.5 82.5v9v314q0 51 -22.5 67t-77.5 20v30zM307 843h123q12 0 12 -8q0 -5 -6 -9l-158 -114q-8 -4 -12 -5q-12 0 -12 6v1q0 3 1 5z" />
    <glyph glyph-name="Ucircumflex" unicode="&#xdb;" horiz-adv-x="698" 
d="M444 666h241v-30q-58 -5 -77 -16q-24 -14 -24 -71v-322q0 -117 -45 -180.5t-160 -63.5q-75 0 -121 9t-81 35t-49.5 73t-14.5 123v332q0 28 -5.5 44t-21 24t-29 10t-44.5 3v30h300v-30q-4 0 -17 -0.5t-18 -0.5t-16.5 -2t-16.5 -5t-12.5 -9t-11 -14.5t-6 -21t-2.5 -28.5
v-320q0 -42 3 -71.5t12.5 -59t27.5 -47t48.5 -28.5t74.5 -11q50 0 83.5 15.5t51 45.5t24 64.5t6.5 82.5v9v314q0 51 -22.5 67t-77.5 20v30zM348 852l121 -119q7 -7 7 -12q0 -18 -16 -18h-1q-6 0 -15 7l-96 66l-95 -66q-9 -7 -15 -7h-1q-13 0 -17 15q0 7 8 15z" />
    <glyph glyph-name="Udieresis" unicode="&#xdc;" horiz-adv-x="698" 
d="M444 666h241v-30q-58 -5 -77 -16q-24 -14 -24 -71v-322q0 -117 -45 -180.5t-160 -63.5q-75 0 -121 9t-81 35t-49.5 73t-14.5 123v332q0 28 -5.5 44t-21 24t-29 10t-44.5 3v30h300v-30q-4 0 -17 -0.5t-18 -0.5t-16.5 -2t-16.5 -5t-12.5 -9t-11 -14.5t-6 -21t-2.5 -28.5
v-320q0 -42 3 -71.5t12.5 -59t27.5 -47t48.5 -28.5t74.5 -11q50 0 83.5 15.5t51 45.5t24 64.5t6.5 82.5v9v314q0 51 -22.5 67t-77.5 20v30zM197 770q0 25 17.5 42.5t42.5 17.5t42.5 -17.5t17.5 -42.5t-17.5 -42.5t-42.5 -17.5t-42.5 17.5t-17.5 42.5zM380 770q0 25 18 42.5
t42 17.5q25 0 42.5 -17.5t17.5 -42.5t-17.5 -42.5t-42.5 -17.5q-24 0 -42 17.5t-18 42.5z" />
    <glyph glyph-name="Yacute" unicode="&#xdd;" horiz-adv-x="663" 
d="M381 297v-186q0 -27 6.5 -43.5t21.5 -24t29.5 -9.5t42.5 -3v-31h-298v31q30 1 44.5 3.5t29.5 10t20.5 23.5t5.5 43v186l-183 285q-19 29 -42.5 40.5t-60.5 13.5v31h286v-31h-25q-48 0 -48 -25q0 -9 9 -29l143 -246l149 246q9 18 9 26q0 28 -92 28v31h239v-31
q-42 -2 -70 -16.5t-48 -47.5zM291 843h123q12 0 12 -8q0 -5 -6 -9l-158 -114q-8 -4 -12 -5q-12 0 -12 6v1q0 3 1 5z" />
    <glyph glyph-name="Thorn" unicode="&#xde;" horiz-adv-x="536" 
d="M13 667h300v-31q-65 -3 -84 -18q-16 -12 -16 -34v-24q12 0 36 0.5t36 0.5q41 0 74 -3.5t67.5 -15t57 -30t37.5 -51.5t15 -77q0 -47 -22 -87t-62 -61q-45 -25 -142 -25h-97v-100q0 -28 5.5 -44t21.5 -23.5t29 -9.5t44 -3v-31h-300v31q31 1 44.5 3t29 9.5t21 23.5t5.5 44
v445q0 26 -6.5 42.5t-22 24t-29.5 10t-42 3.5v31zM213 242h77q66 0 102 39t36 106q0 80 -38.5 113t-120.5 33q-8 0 -17.5 -0.5t-21 -1.5t-17.5 -1v-288z" />
    <glyph glyph-name="germandbls" unicode="&#xdf;" horiz-adv-x="531" 
d="M214 0h-195v31q38 1 52.5 20.5t14.5 59.5v389q0 81 52.5 132t134.5 51q72 0 125.5 -42.5t53.5 -112.5q0 -51 -32 -81.5t-88 -55.5q69 -19 110 -71t41 -123q0 -81 -46 -144.5t-125 -63.5q-28 0 -54 16.5t-26 43.5q0 14 10 25t24 11q20 0 39.5 -30t37.5 -30q49 0 49 166
q0 97 -36.5 137t-131.5 40v38q2 0 5 -0.5t4 -0.5q64 0 99.5 31.5t35.5 94.5q0 124 -105 124q-94 0 -94 -113v-437q0 -19 1 -28.5t4.5 -21.5t13.5 -17.5t26 -6.5v-31z" />
    <glyph glyph-name="agrave" unicode="&#xe0;" horiz-adv-x="452" 
d="M436 88h30q-25 -99 -100 -99q-34 0 -55.5 18.5t-26.5 52.5q-27 -31 -66.5 -50.5t-79.5 -19.5q-44 0 -71 28.5t-27 73.5q0 40 15.5 67t44 41t57 22t66.5 16.5t61 18.5v34q0 53 -14.5 79t-63.5 26q-25 0 -39.5 -10t-20 -25t-10.5 -29.5t-15.5 -24.5t-29.5 -10q-16 0 -30 9
t-14 24q0 32 30 55.5t65 32.5t66 9q159 0 159 -127v-220q0 -42 26 -44q29 0 41 45q2 4 2 7zM284 228q-14 -6 -46.5 -16t-53.5 -18t-40 -27.5t-21 -46.5q0 -31 19 -52t51 -21q43 0 91 41v140zM267 608l52 -124q1 -2 1 -5v-1q0 -6 -12 -6q-4 1 -12 5l-158 114q-6 4 -6 9
q0 8 12 8h123z" />
    <glyph glyph-name="aacute" unicode="&#xe1;" horiz-adv-x="452" 
d="M436 88h30q-25 -99 -100 -99q-34 0 -55.5 18.5t-26.5 52.5q-27 -31 -66.5 -50.5t-79.5 -19.5q-44 0 -71 28.5t-27 73.5q0 40 15.5 67t44 41t57 22t66.5 16.5t61 18.5v34q0 53 -14.5 79t-63.5 26q-25 0 -39.5 -10t-20 -25t-10.5 -29.5t-15.5 -24.5t-29.5 -10q-16 0 -30 9
t-14 24q0 32 30 55.5t65 32.5t66 9q159 0 159 -127v-220q0 -42 26 -44q29 0 41 45q2 4 2 7zM284 228q-14 -6 -46.5 -16t-53.5 -18t-40 -27.5t-21 -46.5q0 -31 19 -52t51 -21q43 0 91 41v140zM185 608h123q12 0 12 -8q0 -5 -6 -9l-158 -114q-8 -4 -12 -5q-12 0 -12 6v1
q0 3 1 5z" />
    <glyph glyph-name="acircumflex" unicode="&#xe2;" horiz-adv-x="452" 
d="M436 88h30q-25 -99 -100 -99q-34 0 -55.5 18.5t-26.5 52.5q-27 -31 -66.5 -50.5t-79.5 -19.5q-44 0 -71 28.5t-27 73.5q0 40 15.5 67t44 41t57 22t66.5 16.5t61 18.5v34q0 53 -14.5 79t-63.5 26q-25 0 -39.5 -10t-20 -25t-10.5 -29.5t-15.5 -24.5t-29.5 -10q-16 0 -30 9
t-14 24q0 32 30 55.5t65 32.5t66 9q159 0 159 -127v-220q0 -42 26 -44q29 0 41 45q2 4 2 7zM284 228q-14 -6 -46.5 -16t-53.5 -18t-40 -27.5t-21 -46.5q0 -31 19 -52t51 -21q43 0 91 41v140zM226 622l121 -119q7 -7 7 -12q0 -18 -16 -18h-1q-6 0 -15 7l-96 66l-95 -66
q-9 -7 -15 -7h-1q-13 0 -17 15q0 7 8 15z" />
    <glyph glyph-name="atilde" unicode="&#xe3;" horiz-adv-x="452" 
d="M436 88h30q-25 -99 -100 -99q-34 0 -55.5 18.5t-26.5 52.5q-27 -31 -66.5 -50.5t-79.5 -19.5q-44 0 -71 28.5t-27 73.5q0 40 15.5 67t44 41t57 22t66.5 16.5t61 18.5v34q0 53 -14.5 79t-63.5 26q-25 0 -39.5 -10t-20 -25t-10.5 -29.5t-15.5 -24.5t-29.5 -10q-16 0 -30 9
t-14 24q0 32 30 55.5t65 32.5t66 9q159 0 159 -127v-220q0 -42 26 -44q29 0 41 45q2 4 2 7zM284 228q-14 -6 -46.5 -16t-53.5 -18t-40 -27.5t-21 -46.5q0 -31 19 -52t51 -21q43 0 91 41v140zM373 593l17 -12q-51 -79 -107 -81q-25 0 -72 13.5t-71 13.5q-26 0 -58 -34l-19 11
q53 88 109 88q24 0 71 -14t72 -14q27 0 58 29z" />
    <glyph glyph-name="adieresis" unicode="&#xe4;" horiz-adv-x="452" 
d="M436 88h30q-25 -99 -100 -99q-34 0 -55.5 18.5t-26.5 52.5q-27 -31 -66.5 -50.5t-79.5 -19.5q-44 0 -71 28.5t-27 73.5q0 40 15.5 67t44 41t57 22t66.5 16.5t61 18.5v34q0 53 -14.5 79t-63.5 26q-25 0 -39.5 -10t-20 -25t-10.5 -29.5t-15.5 -24.5t-29.5 -10q-16 0 -30 9
t-14 24q0 32 30 55.5t65 32.5t66 9q159 0 159 -127v-220q0 -42 26 -44q29 0 41 45q2 4 2 7zM284 228q-14 -6 -46.5 -16t-53.5 -18t-40 -27.5t-21 -46.5q0 -31 19 -52t51 -21q43 0 91 41v140zM75 533q0 25 17.5 42.5t42.5 17.5t42.5 -17.5t17.5 -42.5t-17.5 -42.5
t-42.5 -17.5t-42.5 17.5t-17.5 42.5zM258 533q0 25 18 42.5t42 17.5q25 0 42.5 -17.5t17.5 -42.5t-17.5 -42.5t-42.5 -17.5q-24 0 -42 17.5t-18 42.5z" />
    <glyph glyph-name="aring" unicode="&#xe5;" horiz-adv-x="452" 
d="M436 88h30q-25 -99 -100 -99q-34 0 -55.5 18.5t-26.5 52.5q-27 -31 -66.5 -50.5t-79.5 -19.5q-44 0 -71 28.5t-27 73.5q0 40 15.5 67t44 41t57 22t66.5 16.5t61 18.5v34q0 53 -14.5 79t-63.5 26q-25 0 -39.5 -10t-20 -25t-10.5 -29.5t-15.5 -24.5t-29.5 -10q-16 0 -30 9
t-14 24q0 32 30 55.5t65 32.5t66 9q159 0 159 -127v-220q0 -42 26 -44q29 0 41 45q2 4 2 7zM284 228q-14 -6 -46.5 -16t-53.5 -18t-40 -27.5t-21 -46.5q0 -31 19 -52t51 -21q43 0 91 41v140zM226 468q-34 0 -59.5 25t-25.5 60t25.5 60t59.5 25q35 0 60 -26t25 -62
q0 -34 -25.5 -58t-59.5 -24zM226 507q19 0 32.5 13.5t13.5 32.5t-13.5 32.5t-32.5 13.5t-32.5 -13.5t-13.5 -32.5t13.5 -32.5t32.5 -13.5z" />
    <glyph glyph-name="ae" unicode="&#xe6;" horiz-adv-x="687" 
d="M649 230h-280q0 -3 -0.5 -7.5t-0.5 -6.5q0 -35 5.5 -65.5t19 -59.5t40 -45.5t63.5 -16.5q38 0 65.5 19.5t59.5 56.5l28 -16q-25 -46 -70 -73t-98 -27q-51 0 -96.5 22t-74.5 63q-25 -37 -72 -61t-92 -24q-47 0 -76.5 30.5t-29.5 77.5q0 78 54 107q79 41 193 55
q0 23 -0.5 37.5t-5 35t-12.5 32.5t-23.5 21t-37.5 9q-30 0 -45.5 -15.5t-19 -33.5t-15.5 -33.5t-37 -15.5q-15 0 -28.5 7t-14.5 21q0 49 51 76t105 27q47 0 79 -12t60 -44q54 56 130 56q83 0 129.5 -56t46.5 -141zM561 259q0 59 -18.5 95.5t-71.5 36.5q-50 0 -74 -38.5
t-27 -93.5h191zM287 230q-89 -20 -120 -40q-44 -27 -44 -73q0 -33 17 -54t49 -21t63.5 17.5t43.5 45.5q-5 12 -7 38q-2 29 -2 87z" />
    <glyph glyph-name="ccedilla" unicode="&#xe7;" horiz-adv-x="433" 
d="M381 107l30 -11q-18 -52 -62.5 -80t-101.5 -28l-13 -44q34 -7 58 -26t24 -51q0 -40 -30 -65t-71 -25q-45 0 -91 29l14 22q36 -19 62 -19q22 0 38 16t16 38q0 40 -58 59l22 66q-85 17 -132 68.5t-47 137.5q0 99 56 166t153 67q26 0 57.5 -8t58.5 -27.5t27 -46.5
q0 -16 -11.5 -27t-27.5 -11q-19 0 -35 14q-3 37 -18.5 54t-52.5 17q-41 0 -68 -28.5t-36.5 -65t-9.5 -76.5q0 -46 12 -87t43.5 -73.5t78.5 -32.5q75 0 115 78z" />
    <glyph glyph-name="egrave" unicode="&#xe8;" horiz-adv-x="454" 
d="M416 223h-285q0 -196 128 -196q74 0 128 76l29 -16q-62 -98 -172 -98q-92 0 -148 60.5t-56 153.5t54.5 158.5t146.5 65.5q81 0 128 -60.5t47 -143.5zM327 258q0 1 0.5 4.5t0.5 5.5q0 122 -92 122q-51 0 -76.5 -38.5t-27.5 -93.5h195zM268 608l52 -124q1 -2 1 -5v-1
q0 -6 -12 -6q-4 1 -12 5l-158 114q-6 4 -6 9q0 8 12 8h123z" />
    <glyph glyph-name="eacute" unicode="&#xe9;" horiz-adv-x="454" 
d="M416 223h-285q0 -196 128 -196q74 0 128 76l29 -16q-62 -98 -172 -98q-92 0 -148 60.5t-56 153.5t54.5 158.5t146.5 65.5q81 0 128 -60.5t47 -143.5zM327 258q0 1 0.5 4.5t0.5 5.5q0 122 -92 122q-51 0 -76.5 -38.5t-27.5 -93.5h195zM186 608h123q12 0 12 -8q0 -5 -6 -9
l-158 -114q-8 -4 -12 -5q-12 0 -12 6v1q0 3 1 5z" />
    <glyph glyph-name="ecircumflex" unicode="&#xea;" horiz-adv-x="454" 
d="M416 223h-285q0 -196 128 -196q74 0 128 76l29 -16q-62 -98 -172 -98q-92 0 -148 60.5t-56 153.5t54.5 158.5t146.5 65.5q81 0 128 -60.5t47 -143.5zM327 258q0 1 0.5 4.5t0.5 5.5q0 122 -92 122q-51 0 -76.5 -38.5t-27.5 -93.5h195zM227 622l121 -119q7 -7 7 -12
q0 -18 -16 -18h-1q-6 0 -15 7l-96 66l-95 -66q-9 -7 -15 -7h-1q-13 0 -17 15q0 7 8 15z" />
    <glyph glyph-name="edieresis" unicode="&#xeb;" horiz-adv-x="454" 
d="M416 223h-285q0 -196 128 -196q74 0 128 76l29 -16q-62 -98 -172 -98q-92 0 -148 60.5t-56 153.5t54.5 158.5t146.5 65.5q81 0 128 -60.5t47 -143.5zM327 258q0 1 0.5 4.5t0.5 5.5q0 122 -92 122q-51 0 -76.5 -38.5t-27.5 -93.5h195zM76 533q0 25 17.5 42.5t42.5 17.5
t42.5 -17.5t17.5 -42.5t-17.5 -42.5t-42.5 -17.5t-42.5 17.5t-17.5 42.5zM259 533q0 25 18 42.5t42 17.5q25 0 42.5 -17.5t17.5 -42.5t-17.5 -42.5t-42.5 -17.5q-24 0 -42 17.5t-18 42.5z" />
    <glyph glyph-name="igrave" unicode="&#xec;" horiz-adv-x="243" 
d="M163 422v-311q0 -40 14.5 -59.5t52.5 -20.5v-31h-217v31q38 1 52.5 20.5t14.5 59.5v172q0 39 -15 59.5t-52 21.5v30q60 8 150 28zM162 608l52 -124q1 -2 1 -5v-1q0 -6 -12 -6q-4 1 -12 5l-158 114q-6 4 -6 9q0 8 12 8h123z" />
    <glyph glyph-name="iacute" unicode="&#xed;" horiz-adv-x="243" 
d="M163 422v-311q0 -40 14.5 -59.5t52.5 -20.5v-31h-217v31q38 1 52.5 20.5t14.5 59.5v172q0 39 -15 59.5t-52 21.5v30q60 8 150 28zM80 608h123q12 0 12 -8q0 -5 -6 -9l-158 -114q-8 -4 -12 -5q-12 0 -12 6v1q0 3 1 5z" />
    <glyph glyph-name="icircumflex" unicode="&#xee;" horiz-adv-x="243" 
d="M163 422v-311q0 -40 14.5 -59.5t52.5 -20.5v-31h-217v31q38 1 52.5 20.5t14.5 59.5v172q0 39 -15 59.5t-52 21.5v30q60 8 150 28zM121 622l121 -119q7 -7 7 -12q0 -18 -16 -18h-1q-6 0 -15 7l-96 66l-95 -66q-9 -7 -15 -7h-1q-13 0 -17 15q0 7 8 15z" />
    <glyph glyph-name="idieresis" unicode="&#xef;" horiz-adv-x="243" 
d="M163 422v-311q0 -40 14.5 -59.5t52.5 -20.5v-31h-217v31q38 1 52.5 20.5t14.5 59.5v172q0 39 -15 59.5t-52 21.5v30q60 8 150 28zM-30 532q0 25 17.5 42.5t42.5 17.5t42.5 -17.5t17.5 -42.5t-17.5 -42.5t-42.5 -17.5t-42.5 17.5t-17.5 42.5zM153 532q0 25 18 42.5
t42 17.5q25 0 42.5 -17.5t17.5 -42.5t-17.5 -42.5t-42.5 -17.5q-24 0 -42 17.5t-18 42.5z" />
    <glyph glyph-name="eth" unicode="&#xf0;" horiz-adv-x="513" 
d="M374 717l19 -31l-97 -60q178 -139 178 -387q0 -111 -54.5 -180.5t-162.5 -69.5q-98 0 -157.5 57t-59.5 155q0 100 59.5 163t158.5 63q45 0 91 -16q-5 53 -29.5 102t-63.5 81l-113 -74l-19 30l102 65q-60 34 -131 46l12 25q88 -3 156 -41zM382 204q0 193 -125 193
q-127 0 -127 -199q0 -46 10 -84t39.5 -67t76.5 -29t76.5 30.5t39.5 69.5t10 86z" />
    <glyph glyph-name="ntilde" unicode="&#xf1;" horiz-adv-x="519" 
d="M150 422q13 -26 13 -61q73 66 154 66q122 0 122 -136v-180q0 -40 14 -59.5t52 -20.5v-31h-216v31q38 1 52 20.5t14 59.5v168q0 97 -86 97q-50 0 -106 -49v-216q0 -40 14.5 -59.5t52.5 -20.5v-31h-217v31q38 1 52.5 20.5t14.5 59.5v172q0 39 -15 59.5t-52 21.5v30
q83 12 137 28zM406 593l17 -12q-51 -79 -107 -81q-24 0 -71 13.5t-72 13.5q-26 0 -58 -34l-19 11q53 88 109 88q24 0 71 -14t72 -14q27 0 58 29z" />
    <glyph glyph-name="ograve" unicode="&#xf2;" horiz-adv-x="511" 
d="M471 206q0 -96 -60 -156.5t-156 -60.5q-99 0 -157 57t-58 156q0 101 58.5 163t159.5 62t157 -60t56 -161zM381 204q0 30 -2 53.5t-10 51t-21 46t-36.5 30.5t-55.5 12q-126 0 -126 -199q0 -74 29 -127t96 -53q47 0 77 30.5t39.5 69.5t9.5 86zM297 608l52 -124q1 -2 1 -5
v-1q0 -6 -12 -6q-4 1 -12 5l-158 114q-6 4 -6 9q0 8 12 8h123z" />
    <glyph glyph-name="oacute" unicode="&#xf3;" horiz-adv-x="511" 
d="M471 206q0 -96 -60 -156.5t-156 -60.5q-99 0 -157 57t-58 156q0 101 58.5 163t159.5 62t157 -60t56 -161zM381 204q0 30 -2 53.5t-10 51t-21 46t-36.5 30.5t-55.5 12q-126 0 -126 -199q0 -74 29 -127t96 -53q47 0 77 30.5t39.5 69.5t9.5 86zM215 608h123q12 0 12 -8
q0 -5 -6 -9l-158 -114q-8 -4 -12 -5q-12 0 -12 6v1q0 3 1 5z" />
    <glyph glyph-name="ocircumflex" unicode="&#xf4;" horiz-adv-x="511" 
d="M471 206q0 -96 -60 -156.5t-156 -60.5q-99 0 -157 57t-58 156q0 101 58.5 163t159.5 62t157 -60t56 -161zM381 204q0 30 -2 53.5t-10 51t-21 46t-36.5 30.5t-55.5 12q-126 0 -126 -199q0 -74 29 -127t96 -53q47 0 77 30.5t39.5 69.5t9.5 86zM256 622l121 -119q7 -7 7 -12
q0 -18 -16 -18h-1q-6 0 -15 7l-96 66l-95 -66q-9 -7 -15 -7h-1q-13 0 -17 15q0 7 8 15z" />
    <glyph glyph-name="otilde" unicode="&#xf5;" horiz-adv-x="511" 
d="M471 206q0 -96 -60 -156.5t-156 -60.5q-99 0 -157 57t-58 156q0 101 58.5 163t159.5 62t157 -60t56 -161zM381 204q0 30 -2 53.5t-10 51t-21 46t-36.5 30.5t-55.5 12q-126 0 -126 -199q0 -74 29 -127t96 -53q47 0 77 30.5t39.5 69.5t9.5 86zM402 593l17 -12
q-51 -79 -107 -81q-24 0 -71 13.5t-72 13.5q-26 0 -58 -34l-19 11q53 88 109 88q24 0 71 -14t72 -14q27 0 58 29z" />
    <glyph glyph-name="odieresis" unicode="&#xf6;" horiz-adv-x="511" 
d="M471 206q0 -96 -60 -156.5t-156 -60.5q-99 0 -157 57t-58 156q0 101 58.5 163t159.5 62t157 -60t56 -161zM381 204q0 30 -2 53.5t-10 51t-21 46t-36.5 30.5t-55.5 12q-126 0 -126 -199q0 -74 29 -127t96 -53q47 0 77 30.5t39.5 69.5t9.5 86zM104 533q0 25 17.5 42.5
t42.5 17.5t42.5 -17.5t17.5 -42.5t-17.5 -42.5t-42.5 -17.5t-42.5 17.5t-17.5 42.5zM287 533q0 25 18 42.5t42 17.5q25 0 42.5 -17.5t17.5 -42.5t-17.5 -42.5t-42.5 -17.5q-24 0 -42 17.5t-18 42.5z" />
    <glyph glyph-name="divide" unicode="&#xf7;" 
d="M20 370h460v-50h-460v50zM250 569q18 0 30.5 -12.5t12.5 -30.5q0 -17 -12.5 -30t-30.5 -13q-17 0 -30 13t-13 30q0 18 13 30.5t30 12.5zM250 206q18 0 30.5 -12.5t12.5 -30.5q0 -17 -13 -30t-30 -13t-30 13t-13 30q0 18 12.5 30.5t30.5 12.5z" />
    <glyph glyph-name="oslash" unicode="&#xf8;" horiz-adv-x="514" 
d="M418 372q59 -54 59 -163q0 -97 -60 -157.5t-156 -60.5q-82 0 -139 41l-50 -57l-29 25l51 58q-48 53 -48 146q0 102 58.5 163.5t159.5 61.5q75 0 124 -33l52 60l29 -25zM372 322l-207 -251q33 -50 96 -50q68 0 97 55t29 130q0 74 -15 116zM148 109l205 249q-32 41 -91 41
q-126 0 -126 -198q0 -52 12 -92z" />
    <glyph glyph-name="ugrave" unicode="&#xf9;" horiz-adv-x="519" 
d="M369 -5q-13 33 -13 60q-73 -66 -155 -66q-50 0 -85 28t-36 76v31v192q0 40 -14.5 59.5t-52.5 20.5v31h150v-290q0 -97 87 -97q50 0 106 49v227q0 40 -14.5 59.5t-52.5 20.5v31h150v-316q0 -79 67 -80v-31q-62 0 -137 -5zM300 608l52 -124q1 -2 1 -5v-1q0 -6 -12 -6
q-4 1 -12 5l-158 114q-6 4 -6 9q0 8 12 8h123z" />
    <glyph glyph-name="uacute" unicode="&#xfa;" horiz-adv-x="519" 
d="M369 -5q-13 33 -13 60q-73 -66 -155 -66q-50 0 -85 28t-36 76v31v192q0 40 -14.5 59.5t-52.5 20.5v31h150v-290q0 -97 87 -97q50 0 106 49v227q0 40 -14.5 59.5t-52.5 20.5v31h150v-316q0 -79 67 -80v-31q-62 0 -137 -5zM218 608h123q12 0 12 -8q0 -5 -6 -9l-158 -114
q-8 -4 -12 -5q-12 0 -12 6v1q0 3 1 5z" />
    <glyph glyph-name="ucircumflex" unicode="&#xfb;" horiz-adv-x="519" 
d="M369 -5q-13 33 -13 60q-73 -66 -155 -66q-50 0 -85 28t-36 76v31v192q0 40 -14.5 59.5t-52.5 20.5v31h150v-290q0 -97 87 -97q50 0 106 49v227q0 40 -14.5 59.5t-52.5 20.5v31h150v-316q0 -79 67 -80v-31q-62 0 -137 -5zM259 622l121 -119q7 -7 7 -12q0 -18 -16 -18h-1
q-6 0 -15 7l-96 66l-95 -66q-9 -7 -15 -7h-1q-13 0 -17 15q0 7 8 15z" />
    <glyph glyph-name="udieresis" unicode="&#xfc;" horiz-adv-x="519" 
d="M369 -5q-13 33 -13 60q-73 -66 -155 -66q-50 0 -85 28t-36 76v31v192q0 40 -14.5 59.5t-52.5 20.5v31h150v-290q0 -97 87 -97q50 0 106 49v227q0 40 -14.5 59.5t-52.5 20.5v31h150v-316q0 -79 67 -80v-31q-62 0 -137 -5zM108 533q0 25 17.5 42.5t42.5 17.5t42.5 -17.5
t17.5 -42.5t-17.5 -42.5t-42.5 -17.5t-42.5 17.5t-17.5 42.5zM291 533q0 25 18 42.5t42 17.5q25 0 42.5 -17.5t17.5 -42.5t-17.5 -42.5t-42.5 -17.5q-24 0 -42 17.5t-18 42.5z" />
    <glyph glyph-name="yacute" unicode="&#xfd;" horiz-adv-x="466" 
d="M470 415v-30l-10 -1q-42 -4 -58 -38l-213 -466q-1 -3 -8 -19t-10 -22.5t-10.5 -22t-13 -23.5t-14 -20.5t-16 -19t-17 -14t-20.5 -10.5t-22 -3q-19 0 -34 10t-15 29q0 12 7 22q3 0 8 -1t7 -1q28 0 52.5 15.5t45 45.5t33.5 54t30.5 63t22.5 50l-156 333q-18 37 -62 39v30
h192v-30q-43 0 -43 -21q0 -6 4 -18l108 -234l105 234q6 14 7 22v1q0 5 -2.5 8t-8 4.5t-9.5 2t-11 1t-8 0.5h-7v30h146zM192 607h123q12 0 12 -8q0 -5 -6 -9l-158 -114q-8 -4 -12 -5q-12 0 -12 6v1q0 3 1 5z" />
    <glyph glyph-name="thorn" unicode="&#xfe;" horiz-adv-x="528" 
d="M163 35v-191q0 -48 19 -63.5t68 -17.5v-30h-237v31q38 1 52.5 20.5t14.5 59.5v711q0 39 -15 59.5t-52 21.5v30q83 12 137 28q13 -21 13 -43v-286q56 61 136 61q87 0 138 -62.5t51 -151.5q0 -92 -52 -157.5t-142 -65.5q-76 0 -131 46zM163 81q49 -49 107 -52
q46 0 76.5 30.5t41.5 70.5t11 86q0 67 -27.5 118.5t-88.5 51.5q-67 0 -120 -82v-223z" />
    <glyph glyph-name="ydieresis" unicode="&#xff;" horiz-adv-x="466" 
d="M470 415v-30l-10 -1q-42 -4 -58 -38l-213 -466q-1 -3 -8 -19t-10 -22.5t-10.5 -22t-13 -23.5t-14 -20.5t-16 -19t-17 -14t-20.5 -10.5t-22 -3q-19 0 -34 10t-15 29q0 12 7 22q3 0 8 -1t7 -1q28 0 52.5 15.5t45 45.5t33.5 54t30.5 63t22.5 50l-156 333q-18 37 -62 39v30
h192v-30q-43 0 -43 -21q0 -6 4 -18l108 -234l105 234q6 14 7 22v1q0 5 -2.5 8t-8 4.5t-9.5 2t-11 1t-8 0.5h-7v30h146zM82 532q0 25 17.5 42.5t42.5 17.5t42.5 -17.5t17.5 -42.5t-17.5 -42.5t-42.5 -17.5t-42.5 17.5t-17.5 42.5zM265 532q0 25 18 42.5t42 17.5
q25 0 42.5 -17.5t17.5 -42.5t-17.5 -42.5t-42.5 -17.5q-24 0 -42 17.5t-18 42.5z" />
    <glyph glyph-name="dotlessi" unicode="&#x131;" horiz-adv-x="243" 
d="M163 422v-311q0 -40 14.5 -59.5t52.5 -20.5v-31h-217v31q38 1 52.5 20.5t14.5 59.5v172q0 39 -15 59.5t-52 21.5v30q60 8 150 28z" />
    <glyph glyph-name="Lslash" unicode="&#x141;" horiz-adv-x="571" 
d="M405 440l14 -32l-206 -97v-189q0 -50 26.5 -69t78.5 -19q38 0 60.5 2t50 9.5t48 25t37.5 45.5q29 51 31 90h29l-13 -206h-548v31q31 1 44.5 3t29 9.5t21 23.5t5.5 44v156l-83 -40l-15 30l98 46v253q0 27 -5.5 43.5t-21 24t-29.5 9.5t-44 3v31h300v-31q-54 -2 -77 -14
t-23 -66v-206z" />
    <glyph glyph-name="lslash" unicode="&#x142;" horiz-adv-x="258" 
d="M238 423l12 -26l-80 -39v-247q0 -40 14.5 -59.5t52.5 -20.5v-31h-217v31q38 1 52.5 20.5t14.5 59.5v207l-65 -30l-11 26l76 36v206q0 79 -67 80v31q76 11 150 27v-304z" />
    <glyph glyph-name="OE" unicode="&#x152;" horiz-adv-x="926" 
d="M888 208h30l-13 -208h-420q-18 0 -53.5 -5.5t-53.5 -5.5q-153 0 -242 96.5t-89 251.5q0 143 89 240.5t230 97.5q21 0 62 -4t61 -4h359l18 -163h-32q-23 128 -137 128h-139v-244h57q94 0 97 94h31v-227h-31l-1 12q-3 48 -24.5 67.5t-68.5 19.5h-60v-227q0 -57 28.5 -75.5
t89.5 -18.5q98 0 147 39.5t65 135.5zM458 626q-47 14 -91 14q-61 0 -103.5 -30.5t-63 -82.5t-28.5 -102.5t-8 -109.5q0 -128 51 -203q24 -36 63.5 -59t80.5 -23q49 0 74 20t25 68v9v499z" />
    <glyph glyph-name="oe" unicode="&#x153;" horiz-adv-x="664" 
d="M381 231q0 -199 128 -199q72 0 126 75l29 -16q-61 -95 -163 -99q-89 0 -153 55q-66 -58 -146 -58q-91 0 -146.5 60.5t-55.5 153.5q0 94 54.5 158.5t147.5 64.5q92 0 146 -61q56 62 135 62q85 0 131.5 -54.5t49.5 -141.5h-283zM382 259h191q0 34 -7 61.5t-28.5 49.5
t-55.5 22q-49 0 -74 -40t-26 -93zM199 393q-33 0 -56 -18t-34.5 -48t-16.5 -59t-5 -60q0 -32 4 -60t15 -59t34 -49.5t57 -18.5q106 0 106 192q0 29 -4 57t-14.5 57.5t-32.5 47.5t-53 18z" />
    <glyph glyph-name="Scaron" unicode="&#x160;" horiz-adv-x="509" 
d="M434 674v-181h-30q-12 70 -53.5 115t-109.5 45q-44 0 -77.5 -26t-33.5 -68q0 -44 35.5 -77t86.5 -56.5t102 -50.5t86.5 -73.5t35.5 -110.5q0 -89 -55.5 -148.5t-144.5 -59.5q-99 0 -183 73q-15 -31 -22 -56h-31v210h31q10 -73 62 -129t123 -56q61 0 103.5 31.5t42.5 90.5
q0 50 -36 86.5t-87 60t-102.5 49t-87.5 68.5t-36 102q0 76 54.5 123t131.5 47q92 0 149 -49q6 8 22 40h24zM254 703l-115 115q-13 13 -13 20t5.5 11.5t11.5 4.5q10 0 23 -9l88 -65l89 65q14 9 21 9q19 0 19 -15q0 -8 -13 -21z" />
    <glyph glyph-name="scaron" unicode="&#x161;" horiz-adv-x="346" 
d="M292 415v-137h-23q-10 46 -38.5 79.5t-72.5 33.5q-25 0 -41.5 -16t-16.5 -41q0 -24 22 -43t53 -32.5t62.5 -30t53.5 -45t22 -67.5q0 -57 -34 -92t-90 -35q-64 0 -114 45l-17 -34h-24v143h24q6 -49 39 -82.5t81 -33.5q29 0 50 17t21 45q0 27 -22 47.5t-53 35t-62 31
t-53 44t-22 63.5q0 53 30.5 85t82.5 32q55 0 100 -48l19 36h23zM173 473l-115 115q-13 13 -13 20t5.5 11.5t11.5 4.5q10 0 23 -9l88 -65l89 65q14 9 21 9q19 0 19 -15q0 -8 -13 -21z" />
    <glyph glyph-name="Ydieresis" unicode="&#x178;" horiz-adv-x="663" 
d="M381 297v-186q0 -27 6.5 -43.5t21.5 -24t29.5 -9.5t42.5 -3v-31h-298v31q30 1 44.5 3.5t29.5 10t20.5 23.5t5.5 43v186l-183 285q-19 29 -42.5 40.5t-60.5 13.5v31h286v-31h-25q-48 0 -48 -25q0 -9 9 -29l143 -246l149 246q9 18 9 26q0 28 -92 28v31h239v-31
q-42 -2 -70 -16.5t-48 -47.5zM181 770q0 25 17.5 42.5t42.5 17.5t42.5 -17.5t17.5 -42.5t-17.5 -42.5t-42.5 -17.5t-42.5 17.5t-17.5 42.5zM364 770q0 25 18 42.5t42 17.5q25 0 42.5 -17.5t17.5 -42.5t-17.5 -42.5t-42.5 -17.5q-24 0 -42 17.5t-18 42.5z" />
    <glyph glyph-name="Zcaron" unicode="&#x17d;" horiz-adv-x="590" 
d="M548 178h32l-15 -178h-555v16l422 613h-216q-110 0 -144 -127h-33l19 165h507v-14l-422 -615h247q68 0 102.5 35t55.5 105zM295 703l-115 115q-13 13 -13 20t5.5 11.5t11.5 4.5q10 0 23 -9l88 -65l89 65q14 9 21 9q19 0 19 -15q0 -8 -13 -21z" />
    <glyph glyph-name="zcaron" unicode="&#x17e;" horiz-adv-x="392" 
d="M352 139h26l-8 -139h-357v33l257 353h-144q-23 0 -36 -13t-25.5 -41t-17.5 -36h-27l14 121h336v-31l-257 -353h139q20 0 36.5 9t29 28t19 32.5t15.5 36.5zM195 473l-115 115q-13 13 -13 20t5.5 11.5t11.5 4.5q10 0 23 -9l88 -65l89 65q14 9 21 9q19 0 19 -15
q0 -8 -13 -21z" />
    <glyph glyph-name="florin" unicode="&#x192;" horiz-adv-x="467" 
d="M387 472l-5 -30h-109l-41 -229q-30 -155 -53 -219q-41 -113 -99 -126l-24 16q13 12 24 32t18 37.5t14 47.5t9.5 44t8 47t6.5 37l56 313h-83l5 30h84l14 80q13 73 55.5 127t109.5 54q36 0 68 -17.5t32 -51.5q0 -18 -12.5 -30t-30.5 -12q-15 0 -27 10.5t-12 25.5q0 3 1 8.5
t1 8.5q0 24 -32 24q-21 0 -34 -13.5t-17.5 -27.5t-8.5 -38q-1 -4 -1 -6l-26 -142h109z" />
    <glyph glyph-name="circumflex" unicode="&#x2c6;" 
d="M251 622l121 -119q7 -7 7 -12q0 -18 -16 -18h-1q-6 0 -15 7l-96 66l-95 -66q-9 -7 -15 -7h-1q-13 0 -17 15q0 7 8 15z" />
    <glyph glyph-name="caron" unicode="&#x2c7;" 
d="M250 473l-115 115q-13 13 -13 20t5.5 11.5t11.5 4.5q10 0 23 -9l88 -65l89 65q13 9 21 9q19 0 19 -15q0 -8 -13 -21z" />
    <glyph glyph-name="breve" unicode="&#x2d8;" 
d="M97 606l25 -1q7 -17 21 -28t34.5 -15.5t35 -5.5t37.5 -1t37 1t34 5.5t33.5 15.5t20.5 28h28q-6 -57 -50 -87.5t-105 -30.5t-104 30.5t-47 88.5z" />
    <glyph glyph-name="dotaccent" unicode="&#x2d9;" 
d="M190 533q0 25 17.5 42.5t42.5 17.5t42.5 -17.5t17.5 -42.5t-17.5 -42.5t-42.5 -17.5t-42.5 17.5t-17.5 42.5z" />
    <glyph glyph-name="ring" unicode="&#x2da;" 
d="M250 468q-34 0 -59.5 25t-25.5 60t25.5 60t59.5 25q35 0 60 -26t25 -62q0 -34 -25.5 -58t-59.5 -24zM250 507q19 0 32.5 13.5t13.5 32.5t-13.5 32.5t-32.5 13.5t-32.5 -13.5t-13.5 -32.5t13.5 -32.5t32.5 -13.5z" />
    <glyph glyph-name="ogonek" unicode="&#x2db;" 
d="M518 0q-58 -38 -58 -89q0 -82 95 -82q17 0 40 7l5 -9q-38 -25 -89 -25q-43 0 -72 23t-29 64q0 71 82 111h26z" />
    <glyph glyph-name="tilde" unicode="&#x2dc;" 
d="M397 593l17 -12q-51 -79 -107 -81q-25 0 -72 13.5t-71 13.5q-26 0 -58 -34l-19 11q53 88 109 88q24 0 71 -14t72 -14q27 0 58 29z" />
    <glyph glyph-name="hungarumlaut" unicode="&#x2dd;" 
d="M119 608h123q12 0 12 -8q0 -5 -6 -9l-158 -114q-8 -4 -12 -5q-12 0 -12 6v1q0 3 1 5zM301 608h123q12 0 12 -8q0 -5 -6 -9l-158 -114q-8 -4 -12 -5q-12 0 -12 6v1q0 3 1 5z" />
    <glyph glyph-name="mu" unicode="&#x3bc;" horiz-adv-x="550" 
d="M465 457v-337v-12q0 -66 36 -66q13 0 33 10v-17l-91 -45q-4 -2 -7 -2q-13 0 -22.5 8t-15 24.5t-7 24.5t-4.5 25q-29 -29 -44 -42t-44.5 -28t-57.5 -15q-83 0 -112 87q0 -31 3.5 -62.5t10.5 -78.5t9 -62q0 -60 -44 -60q-20 0 -31 15.5t-11 37.5q0 13 7 57q29 168 29 352
v186h83v-287q0 -136 85 -136q59 0 112 75v348h83z" />
    <glyph glyph-name="endash" unicode="&#x2013;" horiz-adv-x="467" 
d="M456 242v-50h-444v50h444z" />
    <glyph glyph-name="emdash" unicode="&#x2014;" horiz-adv-x="634" 
d="M634 241v-50h-634v50h634z" />
    <glyph glyph-name="quoteleft" unicode="&#x2018;" horiz-adv-x="237" 
d="M177 684v-18q-79 -55 -79 -118q0 -13 8 -37q20 2 29 2q22 0 37.5 -16.5t15.5 -38.5q0 -23 -16.5 -39t-39.5 -16q-39 0 -63 34t-24 75q0 58 38 106t94 66z" />
    <glyph glyph-name="quoteright" unicode="&#x2019;" horiz-adv-x="237" 
d="M56 403v17q79 57 79 119q0 18 -8 37q-13 -3 -29 -3q-22 0 -37.5 16.5t-15.5 38.5q0 23 16.5 39.5t39.5 16.5q39 0 63 -34t24 -75q0 -58 -38 -106.5t-94 -65.5z" />
    <glyph glyph-name="quotesinglbase" unicode="&#x201a;" horiz-adv-x="237" 
d="M56 -173v17q79 57 79 119q0 18 -8 37q-13 -3 -29 -3q-22 0 -37.5 16.5t-15.5 38.5q0 23 16.5 39.5t39.5 16.5q39 0 63 -34t24 -75q0 -58 -38 -106.5t-94 -65.5z" />
    <glyph glyph-name="quotedblleft" unicode="&#x201c;" horiz-adv-x="407" 
d="M177 684v-18q-79 -55 -79 -118q0 -13 8 -37q20 2 29 2q22 0 37.5 -16.5t15.5 -38.5q0 -23 -16.5 -39t-39.5 -16q-39 0 -63 34t-24 75q0 58 38 106t94 66zM347 684v-18q-79 -55 -79 -118q0 -13 8 -37q20 2 29 2q22 0 37.5 -16.5t15.5 -38.5q0 -23 -16.5 -39t-39.5 -16
q-39 0 -63 34t-24 75q0 58 38 106t94 66z" />
    <glyph glyph-name="quotedblright" unicode="&#x201d;" horiz-adv-x="407" 
d="M56 403v17q79 57 79 119q0 18 -8 37q-13 -3 -29 -3q-22 0 -37.5 16.5t-15.5 38.5q0 23 16.5 39.5t39.5 16.5q39 0 63 -34t24 -75q0 -58 -38 -106.5t-94 -65.5zM227 403v17q78 58 78 119q0 16 -7 37q-15 -3 -29 -3q-22 0 -38 16.5t-16 38.5q0 23 16.5 39.5t39.5 16.5
q39 0 63 -34t24 -75q0 -58 -37.5 -106.5t-93.5 -65.5z" />
    <glyph glyph-name="quotedblbase" unicode="&#x201e;" horiz-adv-x="407" 
d="M56 -173v17q79 57 79 119q0 18 -8 37q-13 -3 -29 -3q-22 0 -37.5 16.5t-15.5 38.5q0 23 16.5 39.5t39.5 16.5q39 0 63 -34t24 -75q0 -58 -38 -106.5t-94 -65.5zM227 -173v17q78 58 78 119q0 16 -7 37q-15 -3 -29 -3q-22 0 -38 16.5t-16 38.5q0 23 16.5 39.5t39.5 16.5
q39 0 63 -34t24 -75q0 -58 -37.5 -106.5t-93.5 -65.5z" />
    <glyph glyph-name="dagger" unicode="&#x2020;" horiz-adv-x="553" 
d="M291 470q3 -1 8 -1q26 0 73.5 18t73.5 18q28 0 47 -13.5t19 -40.5q0 -24 -18.5 -38.5t-43.5 -15.5q-30 0 -82.5 19.5t-76.5 22.5q0 -71 51 -130q-18 -52 -28.5 -115.5t-13 -107t-5 -121t-4.5 -112.5h-36q0 102 -1.5 158.5t-13.5 143.5t-35 154q46 55 51 121q0 6 -1 9
q-27 -3 -79.5 -22.5t-72.5 -19.5q-27 0 -48 14t-21 40q0 27 19 40.5t47 13.5q26 0 74 -18t74 -18q5 0 7 1q-2 25 -20.5 74.5t-18.5 74.5q0 28 15.5 46t43.5 18q25 0 40 -18t15 -42q0 -28 -18.5 -78t-20.5 -75z" />
    <glyph glyph-name="daggerdbl" unicode="&#x2021;" horiz-adv-x="553" 
d="M291 470q3 -1 8 -1q26 0 73.5 18t73.5 18q28 0 47 -13.5t19 -40.5q0 -24 -18.5 -38.5t-43.5 -15.5q-30 0 -82.5 19.5t-76.5 22.5q0 -27 7.5 -54t23.5 -65.5t20 -51.5q-4 -11 -15 -39.5t-17.5 -46.5t-12.5 -42.5t-6 -43.5q24 4 80.5 23.5t71.5 19.5q27 0 48 -14t21 -40
q0 -27 -19 -40.5t-47 -13.5q-27 0 -76.5 17.5t-78.5 17.5q2 -25 20.5 -74t18.5 -75t-14.5 -45t-40.5 -19q-27 0 -43 17.5t-16 44.5t18.5 77t20.5 74q-28 0 -78 -17.5t-77 -17.5q-28 0 -47 13.5t-19 40.5q0 24 18.5 38.5t43.5 15.5q31 0 83.5 -20t75.5 -23q1 3 1 9
q-2 16 -8.5 39.5t-12.5 40.5t-16.5 46.5t-13.5 36.5q4 12 18.5 48.5t22 62.5t10.5 51q0 6 -1 9q-27 -3 -79.5 -22.5t-72.5 -19.5q-27 0 -48 14t-21 40q0 27 19 40.5t47 13.5q26 0 74 -18t74 -18q5 0 7 1q-2 25 -20.5 74.5t-18.5 74.5q0 28 15.5 46t43.5 18q25 0 40 -18
t15 -42q0 -28 -18.5 -78t-20.5 -75z" />
    <glyph glyph-name="bullet" unicode="&#x2022;" horiz-adv-x="600" 
d="M198 286q0 40 28 68t68 28q41 0 69.5 -28t28.5 -68t-28.5 -68t-69.5 -28q-40 0 -68 28t-28 68z" />
    <glyph glyph-name="ellipsis" unicode="&#x2026;" horiz-adv-x="711" 
d="M119 -13q-23 0 -39.5 16.5t-16.5 39.5t16.5 39.5t39.5 16.5t39 -16.5t16 -39.5t-16 -39.5t-39 -16.5zM356 -13q-23 0 -39.5 16.5t-16.5 39.5t16.5 39.5t39.5 16.5t39 -16.5t16 -39.5t-16 -39.5t-39 -16.5zM593 -13q-23 0 -39.5 16.5t-16.5 39.5t16.5 39.5t39.5 16.5
t39 -16.5t16 -39.5t-16 -39.5t-39 -16.5z" />
    <glyph glyph-name="perthousand" unicode="&#x2030;" horiz-adv-x="835" 
d="M128 327q-40 0 -67 29t-37.5 65.5t-10.5 74.5q0 63 28.5 116t86.5 53q57 0 86 -53.5t29 -115.5t-29 -115.5t-86 -53.5zM128 345q20 0 34 17.5t19 46t7 48.5t2 40t-2 40t-7 48.5t-19 46t-34 17.5t-34 -17.5t-19.5 -46t-7.5 -49t-2 -39.5t2 -39.5t7.5 -49t19.5 -46
t34 -17.5zM473 667l-369 -667h-35l369 667h35zM414 -5q-57 0 -86 53.5t-29 115.5t29 115.5t86 53.5q40 0 67 -29t37.5 -65.5t10.5 -74.5q0 -63 -28.5 -116t-86.5 -53zM414 13q20 0 34 17.5t19 46t7 48.5t2 40t-2 40t-7 48.5t-19 46t-34 17.5t-34 -17.5t-19 -46t-7 -48.5
t-2 -40t2 -40t7 -48.5t19 -46t34 -17.5zM707 -5q-40 0 -67 29t-37.5 65.5t-10.5 74.5q0 62 29 115.5t86 53.5q40 0 67 -29t37.5 -65.5t10.5 -74.5t-10.5 -74.5t-37.5 -65.5t-67 -29zM707 13q20 0 34 17.5t19 46t7 48.5t2 40t-2 40t-7 48.5t-19 46t-34 17.5t-34 -17.5
t-19 -46t-7 -48.5t-2 -40t2 -40t7 -48.5t19 -46t34 -17.5z" />
    <glyph glyph-name="guilsinglleft" unicode="&#x2039;" horiz-adv-x="273" 
d="M128 217l95 -120q11 -15 11 -26v-2q0 -13 -16 -13q-6 0 -12 3t-9.5 5.5t-10 8.5t-8.5 7l-129 120q-11 9 -11 17t11 17l129 120q3 2 9 7t9.5 7.5t9 5.5t10.5 4q18 0 18 -13q0 -11 -11 -28z" />
    <glyph glyph-name="guilsinglright" unicode="&#x203a;" horiz-adv-x="273" 
d="M146 217l-95 120q-11 18 -11 25q0 16 16 16q6 0 12 -3t9.5 -5.5t10 -8.5t8.5 -7l129 -120q11 -11 11 -17q0 -8 -11 -17l-129 -120q-2 -2 -8 -7.5t-9.5 -8.5t-9.5 -5.5t-11 -2.5q-18 0 -18 13q0 14 11 27z" />
    <glyph glyph-name="fraction" unicode="&#x2044;" horiz-adv-x="130" 
d="M271 667l-369 -667h-35l369 667h35z" />
    <glyph glyph-name="trademark" unicode="&#x2122;" horiz-adv-x="978" 
d="M304 267h-193v25q21 1 27 1.5t17.5 4t14.5 13t3 25.5v305h-65q-35 0 -51.5 -19t-28.5 -57h-26l11 102h389l11 -102h-26q-13 38 -29 57t-51 19h-65v-305q0 -16 3 -25.5t14.5 -13t17.5 -4t27 -1.5v-25zM691 267h-25l-123 282q-14 32 -20 48v-220q0 -48 9.5 -65t51.5 -20
v-25h-156v25q39 1 50.5 15.5t11.5 55.5v227v14q0 25 -16 31.5t-46 6.5v25h136l95 -216q7 -15 19 -46t18 -46l1 3l133 305h135v-25q-21 -1 -27 -1.5t-17.5 -4t-14.5 -13t-3 -25.5v-262v-6q0 -19 8 -27q10 -11 43 -11h11v-25h-195v25q12 0 18 1q29 1 37 12.5t8 41.5v197
q0 9 0.5 26.5t0.5 26.5q-1 -3 -3.5 -10t-4.5 -11z" />
    <glyph glyph-name="minus" unicode="&#x2212;" 
d="M20 369h460v-49h-460v49z" />
    <glyph glyph-name="fi" unicode="&#xfb01;" horiz-adv-x="509" 
d="M257 416v-30h-90v-275q0 -48 19 -63.5t68 -17.5v-30h-237v31q38 1 52.5 20.5t14.5 59.5v275h-70v30h70q0 37 1 60.5t5.5 58t15.5 56.5t28 43.5t46 32t68 10.5q35 0 63.5 -18t28.5 -51q0 -16 -11.5 -28.5t-27.5 -12.5q-21 0 -30 12t-8.5 26t-6 26t-23.5 12q-66 0 -66 -105
v-122h90zM429 422v-311q0 -40 14.5 -59.5t52.5 -20.5v-31h-217v31q38 1 52.5 20.5t14.5 59.5v172q0 39 -15 59.5t-52 21.5v30q65 9 150 28zM389 491q-21 0 -37 14.5t-16 35.5t16 35.5t37 14.5t35.5 -15t14.5 -35t-14.5 -35t-35.5 -15z" />
    <glyph glyph-name="fl" unicode="&#xfb02;" horiz-adv-x="509" 
d="M295 669q58 8 134 25v-583q0 -40 14.5 -59.5t52.5 -20.5v-31h-217v31q38 1 52.5 20.5t14.5 59.5v445q0 27 -7 46q-7 -35 -38 -35q-21 0 -30 12t-8.5 26t-6 26t-23.5 12q-66 0 -66 -105v-122h90v-30h-90v-275q0 -48 19 -63.5t68 -17.5v-30h-237v31q38 1 52.5 20.5
t14.5 59.5v275h-70v30h70q0 47 1.5 75t10.5 68t25 62.5t48.5 39t78.5 16.5q23 0 47 -8z" />
  </font>
</defs>
</svg>
