<?xml version="1.0" standalone="no"?>
<!DOCTYPE svg PUBLIC "-//W3C//DTD SVG 1.1//EN" "http://www.w3.org/Graphics/SVG/1.1/DTD/svg11.dtd" >
<svg xmlns="http://www.w3.org/2000/svg" xmlns:xlink="http://www.w3.org/1999/xlink" version="1.1">
<metadata>
Created by FontForge 20170731 at Fri Sep  8 20:18:13 2006
 By Aleksey,,,
(c) 2006 Microsoft Corporation. All Rights Reserved.
</metadata>
<defs>
<font id="Calibri" horiz-adv-x="1076" >
  <font-face 
    font-family="Calibri"
    font-weight="400"
    font-stretch="normal"
    units-per-em="2048"
    panose-1="2 15 5 2 2 2 4 3 2 4"
    ascent="1638"
    descent="-410"
    x-height="951"
    cap-height="1294"
    bbox="-842.545 -391 2486 1950"
    underline-thickness="134"
    underline-position="-433"
    unicode-range="U+0020-FB04"
  />
<missing-glyph horiz-adv-x="1038" 
d="M978 1294v-1294h-934v1294h934zM891 81v1132h-762v-1132h762zM767 855q0 -59 -17.5 -105t-49 -77.5t-74.5 -49.5t-94 -21l-5 -152q0 -10 -15 -14t-41 -4q-15 0 -25 1t-16.5 3t-9.5 5t-3 9l-5 184q-2 30 12 42t38 12h18q45 0 75 12.5t48.5 33.5t26.5 50.5t8 62.5
q0 73 -41.5 116t-132.5 43q-37 0 -67 -7.5t-53 -17t-37.5 -17.5t-21.5 -8q-3 0 -6.5 2t-6.5 7.5t-4.5 15t-1.5 25.5q0 17 2.5 28t10.5 19q7 7 27 16t47.5 17.5t60.5 14.5t67 6q75 0 129 -20t88.5 -54t51.5 -80t17 -98zM549 273q0 -21 -3.5 -35t-12 -23t-23 -13t-35.5 -4
q-22 0 -36.5 4t-23.5 13t-13 23t-4 35t4 35.5t13 23.5t23.5 13t36.5 4q21 0 35.5 -4t23 -13t12 -23.5t3.5 -35.5zM0 -397z" />
    <glyph glyph-name="uniFB00" unicode="ff" horiz-adv-x="1195" 
d="M1216 1296q0 -32 -5 -46t-18 -14q-8 0 -18.5 4t-26 9.5t-35.5 10t-46 4.5q-74 0 -104.5 -51t-30.5 -163v-99h201q8 0 14 -3.5t10.5 -12t6.5 -21.5t2 -32q0 -36 -8.5 -52t-24.5 -16h-201v-789q0 -8 -4 -13.5t-13.5 -9.5t-25.5 -6t-40 -2t-40 2t-25.5 6t-13.5 9.5t-4 13.5
v789h-404v-789q0 -8 -4 -13.5t-13.5 -9.5t-25.5 -6t-40 -2t-40 2t-25.5 6t-13.5 9.5t-4 13.5v789h-127q-16 0 -24 16t-8 52q0 19 2 32t6 21.5t10 12t14 3.5h127v85q0 93 18 159.5t54 109.5t89.5 63.5t124.5 20.5q44 0 77 -7.5t54 -16.5q10 -4 16 -10t10 -15.5t5.5 -23
t1.5 -32.5q0 -32 -5 -46.5t-18 -14.5q-8 0 -18.5 4.5t-26.5 10t-36 10t-46 4.5q-74 0 -104 -51t-30 -163v-87h404v97q0 93 18.5 159.5t54.5 109.5t89.5 63.5t124.5 20.5q43 0 76.5 -7.5t54.5 -16.5q9 -4 15.5 -10t10 -15.5t5 -23t1.5 -32.5z" />
    <glyph glyph-name="uniFB01" unicode="fi" horiz-adv-x="1084" 
d="M950 1228q0 -28 -4.5 -47t-15.5 -30.5t-30.5 -16.5t-49.5 -5q-29 0 -48.5 5t-31 16.5t-16.5 30.5t-5 47t5 46.5t16.5 31t31 17t48.5 4.5q30 0 49.5 -4.5t30.5 -17t15.5 -31t4.5 -46.5zM932 25q0 -8 -4 -13.5t-13.5 -9.5t-25.5 -6t-40 -2t-40 2t-25.5 6t-13.5 9.5t-4 13.5
v789h-404v-789q0 -8 -4 -13.5t-13.5 -9.5t-25.5 -6t-40 -2t-40 2t-25.5 6t-13.5 9.5t-4 13.5v789h-127q-16 0 -24 16t-8 52q0 19 2 32t6 21.5t10 12t14 3.5h127v97q0 93 18 159.5t53.5 109.5t88 63.5t120.5 20.5q22 0 44 -2t40 -6t31.5 -8.5t18.5 -9.5t8 -10.5t5 -13.5
t3 -20t1 -29q0 -32 -5 -46t-17 -14q-8 0 -16.5 3.5t-21.5 7.5t-31.5 7.5t-46.5 3.5q-69 0 -98 -51t-29 -163v-99h519q26 0 38.5 -13.5t12.5 -37.5v-875z" />
    <glyph glyph-name="uniFB02" unicode="fl" horiz-adv-x="1084" 
d="M932 25q0 -8 -4 -13.5t-13.5 -9.5t-25.5 -6t-40 -2t-40 2t-25.5 6t-13.5 9.5t-4 13.5v1221q-2 -3 -6 -4.5t-11 -1.5q-11 0 -35 5.5t-50.5 9.5t-50.5 6t-46 2q-62 0 -102 -12.5t-63 -38.5t-31.5 -67t-8.5 -96v-98h185q8 0 14 -3.5t10.5 -12t6.5 -21.5t2 -32
q0 -36 -8.5 -52t-24.5 -16h-185v-789q0 -8 -4 -13.5t-13.5 -9.5t-25.5 -6t-40 -2t-40 2t-25.5 6t-13.5 9.5t-4 13.5v789h-127q-16 0 -24 16t-8 52q0 19 2 32t6 21.5t10 12t14 3.5h127v96q0 93 21 160t64.5 109.5t110.5 63t160 20.5q26 0 54 -2t54.5 -5.5t46 -7t31 -7
t18.5 -8.5t10 -13q1 10 4.5 16t12 11t24.5 7t42 2q24 0 40 -2t25.5 -6t13.5 -10t4 -14v-1336z" />
    <glyph glyph-name="uniFB03" unicode="ffi" horiz-adv-x="1654" 
d="M1521 1228q0 -28 -4.5 -47t-16 -30.5t-31 -16.5t-49.5 -5q-29 0 -48.5 5t-31 16.5t-16.5 30.5t-5 47t5 46.5t16.5 31t31 17t48.5 4.5q30 0 49.5 -4.5t31 -17t16 -31t4.5 -46.5zM1503 25q0 -8 -4 -13.5t-13.5 -9.5t-25.5 -6t-41 -2q-23 0 -39.5 2t-26 6t-13 9.5t-3.5 13.5
v789h-405v-789q0 -8 -4 -13.5t-13.5 -9.5t-25.5 -6t-40 -2t-40 2t-25.5 6t-13.5 9.5t-4 13.5v789h-404v-789q0 -8 -4 -13.5t-13.5 -9.5t-25.5 -6t-40 -2t-40 2t-25.5 6t-13.5 9.5t-4 13.5v789h-127q-16 0 -24 16t-8 52q0 19 2 32t6 21.5t10 12t14 3.5h127v85q0 93 18 159.5
t54 109.5t89.5 63.5t124.5 20.5q44 0 77 -7.5t48.5 -14t21.5 -12.5t10 -15.5t5.5 -23t1.5 -32.5q0 -32 -5 -46.5t-18 -14.5q-8 0 -18.5 4.5t-26.5 10t-36.5 10t-45.5 4.5q-74 0 -104 -51t-30 -163v-87h404v97q0 93 18.5 159.5t53.5 109.5t87.5 63.5t120.5 20.5q22 0 44.5 -2
t40 -6t31 -8.5t18.5 -9.5t8 -10.5t5.5 -13.5t3.5 -20t1 -29q0 -32 -5 -46t-18 -14q-7 0 -16 3.5t-21.5 7.5t-31.5 7.5t-46 3.5q-69 0 -98.5 -51t-29.5 -163v-99h519q26 0 39 -13.5t13 -37.5v-875z" />
    <glyph glyph-name="uniFB04" unicode="ffl" horiz-adv-x="1654" 
d="M1503 25q0 -8 -4 -13.5t-13.5 -9.5t-25.5 -6t-41 -2q-23 0 -39.5 2t-26 6t-13 9.5t-3.5 13.5v1222q-3 -3 -7 -4.5t-11 -1.5q-12 0 -35.5 5.5t-50 9.5t-50.5 6t-45 2q-62 0 -102 -12.5t-63 -39t-32 -67t-9 -95.5v-99h186q8 0 13.5 -3.5t10 -12t6.5 -21.5t2 -32
q0 -36 -8.5 -52t-23.5 -16h-186v-789q0 -8 -4 -13.5t-13.5 -9.5t-25.5 -6t-40 -2t-40 2t-25.5 6t-13.5 9.5t-4 13.5v789h-404v-789q0 -8 -4 -13.5t-13.5 -9.5t-25.5 -6t-40 -2t-40 2t-25.5 6t-13.5 9.5t-4 13.5v789h-127q-16 0 -24 16t-8 52q0 19 2 32t6 21.5t10 12t14 3.5
h127v85q0 93 18 159.5t54 109.5t89.5 63.5t124.5 20.5q44 0 77 -7.5t48.5 -14t21.5 -12.5t10 -15.5t5.5 -23t1.5 -32.5q0 -32 -5 -46.5t-18 -14.5q-8 0 -18.5 4.5t-26.5 10t-36 10t-46 4.5q-74 0 -104 -51t-30 -163v-87h404v97q0 93 21 159.5t64.5 109.5t110.5 63.5
t160 20.5q26 0 54 -2t54.5 -5.5t46.5 -7t31 -7t18 -8.5t11 -14q0 10 3.5 16t12.5 11t25 7t41 2t41 -2t25.5 -6t13.5 -10t4 -14v-1336z" />
    <glyph glyph-name="f_b.liga" unicode="fb" horiz-adv-x="1690" 
d="M1594 487q0 -117 -25 -210.5t-74 -159.5t-121.5 -101t-165.5 -35q-43 0 -79.5 8.5t-71.5 27.5t-69.5 48t-74.5 70v-110q0 -8 -4 -14t-13 -9.5t-23 -5.5t-34 -2q-21 0 -35 2t-22.5 5.5t-12 9.5t-3.5 14v1221q-4 -3 -8.5 -4.5t-10.5 -1.5q-9 0 -34.5 5.5t-49.5 9.5t-48.5 6
t-47.5 2q-62 0 -102 -12.5t-63 -38.5t-31.5 -67t-8.5 -96v-98h185q8 0 14 -3.5t10.5 -12t6.5 -21.5t2 -32q0 -36 -8.5 -52t-24.5 -16h-185v-789q0 -8 -4 -13.5t-13.5 -9.5t-25.5 -6t-40 -2t-40 2t-25.5 6t-13.5 9.5t-4 13.5v789h-127q-16 0 -24 16t-8 52q0 19 2 32t6 21.5
t10 12t14 3.5h127v96q0 93 21 160t64.5 109.5t110.5 63t160 20.5q26 0 54 -2t53.5 -5.5t46 -7t32 -7t18.5 -8.5t10 -13q1 10 4.5 16t12 11t24.5 7t42 2q24 0 40 -2t25.5 -6t13.5 -10t4 -14v-539q41 41 78 69t73 45.5t72.5 25.5t75.5 8q98 0 167 -39t112.5 -104.5
t63.5 -153.5t20 -186zM1422 468q0 69 -11 134t-37 115t-69 80.5t-107 30.5q-32 0 -62.5 -9t-63 -30t-67 -54t-73.5 -83v-359q67 -83 129 -126.5t130 -43.5q62 0 106 30t72 79.5t40.5 111t12.5 124.5z" />
    <glyph glyph-name="f_f_b.liga" unicode="ffb" horiz-adv-x="2261" 
d="M1992 468q0 69 -11 134t-37 115t-69 80.5t-107 30.5q-32 0 -62.5 -9t-63 -30t-67 -54t-72.5 -83v-359q67 -83 129 -126.5t129 -43.5q62 0 106 30t71.5 79.5t40.5 111t13 124.5zM766 951v97q0 93 21 159.5t64.5 109.5t110.5 63.5t160 20.5q27 0 55 -2t53.5 -5.5t46 -7
t31.5 -7t18 -8.5t11 -14q0 10 3.5 16t12.5 11t25 7t41 2t41 -2t25.5 -6t13.5 -10t4 -14v-539q40 41 77 69t73 45.5t72.5 25.5t75.5 8q98 0 167.5 -39t113 -104.5t63.5 -153.5t20 -186q0 -117 -25.5 -210.5t-74.5 -159.5t-121.5 -101t-165.5 -35q-43 0 -79.5 8.5t-71 27.5
t-70 48t-74.5 70v-110q0 -9 -3.5 -14.5t-13 -9t-23 -5.5t-34.5 -2q-20 0 -34 2t-22.5 5.5t-12 9t-3.5 14.5v1222q-4 -3 -8.5 -4.5t-10.5 -1.5q-10 0 -35.5 5.5t-49.5 9.5t-48.5 6t-46.5 2q-62 0 -102 -12.5t-63 -39t-32 -67t-9 -95.5v-99h186q8 0 13.5 -3.5t10 -12
t6.5 -21.5t2 -32q0 -36 -8.5 -52t-23.5 -16h-186v-789q0 -8 -4 -13.5t-13.5 -9.5t-25.5 -6t-40 -2t-40 2t-25.5 6t-13.5 9.5t-4 13.5v789h-404v-789q0 -8 -4 -13.5t-13.5 -9.5t-25.5 -6t-40 -2t-40 2t-25.5 6t-13.5 9.5t-4 13.5v789h-127q-16 0 -24 16t-8 52q0 19 2 32
t6 21.5t10 12t14 3.5h127v85q0 93 18 159.5t54 109.5t89.5 63.5t124.5 20.5q44 0 77 -7.5t54 -16.5q10 -4 16 -10t10 -15.5t5.5 -23t1.5 -32.5q0 -32 -5 -46.5t-18 -14.5q-8 0 -18.5 4.5t-26.5 10t-36 10t-46 4.5q-74 0 -104 -51t-30 -163v-87h404z" />
    <glyph glyph-name="f_h.liga" unicode="fh" horiz-adv-x="1691" 
d="M1542 25q0 -8 -4 -13.5t-13.5 -9.5t-25.5 -6t-40 -2t-40 2t-26 6t-13.5 9.5t-3.5 13.5v527q0 77 -11 124t-35 81t-59.5 52t-84.5 18q-62 0 -123.5 -44t-130.5 -129v-629q0 -8 -4 -13.5t-13.5 -9.5t-25.5 -6t-40 -2t-40 2t-25.5 6t-13.5 9.5t-4 13.5v1221q-4 -3 -8.5 -4.5
t-10.5 -1.5q-9 0 -34.5 5.5t-49.5 9.5t-48.5 6t-47.5 2q-62 0 -102 -12.5t-63 -38.5t-31.5 -67t-8.5 -96v-98h185q8 0 14 -3.5t10.5 -12t6.5 -21.5t2 -32q0 -36 -8.5 -52t-24.5 -16h-185v-789q0 -8 -4 -13.5t-13.5 -9.5t-25.5 -6t-40 -2t-40 2t-25.5 6t-13.5 9.5t-4 13.5
v789h-127q-16 0 -24 16t-8 52q0 19 2 32t6 21.5t10 12t14 3.5h127v96q0 93 21 160t64.5 109.5t110.5 63t160 20.5q26 0 54 -2t53.5 -5.5t46 -7t32 -7t18.5 -8.5t10 -13q1 10 4.5 16t12 11t24.5 7t42 2q24 0 40 -2t25.5 -6t13.5 -10t4 -14v-539q71 75 142.5 111.5t146.5 36.5
q89 0 150.5 -30.5t99.5 -81.5t54.5 -119.5t16.5 -165.5v-548z" />
    <glyph glyph-name="f_f_h.liga" unicode="ffh" horiz-adv-x="2261" 
d="M766 1048q0 93 21 159.5t64.5 109.5t110.5 63.5t160 20.5q27 0 55 -2t53.5 -5.5t46 -7t31.5 -7t18 -8.5t11 -14q0 10 3.5 16t12.5 11t25 7t41 2t41 -2t25.5 -6t13.5 -10t4 -14v-539q71 75 142.5 111.5t145.5 36.5q89 0 151 -30.5t99.5 -81.5t54 -119.5t16.5 -165.5v-548
q0 -8 -4 -13.5t-13 -9.5t-25 -6t-40 -2q-25 0 -41 2t-25 6t-13 9.5t-4 13.5v527q0 77 -12 124t-35 81t-59.5 52t-84.5 18q-62 0 -123.5 -44t-129.5 -129v-629q0 -8 -4 -13.5t-13.5 -9.5t-25.5 -6t-41 -2q-23 0 -39.5 2t-26 6t-13 9.5t-3.5 13.5v1222q-4 -3 -8.5 -4.5
t-10.5 -1.5q-9 0 -31.5 5t-50 9.5t-52 6.5t-46.5 2q-62 0 -102 -12.5t-63 -39t-32 -67t-9 -95.5v-99h186q8 0 13.5 -3.5t10 -12t6.5 -21.5t2 -32q0 -36 -8.5 -52t-23.5 -16h-186v-789q0 -8 -4 -13.5t-13.5 -9.5t-25.5 -6t-40 -2t-40 2t-25.5 6t-13.5 9.5t-4 13.5v789h-404
v-789q0 -8 -4 -13.5t-13.5 -9.5t-25.5 -6t-40 -2t-40 2t-25.5 6t-13.5 9.5t-4 13.5v789h-127q-16 0 -24 16t-8 52q0 19 2 32t6 21.5t10 12t14 3.5h127v85q0 93 18 159.5t54 109.5t89.5 63.5t124.5 20.5q44 0 77 -7.5t54 -16.5q10 -4 16 -10t10 -15.5t5.5 -23t1.5 -32.5
q0 -32 -5 -46.5t-18 -14.5q-8 0 -18.5 4.5t-26.5 10t-36 10t-46 4.5q-74 0 -104 -51t-30 -163v-87h404v97z" />
    <glyph glyph-name="f_igrave.liga" unicode="f&#xec;" horiz-adv-x="1084" 
d="M932 25q0 -8 -4 -13.5t-13.5 -9.5t-25.5 -6t-40 -2t-40 2t-25.5 6t-13.5 9.5t-4 13.5v789h-404v-789q0 -8 -4 -13.5t-13.5 -9.5t-25.5 -6t-40 -2t-40 2t-25.5 6t-13.5 9.5t-4 13.5v789h-127q-16 0 -24 16t-8 52q0 19 2 32t6 21.5t10 12t14 3.5h127v112q0 87 18 150.5
t52.5 104.5t85 61.5t115.5 20.5q29 0 55.5 -4t44 -10t24 -12.5t10 -16.5t5 -23.5t1.5 -31.5q0 -32 -5 -46t-18 -14q-7 0 -16 3t-21.5 7t-29 7.5t-38.5 3.5q-62 0 -89.5 -48.5t-27.5 -149.5v-114h519q26 0 38.5 -13.5t12.5 -37.5v-875zM925 1132q4 -10 4 -18.5t-6 -13.5
t-19.5 -7.5t-35.5 -2.5q-20 0 -32.5 1t-20.5 4.5t-13.5 9.5t-10.5 16l-130 233q-6 10 -5 18.5t10 14.5t27 9.5t46 3.5q24 0 39.5 -1.5t25 -5.5t14.5 -11.5t10 -17.5z" />
    <glyph glyph-name="f_iacute.liga" unicode="f&#xed;" horiz-adv-x="1084" 
d="M932 25q0 -8 -4 -13.5t-13.5 -9.5t-25.5 -6t-40 -2t-40 2t-25.5 6t-13.5 9.5t-4 13.5v789h-404v-789q0 -8 -4 -13.5t-13.5 -9.5t-25.5 -6t-40 -2t-40 2t-25.5 6t-13.5 9.5t-4 13.5v789h-127q-16 0 -24 16t-8 52q0 19 2 32t6 21.5t10 12t14 3.5h127v96q0 93 18 159.5
t54 109.5t89.5 63.5t124.5 20.5q39 0 72 -6.5t50 -14t23 -13.5t9.5 -15.5t5.5 -23t2 -32.5q0 -32 -5 -46t-18 -14q-7 0 -18 4t-26.5 9.5t-35.5 10t-45 4.5q-74 0 -104 -51t-30 -163v-98h519q26 0 38.5 -13.5t12.5 -37.5v-875zM925 1364q6 11 14 18t19.5 11t28.5 6t41 2
q28 0 45.5 -3.5t24.5 -10t6 -15t-9 -17.5l-181 -233q-8 -10 -14.5 -16t-15 -9.5t-22 -5t-33.5 -1.5q-22 0 -35 3t-18.5 8t-4 13t8.5 19zM639 950z" />
    <glyph glyph-name="f_icircumflex.liga" unicode="f&#xee;" horiz-adv-x="1084" 
d="M932 25q0 -8 -4 -13.5t-13.5 -9.5t-25.5 -6t-40 -2t-40 2t-25.5 6t-13.5 9.5t-4 13.5v789h-404v-789q0 -8 -4 -13.5t-13.5 -9.5t-25.5 -6t-40 -2t-40 2t-25.5 6t-13.5 9.5t-4 13.5v789h-127q-16 0 -24 16t-8 52q0 19 2 32t6 21.5t10 12t14 3.5h127v112q0 87 18 150.5
t52.5 104.5t85 61.5t115.5 20.5q29 0 56.5 -4t43.5 -10t22.5 -12.5t10 -15.5t5 -22.5t1.5 -32.5q0 -31 -5 -45t-18 -14q-7 0 -16 3t-20.5 7t-29 7.5t-39.5 3.5q-61 0 -88.5 -48.5t-27.5 -149.5v-116h519q26 0 38.5 -13.5t12.5 -37.5v-875zM743 1118q-5 -9 -11 -14.5t-14 -9
t-21 -4.5t-32 -1q-24 0 -37.5 3t-17.5 10t0 18.5t15 27.5l153 226q6 8 12 12.5t16 7.5t25.5 4t37.5 1q21 0 35 -1t24 -4.5t16.5 -8.5t11.5 -11l156 -229q10 -16 13.5 -26.5t-1.5 -17t-19 -9.5t-39 -3q-20 0 -33 1t-21 4.5t-13 9t-11 14.5l-122 181z" />
    <glyph glyph-name="f_itilde.liga" unicode="f&#x129;" horiz-adv-x="1103" 
d="M951 25q0 -8 -4 -13.5t-13.5 -9.5t-25.5 -6t-40 -2t-40 2t-26 6t-13.5 9.5t-3.5 13.5v789h-423v-789q0 -8 -4 -13.5t-13.5 -9.5t-25.5 -6t-40 -2t-40 2t-25.5 6t-13.5 9.5t-4 13.5v789h-127q-16 0 -24 16t-8 52q0 19 2 32t6 21.5t10 12t14 3.5h127v117q0 86 18 148.5
t52 103t84 60.5t114 20q15 0 29.5 -1t28 -3t25 -5t20 -6.5t13.5 -8.5t8 -13t4.5 -21t1.5 -32q0 -32 -5 -47.5t-17 -15.5q-7 0 -14.5 2t-18.5 5t-26 5.5t-37 2.5q-61 0 -87.5 -48t-26.5 -149v-114h538q26 0 38.5 -13.5t12.5 -37.5v-875zM1154 1292q0 -53 -12 -93.5t-34.5 -68
t-53.5 -42t-69 -14.5q-48 0 -82 20.5t-60 45.5t-47.5 45.5t-44.5 20.5q-30 0 -43.5 -29.5t-13.5 -75.5q0 -15 -11.5 -21t-45.5 -6q-27 0 -41 8t-14 34q0 100 45 159t125 59q32 0 57.5 -9.5t46.5 -24.5t38.5 -32t33 -32t29.5 -24.5t29 -9.5q27 0 42 26t15 79q0 15 12.5 21
t40.5 6q32 0 45 -8t13 -34z" />
    <glyph glyph-name="f_idieresis.liga" unicode="f&#xef;" horiz-adv-x="1103" 
d="M951 25q0 -8 -4 -13.5t-13.5 -9.5t-25.5 -6t-40 -2t-40 2t-26 6t-13.5 9.5t-3.5 13.5v789h-423v-789q0 -8 -4 -13.5t-13.5 -9.5t-25.5 -6t-40 -2t-40 2t-25.5 6t-13.5 9.5t-4 13.5v789h-127q-16 0 -24 16t-8 52q0 19 2 32t6 21.5t10 12t14 3.5h127v117q0 86 18 148.5
t52 103t84 60.5t114 20q15 0 29.5 -1t28 -3t25 -5t20 -6.5t13.5 -8.5t8 -13t4.5 -21t1.5 -32q0 -32 -5 -47.5t-17 -15.5q-7 0 -14.5 2t-18.5 5t-26 5.5t-37 2.5q-61 0 -87.5 -48t-26.5 -149v-114h538q26 0 38.5 -13.5t12.5 -37.5v-875zM646 1228q0 27 4.5 45t15 29t28 15.5
t42.5 4.5t42 -4.5t27.5 -15.5t15 -29t4.5 -45t-4.5 -45t-15 -29t-27.5 -16t-42 -5t-42.5 5t-28 16t-15 29t-4.5 45zM935 1228q0 27 4.5 45t15 29t28 15.5t41.5 4.5q26 0 43 -4.5t27 -15.5t14.5 -29t4.5 -45t-4.5 -45t-14.5 -29t-27 -16t-43 -5q-24 0 -41.5 5t-28 16t-15 29
t-4.5 45z" />
    <glyph glyph-name="f_imacron.liga" unicode="f&#x12b;" horiz-adv-x="1103" 
d="M951 25q0 -8 -4 -13.5t-13.5 -9.5t-25.5 -6t-40 -2t-40 2t-26 6t-13.5 9.5t-3.5 13.5v789h-423v-789q0 -8 -4 -13.5t-13.5 -9.5t-25.5 -6t-40 -2t-40 2t-25.5 6t-13.5 9.5t-4 13.5v789h-127q-16 0 -24 16t-8 52q0 19 2 32t6 21.5t10 12t14 3.5h127v117q0 86 18 148.5
t52 103t84 60.5t114 20q15 0 29.5 -1t28 -3t25 -5t20 -6.5t13.5 -8.5t8 -13t4.5 -21t1.5 -32q0 -32 -5 -47.5t-17 -15.5q-7 0 -14.5 2t-18.5 5t-26 5.5t-37 2.5q-61 0 -88 -48t-26 -149v-114h538q26 0 38.5 -13.5t12.5 -37.5v-875zM1087 1293q7 0 13.5 -3.5t10.5 -11
t5.5 -20t1.5 -30.5q0 -17 -1.5 -28.5t-5.5 -19.5t-10.5 -12t-13.5 -4h-428q-8 0 -15 4t-11 12t-5.5 19.5t-1.5 28.5q0 18 1.5 30.5t5.5 20t11 11t15 3.5h428z" />
    <glyph glyph-name="f_ibreve.liga" unicode="f&#x12d;" horiz-adv-x="1103" 
d="M951 25q0 -8 -4 -13.5t-13.5 -9.5t-25.5 -6t-40 -2t-40 2t-26 6t-13.5 9.5t-3.5 13.5v789h-423v-789q0 -8 -4 -13.5t-13.5 -9.5t-25.5 -6t-40 -2t-40 2t-25.5 6t-13.5 9.5t-4 13.5v789h-127q-16 0 -24 16t-8 52q0 19 2 32t6 21.5t10 12t14 3.5h127v117q0 86 18 148.5
t52 103t84 60.5t114 20q15 0 29.5 -1t28 -3t25 -5t20 -6.5t13.5 -8.5t8 -13t4.5 -21t1.5 -32q0 -32 -5 -47.5t-17 -15.5q-7 0 -14.5 2t-18.5 5t-26 5.5t-37 2.5q-61 0 -87.5 -48t-26.5 -149v-114h538q26 0 38.5 -13.5t12.5 -37.5v-875zM999 1356q0 14 12.5 21.5t45.5 7.5
q36 0 47 -6t11 -22q0 -68 -15 -118.5t-45 -84t-75.5 -51t-107.5 -17.5q-66 0 -112.5 18t-75.5 52.5t-42 84t-13 113.5q0 16 11.5 23.5t44.5 7.5q17 0 29 -1.5t18.5 -5t9.5 -9.5t3 -13q2 -36 9.5 -64t22 -48t38 -31t57.5 -11q28 0 51 9t39 27.5t25.5 47.5t11.5 70z" />
    <glyph glyph-name="f_iogonek.liga" unicode="f&#x12f;" horiz-adv-x="1084" 
d="M950 1228q0 -28 -4.5 -47t-15.5 -30.5t-30.5 -16.5t-49.5 -5q-29 0 -48.5 5t-31 16.5t-16.5 30.5t-5 47t5 46.5t16.5 31t31 17t48.5 4.5q30 0 49.5 -4.5t30.5 -17t15.5 -31t4.5 -46.5zM932 25q0 -20 -5.5 -33.5t-14.5 -23.5l-73 -73q-16 -16 -25.5 -28t-14 -22
t-6.5 -18.5t-2 -17.5q0 -26 18 -39t55 -13h108q7 0 12.5 -2t9 -7t5 -14.5t1.5 -24.5t-2 -24.5t-5 -16t-10 -9.5t-16 -6q-33 -9 -67 -13.5t-76 -4.5q-45 0 -80.5 10t-61 28.5t-38.5 46.5t-13 65q0 16 2.5 33.5t11 36.5t23.5 40.5t41 47.5l57 57v814h-404v-789q0 -8 -4 -13.5
t-13.5 -9.5t-25.5 -6t-40 -2t-40 2t-25.5 6t-13.5 9.5t-4 13.5v789h-127q-16 0 -24 16t-8 52q0 19 2 32t6 21.5t10 12t14 3.5h127v97q0 93 18 159.5t53.5 109.5t88 63.5t120.5 20.5q22 0 44 -2t40 -6t31.5 -8.5t18.5 -9.5t8 -10.5t5 -13.5t3 -20t1 -29q0 -32 -5 -46t-17 -14
q-8 0 -16.5 3.5t-21.5 7.5t-31.5 7.5t-46.5 3.5q-69 0 -98.5 -51t-28.5 -163v-99h519q26 0 38.5 -13.5t12.5 -37.5v-875z" />
    <glyph glyph-name="f_dotlessi.liga" unicode="f&#x131;" horiz-adv-x="1084" 
d="M932 25q0 -8 -4 -13.5t-13.5 -9.5t-25.5 -6t-40 -2t-40 2t-25.5 6t-13.5 9.5t-4 13.5v789h-404v-789q0 -8 -4 -13.5t-13.5 -9.5t-25.5 -6t-40 -2t-40 2t-25.5 6t-13.5 9.5t-4 13.5v789h-127q-16 0 -24 16t-8 52q0 19 2 32t6 21.5t10 12t14 3.5h127v96q0 93 18 159.5
t54 109.5t89.5 63.5t124.5 20.5q39 0 72 -6.5t50 -14t23 -13.5t9.5 -15.5t5.5 -23t2 -32.5q0 -32 -5 -46t-18 -14q-7 0 -18 4t-26.5 9.5t-35.5 10t-45 4.5q-74 0 -104 -51t-30 -163v-98h519q26 0 38.5 -13.5t12.5 -37.5v-875z" />
    <glyph glyph-name="f_f_igrave.liga" unicode="ff&#xec;" horiz-adv-x="1654" 
d="M1503 25q0 -8 -4 -13.5t-13.5 -9.5t-25.5 -6t-41 -2q-23 0 -39.5 2t-26 6t-13 9.5t-3.5 13.5v789h-405v-789q0 -8 -4 -13.5t-13.5 -9.5t-25.5 -6t-40 -2t-40 2t-25.5 6t-13.5 9.5t-4 13.5v789h-404v-789q0 -8 -4 -13.5t-13.5 -9.5t-25.5 -6t-40 -2t-40 2t-25.5 6
t-13.5 9.5t-4 13.5v789h-127q-16 0 -24 16t-8 52q0 19 2 32t6 21.5t10 12t14 3.5h127v85q0 93 18 159.5t54 109.5t89.5 63.5t124.5 20.5q44 0 77 -7.5t48.5 -14t21.5 -12.5t10 -15.5t5.5 -23t1.5 -32.5q0 -32 -5 -46.5t-18 -14.5q-8 0 -18.5 4.5t-26.5 10t-36 10t-46 4.5
q-74 0 -104 -51t-30 -163v-87h404v113q0 87 18 150.5t52.5 104.5t85 61.5t115.5 20.5q29 0 59.5 -4.5t44 -10t20 -12t10 -16.5t5 -23.5t1.5 -32.5q0 -31 -5 -45t-17 -14q-8 0 -16.5 3t-21 7t-29.5 7.5t-39 3.5q-61 0 -89 -48.5t-28 -149.5v-115h519q26 0 39 -13.5t13 -37.5
v-875zM1495 1132q3 -10 3.5 -18.5t-5.5 -13.5t-19 -7.5t-35 -2.5q-20 0 -33 1t-21 4.5t-13 9.5t-10 16l-131 233q-5 10 -4.5 18.5t9.5 14.5t27 9.5t46 3.5q24 0 39.5 -1.5t25 -5.5t15 -11.5t9.5 -17.5z" />
    <glyph glyph-name="f_f_iacute.liga" unicode="ff&#xed;" horiz-adv-x="1654" 
d="M1503 25q0 -8 -4 -13.5t-13.5 -9.5t-25.5 -6t-41 -2q-23 0 -39.5 2t-26 6t-13 9.5t-3.5 13.5v789h-405v-789q0 -8 -4 -13.5t-13.5 -9.5t-25.5 -6t-40 -2t-40 2t-25.5 6t-13.5 9.5t-4 13.5v789h-404v-789q0 -8 -4 -13.5t-13.5 -9.5t-25.5 -6t-40 -2t-40 2t-25.5 6
t-13.5 9.5t-4 13.5v789h-127q-16 0 -24 16t-8 52q0 19 2 32t6 21.5t10 12t14 3.5h127v85q0 93 18 159.5t54 109.5t89.5 63.5t124.5 20.5q42 0 76 -7t49.5 -14t21.5 -13t10 -15.5t5.5 -23t1.5 -32.5q0 -32 -5 -46.5t-18 -14.5q-8 0 -18.5 4.5t-26.5 10t-36 10t-46 4.5
q-74 0 -104 -51t-30 -163v-87h404v97q0 93 18.5 159.5t54.5 109.5t89.5 63.5t122.5 20.5q42 0 76.5 -7.5t49 -14t21 -12.5t10 -15.5t5 -23t1.5 -32.5q0 -32 -5 -46t-18 -14q-7 0 -17.5 4t-26 9.5t-36 10t-45.5 4.5q-73 0 -103.5 -51t-30.5 -163v-99h519q26 0 39 -13.5
t13 -37.5v-875zM1495 1364q6 11 14 18t19.5 11t28.5 6t41 2q28 0 45.5 -3.5t24.5 -10t6 -15t-9 -17.5l-181 -233q-8 -10 -14.5 -16t-15 -9.5t-22 -5t-33.5 -1.5q-22 0 -35 3t-18.5 8t-4 13t8.5 19zM1209 950z" />
    <glyph glyph-name="f_f_icircumflex.liga" unicode="ff&#xee;" horiz-adv-x="1654" 
d="M1503 25q0 -8 -4 -13.5t-13.5 -9.5t-25.5 -6t-41 -2q-23 0 -39.5 2t-26 6t-13 9.5t-3.5 13.5v789h-405v-789q0 -8 -4 -13.5t-13.5 -9.5t-25.5 -6t-40 -2t-40 2t-25.5 6t-13.5 9.5t-4 13.5v789h-404v-789q0 -8 -4 -13.5t-13.5 -9.5t-25.5 -6t-40 -2t-40 2t-25.5 6
t-13.5 9.5t-4 13.5v789h-127q-16 0 -24 16t-8 52q0 19 2 32t6 21.5t10 12t14 3.5h127v85q0 93 18 159.5t54 109.5t89.5 63.5t124.5 20.5q44 0 77 -7.5t48.5 -14t21.5 -12.5t10 -15.5t5.5 -23t1.5 -32.5q0 -32 -5 -46.5t-18 -14.5q-8 0 -18.5 4.5t-26.5 10t-36 10t-46 4.5
q-74 0 -104 -51t-30 -163v-87h404v113q0 87 18 150.5t52.5 104.5t85 61.5t115.5 20.5q29 0 59.5 -4.5t44 -10t19.5 -12t9.5 -15.5t5 -22.5t1.5 -32.5q0 -31 -4.5 -45t-17.5 -14q-7 0 -16 3t-21.5 7t-29 7t-38.5 3q-61 0 -89 -48t-28 -149v-117h519q26 0 39 -13.5t13 -37.5
v-875zM1314 1118q-6 -9 -11.5 -14.5t-14 -9t-21 -4.5t-31.5 -1q-25 0 -38 3t-17.5 10t-0.5 18.5t15 27.5l153 226q5 8 11.5 12.5t16.5 7.5t25.5 4t38.5 1q20 0 34 -1t24 -4.5t16.5 -8.5t11.5 -11l156 -229q10 -16 14 -26.5t-1 -17t-19 -9.5t-39 -3q-21 0 -33.5 1t-20.5 4.5
t-13 9t-11 14.5l-122 181z" />
    <glyph glyph-name="f_f_itilde.liga" unicode="ff&#x129;" horiz-adv-x="1673" 
d="M1521 25q0 -8 -4 -13.5t-13.5 -9.5t-25.5 -6t-40 -2t-40 2t-25.5 6t-13.5 9.5t-4 13.5v789h-423v-789q0 -8 -4 -13.5t-13.5 -9.5t-25.5 -6t-40 -2t-40 2t-25.5 6t-13.5 9.5t-4 13.5v789h-404v-789q0 -8 -4 -13.5t-13.5 -9.5t-25.5 -6t-40 -2t-40 2t-25.5 6t-13.5 9.5
t-4 13.5v789h-127q-16 0 -24 16t-8 52q0 19 2 32t6 21.5t10 12t14 3.5h127v85q0 93 18 159.5t54 109.5t89.5 63.5t124.5 20.5q44 0 77 -7.5t48.5 -14t21.5 -12.5t10 -15.5t5.5 -23t1.5 -32.5q0 -32 -5 -46.5t-18 -14.5q-8 0 -18.5 4.5t-26.5 10t-36 10t-46 4.5
q-74 0 -104 -51t-30 -163v-87h404v118q0 86 17.5 148t52 103t84 61t114.5 20q29 0 57 -4t41 -9.5t18 -10.5t8 -13t4.5 -21t1.5 -32q0 -32 -5 -47.5t-16 -15.5q-7 0 -15 2t-18.5 5t-25.5 5.5t-37 2.5q-61 0 -88 -48t-27 -149v-115h538q26 0 38.5 -13.5t12.5 -37.5v-875z
M1725 1292q0 -53 -12.5 -93.5t-34.5 -68t-53.5 -42t-68.5 -14.5q-49 0 -82.5 20.5t-60 45.5t-47.5 45.5t-44 20.5q-30 0 -43.5 -29.5t-13.5 -75.5q0 -15 -12 -21t-45 -6q-28 0 -41.5 8t-13.5 34q0 100 45 159t125 59q32 0 57 -9.5t46.5 -24.5t38.5 -32l32 -32t29.5 -24.5
t30.5 -9.5q27 0 41.5 26t14.5 79q0 15 12.5 21t41.5 6q32 0 45 -8t13 -34z" />
    <glyph glyph-name="f_f_idieresis.liga" unicode="ff&#xef;" horiz-adv-x="1673" 
d="M1521 25q0 -8 -4 -13.5t-13.5 -9.5t-25.5 -6t-40 -2t-40 2t-25.5 6t-13.5 9.5t-4 13.5v789h-423v-789q0 -8 -4 -13.5t-13.5 -9.5t-25.5 -6t-40 -2t-40 2t-25.5 6t-13.5 9.5t-4 13.5v789h-404v-789q0 -8 -4 -13.5t-13.5 -9.5t-25.5 -6t-40 -2t-40 2t-25.5 6t-13.5 9.5
t-4 13.5v789h-127q-16 0 -24 16t-8 52q0 19 2 32t6 21.5t10 12t14 3.5h127v85q0 93 18 159.5t54 109.5t89.5 63.5t124.5 20.5q44 0 77 -7.5t48.5 -14t21.5 -12.5t10 -15.5t5.5 -23t1.5 -32.5q0 -32 -5 -46.5t-18 -14.5q-8 0 -18.5 4.5t-26.5 10t-36 10t-46 4.5
q-74 0 -104 -51t-30 -163v-87h404v118q0 86 17.5 148t52 103t84 61t114.5 20q29 0 57.5 -4t41 -9.5t17.5 -10.5t8 -13t4.5 -21t1.5 -32q0 -32 -5 -47.5t-16 -15.5q-7 0 -15 2t-18.5 5t-25.5 5.5t-37 2.5q-61 0 -88 -48t-27 -149v-115h538q26 0 38.5 -13.5t12.5 -37.5v-875z
M1217 1228q0 27 4.5 45t15 29t27.5 15.5t42 4.5t42.5 -4.5t28 -15.5t14.5 -29t4 -45t-4 -45t-14.5 -29t-28 -16t-42.5 -5t-42 5t-27.5 16t-15 29t-4.5 45zM1506 1228q0 27 4.5 45t15 29t27 15.5t42.5 4.5q25 0 42 -4.5t27.5 -15.5t15 -29t4.5 -45t-4.5 -45t-15 -29
t-27.5 -16t-42 -5q-26 0 -42.5 5t-27 16t-15 29t-4.5 45z" />
    <glyph glyph-name="f_f_imacron.liga" unicode="ff&#x12b;" horiz-adv-x="1673" 
d="M1521 25q0 -8 -4 -13.5t-13.5 -9.5t-25.5 -6t-40 -2t-40 2t-25.5 6t-13.5 9.5t-4 13.5v789h-423v-789q0 -8 -4 -13.5t-13.5 -9.5t-25.5 -6t-40 -2t-40 2t-25.5 6t-13.5 9.5t-4 13.5v789h-404v-789q0 -8 -4 -13.5t-13.5 -9.5t-25.5 -6t-40 -2t-40 2t-25.5 6t-13.5 9.5
t-4 13.5v789h-127q-16 0 -24 16t-8 52q0 19 2 32t6 21.5t10 12t14 3.5h127v85q0 93 18 159.5t54 109.5t89.5 63.5t124.5 20.5q44 0 77 -7.5t48.5 -14t21.5 -12.5t10 -15.5t5.5 -23t1.5 -32.5q0 -32 -5 -46.5t-18 -14.5q-8 0 -18.5 4.5t-26.5 10t-36 10t-46 4.5
q-74 0 -104 -51t-30 -163v-87h404v118q0 86 17.5 148t52 103t84 61t114.5 20q29 0 57.5 -4t41 -9.5t17.5 -10.5t8 -13t4.5 -21t1.5 -32q0 -32 -5 -47.5t-16 -15.5q-7 0 -15 2t-18.5 5t-25.5 5.5t-37 2.5q-61 0 -88 -48t-27 -149v-115h538q26 0 38.5 -13.5t12.5 -37.5v-875z
M1658 1293q7 0 13 -3.5t9.5 -11t6 -20t2.5 -30.5q0 -17 -2.5 -28.5t-6 -19.5t-9.5 -12t-13 -4h-428q-9 0 -15.5 4t-10.5 12t-5.5 19.5t-1.5 28.5q0 34 7.5 49.5t25.5 15.5h428z" />
    <glyph glyph-name="f_f_ibreve.liga" unicode="ff&#x12d;" horiz-adv-x="1673" 
d="M1521 25q0 -8 -4 -13.5t-13.5 -9.5t-25.5 -6t-40 -2t-40 2t-25.5 6t-13.5 9.5t-4 13.5v789h-423v-789q0 -8 -4 -13.5t-13.5 -9.5t-25.5 -6t-40 -2t-40 2t-25.5 6t-13.5 9.5t-4 13.5v789h-404v-789q0 -8 -4 -13.5t-13.5 -9.5t-25.5 -6t-40 -2t-40 2t-25.5 6t-13.5 9.5
t-4 13.5v789h-127q-16 0 -24 16t-8 52q0 19 2 32t6 21.5t10 12t14 3.5h127v85q0 93 18 159.5t54 109.5t89.5 63.5t124.5 20.5q44 0 77 -7.5t48.5 -14t21.5 -12.5t10 -15.5t5.5 -23t1.5 -32.5q0 -32 -5 -46.5t-18 -14.5q-8 0 -18.5 4.5t-26.5 10t-36 10t-46 4.5
q-74 0 -104 -51t-30 -163v-87h404v118q0 86 17.5 148t52 103t84 61t114.5 20q29 0 57.5 -4t41 -9.5t17.5 -10.5t8 -13t4.5 -21t1.5 -32q0 -32 -5 -47.5t-16 -15.5q-7 0 -15 2t-18.5 5t-25.5 5.5t-37 2.5q-61 0 -88 -48t-27 -149v-115h538q26 0 38.5 -13.5t12.5 -37.5v-875z
M1569 1356q1 14 13.5 21.5t45.5 7.5q18 0 29 -1.5t17.5 -5t8.5 -8.5t2 -13q0 -68 -15 -118.5t-45 -84t-75.5 -51t-107.5 -17.5q-66 0 -112.5 18t-75.5 52.5t-42 84t-13 113.5q0 8 2.5 14t9.5 10t17.5 5.5t26.5 1.5q36 0 48 -6.5t13 -22.5q2 -36 9.5 -64t22 -48t37.5 -31
t57 -11q57 0 90 36t37 118z" />
    <glyph glyph-name="f_f_dotlessi.liga" unicode="ff&#x131;" horiz-adv-x="1654" 
d="M1503 25q0 -8 -4 -13.5t-13.5 -9.5t-25.5 -6t-41 -2q-23 0 -39.5 2t-26 6t-13 9.5t-3.5 13.5v789h-405v-789q0 -8 -4 -13.5t-13.5 -9.5t-25.5 -6t-40 -2t-40 2t-25.5 6t-13.5 9.5t-4 13.5v789h-404v-789q0 -8 -4 -13.5t-13.5 -9.5t-25.5 -6t-40 -2t-40 2t-25.5 6
t-13.5 9.5t-4 13.5v789h-127q-16 0 -24 16t-8 52q0 19 2 32t6 21.5t10 12t14 3.5h127v85q0 93 18 159.5t54 109.5t89.5 63.5t124.5 20.5q42 0 76 -7t49.5 -14t21.5 -13t10 -15.5t5.5 -23t1.5 -32.5q0 -32 -5 -46.5t-18 -14.5q-8 0 -18.5 4.5t-26.5 10t-36 10t-46 4.5
q-74 0 -104 -51t-30 -163v-87h404v97q0 93 18.5 159.5t54.5 109.5t89.5 63.5t122.5 20.5q42 0 76.5 -7.5t49 -14t21 -12.5t10 -15.5t5 -23t1.5 -32.5q0 -32 -5 -46t-18 -14q-7 0 -17.5 4t-26 9.5t-36 10t-45.5 4.5q-73 0 -103.5 -51t-30.5 -163v-99h519q26 0 39 -13.5
t13 -37.5v-875z" />
    <glyph glyph-name="f_j.liga" unicode="fj" horiz-adv-x="1084" 
d="M950 1228q0 -28 -4.5 -47t-15.5 -30.5t-30.5 -16.5t-49.5 -5q-29 0 -48.5 5t-31 16.5t-16.5 30.5t-5 47t5 46.5t16.5 31t31 17t48.5 4.5q30 0 49.5 -4.5t30.5 -17t15.5 -31t4.5 -46.5zM932 -28q0 -92 -12.5 -150t-43.5 -99.5t-83 -64.5t-131 -23q-20 0 -40.5 2t-38.5 6
t-32 10t-19.5 10.5t-8 10t-4 13.5t-2.5 16t-1 24q0 18 2 31.5t5 21.5t8 11.5t11 3.5q9 0 21.5 -4.5t33 -9.5t51.5 -5q29 0 51.5 9.5t37 32t22 59t7.5 109.5v828h-404v-789q0 -8 -4 -13.5t-13.5 -9.5t-25.5 -6t-40 -2t-40 2t-25.5 6t-13.5 9.5t-4 13.5v789h-127q-16 0 -24 16
t-8 52q0 19 2 32t6 21.5t10 12t14 3.5h127v97q0 93 18 159.5t53.5 109.5t88 63.5t120.5 20.5q22 0 44 -2t40 -6t31.5 -8.5t18.5 -9.5t8 -10.5t5 -13.5t3 -20t1 -29q0 -32 -5 -46t-17 -14q-8 0 -16.5 3.5t-21.5 7.5t-31.5 7.5t-46.5 3.5q-69 0 -98 -51t-29 -163v-99h519
q26 0 38.5 -13.5t12.5 -37.5v-928z" />
    <glyph glyph-name="f_jcircumflex.liga" unicode="f&#x135;" horiz-adv-x="1084" 
d="M932 -48q0 -72 -12.5 -130t-43.5 -99.5t-83 -64.5t-131 -23q-20 0 -40.5 2t-38.5 6t-32 10t-19.5 10.5t-8 10t-4 13.5t-2.5 17t-1 23q0 18 2 31.5t5 21.5t8 11.5t11 3.5q9 0 25.5 -6t35.5 -9.5t45 -3.5q29 0 51.5 9.5t37 32t22 59t7.5 89.5v848h-404v-789q0 -8 -4 -13.5
t-13.5 -9.5t-25.5 -6t-40 -2t-40 2t-25.5 6t-13.5 9.5t-4 13.5v789h-127q-16 0 -24 16t-8 52q0 19 2 32t6 21.5t10 12t14 3.5h127v112q0 87 18 150.5t52.5 104.5t85 61.5t115.5 20.5q29 0 57.5 -4.5t43.5 -10t21.5 -12t10 -15.5t5 -22.5t1.5 -32.5q0 -31 -5 -45t-18 -14
q-7 0 -16 3t-21.5 7t-29 7.5t-38.5 3.5q-61 0 -88.5 -48.5t-27.5 -149.5v-116h519q26 0 38.5 -13.5t12.5 -37.5v-948zM743 1118q-5 -9 -11 -14.5t-14 -9t-21 -4.5t-32 -1q-24 0 -37.5 3t-17.5 10t0 18.5t15 27.5l153 226q6 8 12 12.5t16 7.5t25.5 4t37.5 1q21 0 35 -1
t24 -4.5t16.5 -8.5t11.5 -11l156 -229q10 -16 13.5 -26.5t-1.5 -17t-19 -9.5t-39 -3q-20 0 -33 1t-21 4.5t-13 9t-11 14.5l-122 181z" />
    <glyph glyph-name="f_f_j.liga" unicode="ffj" horiz-adv-x="1654" 
d="M1521 1228q0 -28 -4.5 -47t-16 -30.5t-31 -16.5t-49.5 -5q-29 0 -48.5 5t-31 16.5t-16.5 30.5t-5 47t5 46.5t16.5 31t31 17t48.5 4.5q30 0 49.5 -4.5t31 -17t16 -31t4.5 -46.5zM766 1048q0 93 18.5 159.5t53.5 109.5t87.5 63.5t120.5 20.5q24 0 46 -2t40 -6t30.5 -8.5
t17.5 -9.5t8 -10.5t5 -13.5t3 -20t1 -29q0 -32 -5 -46t-18 -14q-7 0 -15.5 3.5t-21 7.5t-31 7.5t-46.5 3.5q-69 0 -98.5 -51t-29.5 -163v-99h519q26 0 39 -13.5t13 -37.5v-948q0 -72 -12.5 -130t-43.5 -99.5t-83 -64.5t-131 -23q-22 0 -42 2t-38 6t-32 10t-19.5 10.5t-8 10
t-4 13t-2.5 16.5t-1 24q0 18 1.5 31.5t5 21.5t8.5 11.5t11 3.5q9 0 16.5 -3t19 -6.5t28 -6.5t42.5 -3q29 0 51.5 9.5t37.5 32t22.5 59t7.5 89.5v848h-405v-789q0 -8 -4 -13.5t-13.5 -9.5t-25.5 -6t-40 -2t-40 2t-25.5 6t-13.5 9.5t-4 13.5v789h-404v-789q0 -8 -4 -13.5
t-13.5 -9.5t-25.5 -6t-40 -2t-40 2t-25.5 6t-13.5 9.5t-4 13.5v789h-127q-16 0 -24 16t-8 52q0 19 2 32t6 21.5t10 12t14 3.5h127v85q0 93 18 159.5t54 109.5t89.5 63.5t124.5 20.5q44 0 77 -7.5t48.5 -14t21.5 -12.5t10 -15.5t5.5 -23t1.5 -32.5q0 -32 -5 -46.5t-18 -14.5
q-8 0 -18.5 4.5t-26.5 10t-36 10t-46 4.5q-74 0 -104 -51t-30 -163v-87h404v97z" />
    <glyph glyph-name="f_k.liga" unicode="fk" horiz-adv-x="1545" 
d="M849 1393q24 0 40 -2t25.5 -6t13.5 -10t4 -14v-814l341 374q7 10 16 16.5t21 11t29 6t42 1.5q24 0 41 -1.5t28 -5t16 -9t5 -14.5q0 -12 -7 -24t-22 -28l-327 -326l368 -475q12 -17 17 -27.5t5 -19.5q0 -8 -4 -14t-13.5 -10t-26 -6t-43.5 -2t-44.5 1.5t-29.5 5t-19.5 10
t-13.5 15.5l-379 498v-499q0 -8 -4 -13.5t-13.5 -9.5t-25.5 -6t-40 -2t-40 2t-25.5 6t-13.5 9.5t-4 13.5v1221q-2 -3 -6 -4.5t-11 -1.5q-11 0 -35 5.5t-50.5 9.5t-50.5 6t-46 2q-62 0 -102 -12.5t-63 -38.5t-31.5 -67t-8.5 -96v-98h185q8 0 14 -3.5t10.5 -12t6.5 -21.5
t2 -32q0 -36 -8.5 -52t-24.5 -16h-185v-789q0 -8 -4 -13.5t-13.5 -9.5t-25.5 -6t-40 -2t-40 2t-25.5 6t-13.5 9.5t-4 13.5v789h-127q-16 0 -24 16t-8 52q0 19 2 32t6 21.5t10 12t14 3.5h127v96q0 93 21 160t64.5 109.5t110.5 63t160 20.5q26 0 54 -2t54.5 -5.5t46 -7t31 -7
t18.5 -8.5t10 -13q1 10 4.5 16t12 11t24.5 7t42 2z" />
    <glyph glyph-name="f_f_k.liga" unicode="ffk" horiz-adv-x="2115" 
d="M2076 26q0 -8 -4 -14t-13.5 -10t-26.5 -6t-43 -2q-27 0 -44.5 1.5t-29.5 5t-19.5 10t-13.5 15.5l-379 498v-499q0 -8 -4 -13.5t-13.5 -9.5t-25.5 -6t-41 -2q-23 0 -39.5 2t-26 6t-13 9.5t-3.5 13.5v1222q-2 -3 -6 -4.5t-11 -1.5q-12 0 -35.5 5.5t-50 9.5t-50.5 6t-46 2
q-62 0 -102 -12.5t-63 -39t-32 -67t-9 -95.5v-99h186q8 0 13.5 -3.5t10 -12t6.5 -21.5t2 -32q0 -36 -8.5 -52t-23.5 -16h-186v-789q0 -8 -4 -13.5t-13.5 -9.5t-25.5 -6t-40 -2t-40 2t-25.5 6t-13.5 9.5t-4 13.5v789h-404v-789q0 -8 -4 -13.5t-13.5 -9.5t-25.5 -6t-40 -2
t-40 2t-25.5 6t-13.5 9.5t-4 13.5v789h-127q-16 0 -24 16t-8 52q0 19 2 32t6 21.5t10 12t14 3.5h127v85q0 93 18 159.5t54 109.5t89.5 63.5t124.5 20.5q44 0 77 -7.5t48.5 -14t21.5 -12.5t10 -15.5t5.5 -23t1.5 -32.5q0 -32 -5 -46.5t-18 -14.5q-8 0 -18.5 4.5t-26.5 10
t-36 10t-46 4.5q-74 0 -104 -51t-30 -163v-87h404v96q0 93 21 160t64.5 110t110.5 63.5t160 20.5q27 0 55 -2t54.5 -5.5t46 -7t30.5 -7t18.5 -8.5t10.5 -14q0 10 3.5 16t12.5 11t25 7t41 2t41 -2t25.5 -6t13.5 -10t4 -14v-814l340 374q7 10 16 16.5t21.5 11t29.5 6t42 1.5
q24 0 41 -1.5t27.5 -5t15.5 -9t5 -14.5q0 -12 -7 -24t-21 -28l-327 -326l367 -475q12 -17 17.5 -27.5t5.5 -19.5z" />
    <glyph glyph-name="f_lacute.liga" unicode="f&#x13a;" horiz-adv-x="1084" 
d="M932 25q0 -8 -4 -13.5t-13.5 -9.5t-25.5 -6t-40 -2t-40 2t-25.5 6t-13.5 9.5t-4 13.5v1221q-2 -3 -6 -4.5t-11 -1.5q-11 0 -35 5.5t-50.5 9.5t-50.5 6t-46 2q-62 0 -102 -12.5t-63 -38.5t-31.5 -67t-8.5 -96v-98h185q8 0 14 -3.5t10.5 -12t6.5 -21.5t2 -32
q0 -36 -8.5 -52t-24.5 -16h-185v-789q0 -8 -4 -13.5t-13.5 -9.5t-25.5 -6t-40 -2t-40 2t-25.5 6t-13.5 9.5t-4 13.5v789h-127q-16 0 -24 16t-8 52q0 19 2 32t6 21.5t10 12t14 3.5h127v96q0 93 21 160t64.5 109.5t110.5 63t160 20.5q26 0 54 -2t54.5 -5.5t46 -7t31 -7
t18.5 -8.5t10 -13q1 10 4.5 16t12 11t24.5 7t42 2q24 0 40 -2t25.5 -6t13.5 -10t4 -14v-1336zM988 1720q11 13 21.5 20t23.5 11t31 5.5t43 1.5q30 0 47 -4.5t24 -11.5t4.5 -16t-11.5 -19l-227 -212q-10 -10 -18.5 -15.5t-19.5 -9t-25.5 -5t-35.5 -1.5q-23 0 -36 2.5t-18 8
t-3 13.5t11 19zM655 1363z" />
    <glyph glyph-name="f_lcaron.liga" unicode="f&#x13e;" horiz-adv-x="1155" 
d="M932 25q0 -8 -4 -13.5t-13.5 -9.5t-25.5 -6t-40 -2t-40 2t-25.5 6t-13.5 9.5t-4 13.5v1221q-2 -3 -6 -4.5t-11 -1.5q-11 0 -35 5.5t-50.5 9.5t-50.5 6t-46 2q-62 0 -102 -12.5t-63 -38.5t-31.5 -67t-8.5 -96v-98h185q8 0 14 -3.5t10.5 -12t6.5 -21.5t2 -32
q0 -36 -8.5 -52t-24.5 -16h-185v-789q0 -8 -4 -13.5t-13.5 -9.5t-25.5 -6t-40 -2t-40 2t-25.5 6t-13.5 9.5t-4 13.5v789h-127q-16 0 -24 16t-8 52q0 19 2 32t6 21.5t10 12t14 3.5h127v96q0 93 21 160t64.5 109.5t110.5 63t160 20.5q26 0 54 -2t54.5 -5.5t46 -7t31 -7
t18.5 -8.5t10 -13q1 10 4.5 16t12 11t24.5 7t42 2q24 0 40 -2t25.5 -6t13.5 -10t4 -14v-1336zM1092 1361q3 10 9 17t16 11t26.5 6t39.5 2t35.5 -2t19 -6.5t7 -11.5t-2.5 -17l-125 -312q-2 -7 -6.5 -11.5t-13 -7t-22 -3.5t-34.5 -1q-15 0 -24 2t-13 6t-5 9.5t1 13.5zM866 997
z" />
    <glyph glyph-name="f_uni013C.liga" unicode="f&#x13c;" horiz-adv-x="1084" 
d="M932 25q0 -8 -4 -13.5t-13.5 -9.5t-25.5 -6t-40 -2t-40 2t-25.5 6t-13.5 9.5t-4 13.5v1221q-2 -3 -6 -4.5t-11 -1.5q-11 0 -35 5.5t-50.5 9.5t-50.5 6t-46 2q-62 0 -102 -12.5t-63 -38.5t-31.5 -67t-8.5 -96v-98h185q8 0 14 -3.5t10.5 -12t6.5 -21.5t2 -32
q0 -36 -8.5 -52t-24.5 -16h-185v-789q0 -8 -4 -13.5t-13.5 -9.5t-25.5 -6t-40 -2t-40 2t-25.5 6t-13.5 9.5t-4 13.5v789h-127q-16 0 -24 16t-8 52q0 19 2 32t6 21.5t10 12t14 3.5h127v96q0 93 21 160t64.5 109.5t110.5 63t160 20.5q26 0 54 -2t54.5 -5.5t46 -7t31 -7
t18.5 -8.5t10 -13q1 10 4.5 16t12 11t24.5 7t42 2q24 0 40 -2t25.5 -6t13.5 -10t4 -14v-1336zM759 -121q3 11 9 18.5t17 11.5t28.5 6t44.5 2q26 0 41 -3.5t21.5 -10t6 -15t-5.5 -19.5l-97 -203q-4 -10 -10 -16t-15.5 -9t-23.5 -4.5t-34 -1.5q-21 0 -32 2.5t-16 7.5t-4 13
t4 19z" />
    <glyph glyph-name="f_t.liga" unicode="ft" horiz-adv-x="1261" 
d="M362 814v-789q0 -8 -4 -13.5t-13.5 -9.5t-25.5 -6t-40 -2t-40 2t-25.5 6t-13.5 9.5t-4 13.5v789h-127q-16 0 -24 16t-8 52q0 19 2 32t6 21.5t10 12t14 3.5h127v93q0 94 17.5 161.5t53 110.5t90 63.5t128.5 20.5q37 0 72 -7.5t50 -14t21 -12.5t9.5 -15.5t5 -23t1.5 -32.5
t-1.5 -30.5t-4.5 -18.5t-7 -9.5t-9 -2.5q-8 0 -18 4.5t-25 10t-35.5 10t-47.5 4.5q-37 0 -62.5 -12t-41.5 -37.5t-23.5 -66t-7.5 -98.5v-98h406v214q0 7 4 13t13 10.5t25 6.5t41 2q24 0 40 -2t25 -6.5t13 -10.5t4 -13v-214h230q8 0 14.5 -3.5t10.5 -12t6.5 -21.5t2.5 -32
q0 -36 -9 -52t-24 -16h-231v-502q0 -93 27 -140.5t99 -47.5q22 0 40.5 4.5t32.5 9.5t24.5 9.5t17.5 4.5q6 0 10 -2.5t6.5 -9.5t4.5 -19t2 -30q0 -29 -4.5 -46t-12.5 -25t-23 -15t-35.5 -11.5t-44 -7.5t-45.5 -3q-71 0 -121 18.5t-82 56t-46.5 95t-14.5 135.5v526h-405z" />
    <glyph glyph-name="f_uni0163.liga" unicode="f&#x163;" horiz-adv-x="1261" 
d="M362 814v-789q0 -8 -4 -13.5t-13.5 -9.5t-25.5 -6t-40 -2t-40 2t-25.5 6t-13.5 9.5t-4 13.5v789h-127q-16 0 -24 16t-8 52q0 19 2 32t6 21.5t10 12t14 3.5h127v93q0 94 17.5 161.5t53 110.5t90 63.5t128.5 20.5q37 0 72 -7.5t50 -14t21 -12.5t9.5 -15.5t5 -23t1.5 -32.5
t-1.5 -30.5t-4.5 -18.5t-7 -9.5t-9 -2.5q-8 0 -18 4.5t-25 10t-35.5 10t-47.5 4.5q-37 0 -62.5 -12t-41.5 -37.5t-23.5 -66t-7.5 -98.5v-98h406v214q0 7 4 13t13 10.5t25 6.5t41 2q24 0 40 -2t25 -6.5t13 -10.5t4 -13v-214h230q8 0 14.5 -3.5t10.5 -12t6.5 -21.5t2.5 -32
q0 -36 -9 -52t-24 -16h-231v-502q0 -93 27 -140.5t99 -47.5q22 0 40.5 4.5t32.5 9.5t24.5 9.5t17.5 4.5q6 0 10 -2.5t6.5 -9.5t4.5 -19t2 -30q0 -29 -4.5 -46t-12.5 -25t-23 -15t-35.5 -11.5t-44 -7.5t-45.5 -3q-71 0 -121 18.5t-82 56t-46.5 95t-14.5 135.5v526h-405z
M895 -121q3 11 9 18.5t17 11.5t28.5 6t44.5 2q26 0 41 -3.5t21.5 -10t6 -15t-5.5 -19.5l-97 -203q-4 -10 -10 -16t-15.5 -9t-23.5 -4.5t-34 -1.5q-21 0 -32 2.5t-16 7.5t-4 13t4 19z" />
    <glyph glyph-name="f_tcaron.liga" unicode="f&#x165;" horiz-adv-x="1299" 
d="M362 814v-789q0 -8 -4 -13.5t-13.5 -9.5t-25.5 -6t-40 -2t-40 2t-25.5 6t-13.5 9.5t-4 13.5v789h-127q-16 0 -24 16t-8 52q0 19 2 32t6 21.5t10 12t14 3.5h127v93q0 94 17.5 161.5t53 110.5t90 63.5t128.5 20.5q37 0 72 -7.5t50 -14t21 -12.5t9.5 -15.5t5 -23t1.5 -32.5
t-1.5 -30.5t-4.5 -18.5t-7 -9.5t-9 -2.5q-8 0 -18 4.5t-25 10t-35.5 10t-47.5 4.5q-37 0 -62.5 -12t-41.5 -37.5t-23.5 -66t-7.5 -98.5v-98h406v214q0 7 4 13t13 10.5t25 6.5t41 2q24 0 40 -2t25 -6.5t13 -10.5t4 -13v-214h230q8 0 14.5 -3.5t10.5 -12t6.5 -21.5t2.5 -32
q0 -36 -9 -52t-24 -16h-231v-502q0 -93 27 -140.5t99 -47.5q22 0 40.5 4.5t32.5 9.5t24.5 9.5t17.5 4.5q6 0 10 -2.5t6.5 -9.5t4.5 -19t2 -30q0 -29 -4.5 -46t-12.5 -25t-23 -15t-35.5 -11.5t-44 -7.5t-45.5 -3q-71 0 -121 18.5t-82 56t-46.5 95t-14.5 135.5v526h-405z
M1149 1439q3 10 9 17t16 11t26.5 6t39.5 2t35.5 -2t19 -6.5t7 -11.5t-2.5 -17l-125 -312q-2 -7 -6.5 -11.5t-13 -7t-22 -3.5t-34.5 -1q-15 0 -24 2t-13 6t-5 9.5t1 13.5zM923 1075z" />
    <glyph glyph-name="t_f.liga" unicode="tf" horiz-adv-x="1254" 
d="M826 951v93q0 94 17.5 161.5t53.5 110.5t90.5 63.5t127.5 20.5q34 0 67.5 -6.5t51.5 -14t24 -13.5t10 -15.5t5.5 -23t1.5 -32.5t-1.5 -30.5t-4.5 -18.5t-7 -9.5t-9 -2.5q-8 0 -29.5 9t-45.5 14.5t-51 5.5q-37 0 -63 -12t-42 -37.5t-23.5 -66t-7.5 -98.5v-98h201
q8 0 14.5 -3.5t10.5 -12t6.5 -21.5t2.5 -32q0 -36 -9 -52t-24 -16h-202v-789q0 -8 -4 -13.5t-13 -9.5t-25 -6t-41 -2q-24 0 -40 2t-25.5 6t-13 9.5t-3.5 13.5v789h-469v-502q0 -93 27.5 -140.5t98.5 -47.5q23 0 41 4.5t32 9.5t24 9.5t18 4.5q5 0 9.5 -2.5t7 -9.5t4.5 -19
t2 -30q0 -29 -4 -45.5t-12 -25t-24 -15.5t-36.5 -11.5t-43.5 -7.5t-46 -3q-70 0 -120 18.5t-82 56t-46.5 95t-14.5 135.5v526h-126q-15 0 -24 16t-9 52q0 19 2.5 32t6.5 21.5t10.5 12t14.5 3.5h125v214q0 7 3.5 13t13 10.5t25.5 6.5t40 2q25 0 41 -2t25 -6.5t13 -10.5t4 -13
v-214h469z" />
    <glyph glyph-name="t_i.liga" unicode="ti" horiz-adv-x="1141" 
d="M936 951q30 0 41 -13.5t11 -39.5v-873q0 -8 -4 -13.5t-13.5 -9.5t-25.5 -6t-39 -2q-25 0 -41 2t-25.5 6t-13.5 9.5t-4 13.5v789h-465v-502q0 -93 27.5 -140.5t98.5 -47.5q23 0 41 4.5t32 9.5t24 9.5t18 4.5q5 0 9.5 -2.5t7 -9.5t4.5 -19t2 -30q0 -29 -4 -45.5t-12 -25
t-24 -15.5t-36.5 -11.5t-43.5 -7.5t-46 -3q-70 0 -120 18.5t-82 56t-46.5 95t-14.5 135.5v526h-126q-15 0 -24 16t-9 52q0 19 2.5 32t6.5 21.5t10.5 12t14.5 3.5h125v214q0 7 3.5 13t13 10.5t25.5 6.5t40 2q25 0 41 -2t25 -6.5t13 -10.5t4 -13v-214h579zM1007 1229
q0 -58 -22 -79t-81 -21q-58 0 -79.5 20.5t-21.5 77.5q0 58 22 79t81 21q58 0 79.5 -20.5t21.5 -77.5zM670 951z" />
    <glyph glyph-name="t_igrave.liga" unicode="t&#xec;" horiz-adv-x="1141" 
d="M936 951q30 0 41 -13.5t11 -39.5v-873q0 -8 -4 -13.5t-13.5 -9.5t-25.5 -6t-39 -2q-25 0 -41 2t-25.5 6t-13.5 9.5t-4 13.5v789h-465v-502q0 -93 27.5 -140.5t98.5 -47.5q23 0 41 4.5t32 9.5t24 9.5t18 4.5q5 0 9.5 -2.5t7 -9.5t4.5 -19t2 -30q0 -29 -4 -45.5t-12 -25
t-24 -15.5t-36.5 -11.5t-43.5 -7.5t-46 -3q-70 0 -120 18.5t-82 56t-46.5 95t-14.5 135.5v526h-126q-15 0 -24 16t-9 52q0 19 2.5 32t6.5 21.5t10.5 12t14.5 3.5h125v214q0 7 3.5 13t13 10.5t25.5 6.5t40 2q25 0 41 -2t25 -6.5t13 -10.5t4 -13v-214h579zM962 1134
q7 -11 9 -19t-3.5 -13t-18 -8t-34.5 -3q-20 0 -33 1.5t-22.5 5t-16.5 9.5t-14 16l-181 233q-8 9 -9 17.5t6 15t24.5 10t45.5 3.5q24 0 40.5 -2t27.5 -6t19 -11t16 -18zM507 951z" />
    <glyph glyph-name="t_iacute.liga" unicode="t&#xed;" horiz-adv-x="1141" 
d="M936 951q30 0 41 -13.5t11 -39.5v-873q0 -8 -4 -13.5t-13.5 -9.5t-25.5 -6t-39 -2q-25 0 -41 2t-25.5 6t-13.5 9.5t-4 13.5v789h-465v-502q0 -93 27.5 -140.5t98.5 -47.5q23 0 41 4.5t32 9.5t24 9.5t18 4.5q5 0 9.5 -2.5t7 -9.5t4.5 -19t2 -30q0 -29 -4 -45.5t-12 -25
t-24 -15.5t-36.5 -11.5t-43.5 -7.5t-46 -3q-70 0 -120 18.5t-82 56t-46.5 95t-14.5 135.5v526h-126q-15 0 -24 16t-9 52q0 19 2.5 32t6.5 21.5t10.5 12t14.5 3.5h125v214q0 7 3.5 13t13 10.5t25.5 6.5t40 2q25 0 41 -2t25 -6.5t13 -10.5t4 -13v-214h579zM974 1365
q6 11 14 18t19.5 11t28.5 6t41 2q28 0 45.5 -3.5t24.5 -10t6 -15t-9 -17.5l-181 -233q-8 -10 -14.5 -16t-15 -9.5t-22 -5t-33.5 -1.5q-22 0 -35 3t-18.5 8t-4 13t8.5 19zM688 951z" />
    <glyph glyph-name="t_icircumflex.liga" unicode="t&#xee;" horiz-adv-x="1141" 
d="M936 951q30 0 41 -13.5t11 -39.5v-873q0 -8 -4 -13.5t-13.5 -9.5t-25.5 -6t-39 -2q-25 0 -41 2t-25.5 6t-13.5 9.5t-4 13.5v789h-465v-502q0 -93 27.5 -140.5t98.5 -47.5q23 0 41 4.5t32 9.5t24 9.5t18 4.5q5 0 9.5 -2.5t7 -9.5t4.5 -19t2 -30q0 -29 -4 -45.5t-12 -25
t-24 -15.5t-36.5 -11.5t-43.5 -7.5t-46 -3q-70 0 -120 18.5t-82 56t-46.5 95t-14.5 135.5v526h-126q-15 0 -24 16t-9 52q0 19 2.5 32t6.5 21.5t10.5 12t14.5 3.5h125v214q0 7 3.5 13t13 10.5t25.5 6.5t40 2q25 0 41 -2t25 -6.5t13 -10.5t4 -13v-214h579zM764 1121
q-6 -10 -12 -15.5t-14.5 -8.5t-21 -4.5t-31.5 -1.5q-27 0 -41.5 3.5t-19.5 10t-1 17t16 25.5l165 229q5 8 12 12.5t17.5 7.5t26 4.5t37.5 1.5q21 0 35 -1.5t24 -5t16.5 -8t11.5 -11.5l165 -229q11 -15 15 -25.5t-0.5 -17t-19.5 -10t-41 -3.5q-21 0 -33.5 1.5t-20.5 4.5
t-13 9t-12 15l-130 180zM490 951z" />
    <glyph glyph-name="t_idieresis.liga" unicode="t&#xef;" horiz-adv-x="1141" 
d="M936 951q30 0 41 -13.5t11 -39.5v-873q0 -8 -4 -13.5t-13.5 -9.5t-25.5 -6t-39 -2q-25 0 -41 2t-25.5 6t-13.5 9.5t-4 13.5v789h-465v-502q0 -93 27.5 -140.5t98.5 -47.5q23 0 41 4.5t32 9.5t24 9.5t18 4.5q5 0 9.5 -2.5t7 -9.5t4.5 -19t2 -30q0 -29 -4 -45.5t-12 -25
t-24 -15.5t-36.5 -11.5t-43.5 -7.5t-46 -3q-70 0 -120 18.5t-82 56t-46.5 95t-14.5 135.5v526h-126q-15 0 -24 16t-9 52q0 19 2.5 32t6.5 21.5t10.5 12t14.5 3.5h125v214q0 7 3.5 13t13 10.5t25.5 6.5t40 2q25 0 41 -2t25 -6.5t13 -10.5t4 -13v-214h579zM835 1217
q0 -54 -20 -74.5t-72 -20.5t-71 19.5t-19 72.5q0 55 19.5 75.5t71.5 20.5t71.5 -20t19.5 -73zM1146 1217q0 -54 -20 -74.5t-72 -20.5t-71 19.5t-19 72.5q0 55 19.5 75.5t70.5 20.5q53 0 72.5 -20t19.5 -73zM521 951z" />
    <glyph glyph-name="t_imacron.liga" unicode="t&#x12b;" horiz-adv-x="1141" 
d="M936 951q30 0 41 -13.5t11 -39.5v-873q0 -8 -4 -13.5t-13.5 -9.5t-25.5 -6t-39 -2q-25 0 -41 2t-25.5 6t-13.5 9.5t-4 13.5v789h-465v-502q0 -93 27.5 -140.5t98.5 -47.5q23 0 41 4.5t32 9.5t24 9.5t18 4.5q5 0 9.5 -2.5t7 -9.5t4.5 -19t2 -30q0 -29 -4 -45.5t-12 -25
t-24 -15.5t-36.5 -11.5t-43.5 -7.5t-46 -3q-70 0 -120 18.5t-82 56t-46.5 95t-14.5 135.5v526h-126q-15 0 -24 16t-9 52q0 19 2.5 32t6.5 21.5t10.5 12t14.5 3.5h125v214q0 7 3.5 13t13 10.5t25.5 6.5t40 2q25 0 41 -2t25 -6.5t13 -10.5t4 -13v-214h579zM1137 1293
q8 0 14 -3.5t9.5 -11t6 -20t2.5 -30.5q0 -17 -2.5 -28.5t-6 -19.5t-9.5 -12t-14 -4h-479q-8 0 -14.5 4t-10.5 12t-6 19.5t-2 28.5q0 18 2 30.5t6 20t10.5 11t14.5 3.5h479zM493 951z" />
    <glyph glyph-name="t_itilde.liga" unicode="t&#x129;" horiz-adv-x="1141" 
d="M936 951q30 0 41 -13.5t11 -39.5v-873q0 -8 -4 -13.5t-13.5 -9.5t-25.5 -6t-39 -2q-25 0 -41 2t-25.5 6t-13.5 9.5t-4 13.5v789h-465v-502q0 -93 27.5 -140.5t98.5 -47.5q23 0 41 4.5t32 9.5t24 9.5t18 4.5q5 0 9.5 -2.5t7 -9.5t4.5 -19t2 -30q0 -29 -4 -45.5t-12 -25
t-24 -15.5t-36.5 -11.5t-43.5 -7.5t-46 -3q-70 0 -120 18.5t-82 56t-46.5 95t-14.5 135.5v526h-126q-15 0 -24 16t-9 52q0 19 2.5 32t6.5 21.5t10.5 12t14.5 3.5h125v214q0 7 3.5 13t13 10.5t25.5 6.5t40 2q25 0 41 -2t25 -6.5t13 -10.5t4 -13v-214h579zM1216 1314
q0 -106 -52 -162t-141 -56q-37 0 -66 9.5t-53 24.5t-44 32t-39.5 32t-38.5 24.5t-41 9.5q-40 0 -56 -29t-16 -77q0 -7 -2 -12.5t-8.5 -8.5t-19 -4t-31.5 -1q-16 0 -27 1.5t-17.5 6t-9.5 13t-3 21.5q0 99 50 158t143 59q54 0 93 -20.5t70.5 -45t59 -45.5t59.5 -21
q36 0 54.5 26.5t18.5 78.5q0 16 10.5 21.5t45.5 5.5q37 0 49 -7.5t12 -33.5zM422 951z" />
    <glyph glyph-name="t_ibreve.liga" unicode="t&#x12d;" horiz-adv-x="1141" 
d="M936 951q30 0 41 -13.5t11 -39.5v-873q0 -8 -4 -13.5t-13.5 -9.5t-25.5 -6t-39 -2q-25 0 -41 2t-25.5 6t-13.5 9.5t-4 13.5v789h-465v-502q0 -93 27.5 -140.5t98.5 -47.5q23 0 41 4.5t32 9.5t24 9.5t18 4.5q5 0 9.5 -2.5t7 -9.5t4.5 -19t2 -30q0 -29 -4 -45.5t-12 -25
t-24 -15.5t-36.5 -11.5t-43.5 -7.5t-46 -3q-70 0 -120 18.5t-82 56t-46.5 95t-14.5 135.5v526h-126q-15 0 -24 16t-9 52q0 19 2.5 32t6.5 21.5t10.5 12t14.5 3.5h125v214q0 7 3.5 13t13 10.5t25.5 6.5t40 2q25 0 41 -2t25 -6.5t13 -10.5t4 -13v-214h579zM1039 1365
q0 15 12 22.5t46 7.5q19 0 30.5 -1.5t18 -5t9 -9t2.5 -12.5q0 -68 -16.5 -118.5t-49 -84.5t-81 -51t-112.5 -17q-68 0 -116.5 18t-80 52t-46 84t-14.5 114q0 16 12 23.5t46 7.5q18 0 29.5 -2t18 -5.5t9.5 -9t3 -13.5q3 -34 11.5 -62.5t25 -48.5t42 -30.5t60.5 -10.5
q30 0 55 8.5t43.5 27t29.5 47t13 69.5zM509 951z" />
    <glyph glyph-name="t_iogonek.liga" unicode="t&#x12f;" horiz-adv-x="1141" 
d="M933 951q32 0 43.5 -13.5t11.5 -43.5v-869q0 -12 -5.5 -29.5t-14.5 -27.5l-73 -73q-16 -16 -25 -28t-14 -22t-7 -18.5t-2 -17.5q0 -26 17.5 -39t55.5 -13h108q7 0 12.5 -2t9 -7t5 -14.5t1.5 -24.5t-1.5 -24.5t-5 -16t-10 -9.5t-16.5 -6q-32 -9 -66.5 -13.5t-76.5 -4.5
q-45 0 -80.5 10t-61 28.5t-38.5 46.5t-13 65q0 16 2.5 33.5t11 36.5t23.5 40.5t41 47.5l57 57v814h-465v-502q0 -93 27.5 -140.5t98.5 -47.5q23 0 41 4.5t32 9.5t24 9.5t18 4.5q5 0 9.5 -2.5t7 -9.5t4.5 -19t2 -30q0 -29 -4 -45.5t-12 -25t-24 -15.5t-36.5 -11.5t-43.5 -7.5
t-46 -3q-70 0 -120 18.5t-82 56t-46.5 95t-14.5 135.5v526h-126q-15 0 -24 16t-9 52q0 19 2.5 32t6.5 21.5t10.5 12t14.5 3.5h125v214q0 7 3.5 13t13 10.5t25.5 6.5t40 2q25 0 41 -2t25 -6.5t13 -10.5t4 -13v-214h576zM1006 1228q0 -28 -4.5 -47t-16 -30.5t-31 -16.5
t-48.5 -5q-30 0 -49.5 5t-31.5 16.5t-16.5 30.5t-4.5 47t4.5 46.5t16.5 31t31.5 17t49.5 4.5q29 0 48.5 -4.5t31 -17t16 -31t4.5 -46.5z" />
    <glyph glyph-name="t_dotlessi.liga" unicode="t&#x131;" horiz-adv-x="1141" 
d="M936 951q30 0 41 -13.5t11 -39.5v-873q0 -8 -4 -13.5t-13.5 -9.5t-25.5 -6t-39 -2q-25 0 -41 2t-25.5 6t-13.5 9.5t-4 13.5v789h-465v-502q0 -93 27.5 -140.5t98.5 -47.5q23 0 41 4.5t32 9.5t24 9.5t18 4.5q5 0 9.5 -2.5t7 -9.5t4.5 -19t2 -30q0 -29 -4 -45.5t-12 -25
t-24 -15.5t-36.5 -11.5t-43.5 -7.5t-46 -3q-70 0 -120 18.5t-82 56t-46.5 95t-14.5 135.5v526h-126q-15 0 -24 16t-9 52q0 19 2.5 32t6.5 21.5t10.5 12t14.5 3.5h125v214q0 7 3.5 13t13 10.5t25.5 6.5t40 2q25 0 41 -2t25 -6.5t13 -10.5t4 -13v-214h579z" />
    <glyph glyph-name="t_t.liga" unicode="tt" horiz-adv-x="1299" 
d="M1233 91q0 -29 -4 -45.5t-12.5 -24.5t-23.5 -15t-35.5 -12t-44 -8t-45.5 -3q-71 0 -121 18.5t-81.5 56t-46.5 95t-15 135.5v526h-447v-502q0 -93 27.5 -140.5t98.5 -47.5q23 0 41 4.5t32 9.5t24 9.5t18 4.5q5 0 9.5 -2.5t7 -9.5t4.5 -19t2 -30q0 -17 -1 -27t-2.5 -18.5
t-5 -15t-11 -13t-22.5 -13t-35 -11t-43 -7.5t-46 -3q-70 0 -120 18.5t-82 56t-46.5 95t-14.5 135.5v526h-126q-15 0 -24 16t-9 52q0 19 2.5 32t6.5 21.5t10.5 12t14.5 3.5h125v214q0 7 3.5 13t13 10.5t25.5 6.5t40 2q25 0 41 -2t25 -6.5t13 -10.5t4 -13v-214h447v257
q0 8 4 14t13.5 9.5t25.5 6t40 2.5t40 -2.5t25.5 -6t13.5 -9.5t4 -14v-257h230q8 0 14 -3.5t10.5 -12t6.5 -21.5t2 -32q0 -36 -9 -52t-23 -16h-231v-502q0 -93 27 -140.5t98 -47.5q22 0 40.5 4.5t32.5 9.5t24.5 9.5t17.5 4.5q6 0 10 -2.5t6.5 -9.5t4.5 -19t2 -30z" />
    <glyph glyph-name="t_t_f.liga" unicode="ttf" horiz-adv-x="1867" 
d="M1888 1295q0 -19 -2 -30.5t-4.5 -18.5t-7 -9.5t-10.5 -2.5q-7 0 -17.5 4.5t-25 10t-35 10t-47.5 4.5q-37 0 -63 -12t-41.5 -37.5t-23 -66t-7.5 -98.5v-98h201q8 0 13.5 -3.5t10 -12t7 -21.5t2.5 -32q0 -36 -9 -52t-24 -16h-201v-789q0 -8 -4 -13.5t-13 -9.5t-25.5 -6
t-40.5 -2t-40 2t-25.5 6t-13.5 9.5t-4 13.5v789h-468v-502q0 -93 27 -140.5t98 -47.5q22 0 40.5 4.5t32.5 9.5t24.5 9.5t17.5 4.5q6 0 10 -2.5t6.5 -9.5t4.5 -19t2 -30q0 -29 -3.5 -45.5t-12 -25t-25 -15.5t-36 -11.5t-43 -7.5t-45.5 -3q-71 0 -121 18.5t-81.5 56t-46.5 95
t-15 135.5v526h-447v-502q0 -93 27.5 -140.5t98.5 -47.5q23 0 41 4.5t32 9.5t24 9.5t18 4.5q5 0 9.5 -2.5t7 -9.5t4.5 -19t2 -30q0 -29 -4 -45.5t-12 -25t-24.5 -15.5t-36.5 -11.5t-43 -7.5t-46 -3q-70 0 -120 18.5t-82 56t-46.5 95t-14.5 135.5v526h-126q-15 0 -24 16
t-9 52q0 19 2.5 32t6.5 21.5t10.5 12t14.5 3.5h125v214q0 7 3.5 13t13 10.5t25.5 6.5t40 2q25 0 41 -2t25 -6.5t13 -10.5t4 -13v-214h447v257q0 8 4 14t13.5 9.5t25.5 6t40 2.5t40 -2.5t25.5 -6t13.5 -9.5t4 -14v-257h468v93q0 94 17.5 161.5t53.5 110.5t90.5 63.5
t128.5 20.5q37 0 69.5 -7t49.5 -14t23.5 -13t10.5 -15.5t5.5 -23t1.5 -32.5z" />
    <glyph glyph-name="t_t_i.liga" unicode="tti" horiz-adv-x="1753" 
d="M357 814v-502q0 -93 27.5 -140.5t98.5 -47.5q23 0 41 4.5t32 9.5t24 9.5t18 4.5q5 0 9.5 -2.5t7 -9.5t4.5 -19t2 -30q0 -29 -4 -46t-12.5 -25t-24 -15t-36 -11.5t-43.5 -7.5t-46 -3q-70 0 -120 18.5t-82 56t-46.5 95t-14.5 135.5v526h-126q-15 0 -24 16t-9 52
q0 19 2.5 32t6.5 21.5t10.5 12t14.5 3.5h125v214q0 7 3.5 13t13 10.5t25.5 6.5t40 2q25 0 41 -2t25 -6.5t13 -10.5t4 -13v-214h447v257q0 8 4 14t13.5 9.5t25.5 6t40 2.5t40 -2.5t25.5 -6t13.5 -9.5t4 -14v-257h579q29 0 40.5 -13.5t11.5 -39.5v-873q0 -8 -4 -13.5
t-13.5 -9.5t-25.5 -6t-41 -2q-23 0 -39 2t-26 6t-13.5 9.5t-3.5 13.5v789h-465v-502q0 -93 27 -140.5t98 -47.5q22 0 40.5 4.5t32.5 9.5t24.5 9.5t17.5 4.5q6 0 10 -2.5t6.5 -9.5t4.5 -19t2 -30q0 -29 -4 -46t-12.5 -25t-23.5 -15t-35.5 -11.5t-44 -7.5t-45.5 -3
q-71 0 -121 18.5t-81.5 56t-46.5 95t-15 135.5v526h-447zM1619 1229q0 -58 -22 -79t-81 -21q-58 0 -79.5 20.5t-21.5 77.5q0 58 22 79t81 21q58 0 79.5 -20.5t21.5 -77.5zM1282 951z" />
    <glyph glyph-name="t_t_igrave.liga" unicode="tt&#xec;" horiz-adv-x="1753" 
d="M357 814v-502q0 -93 27.5 -140.5t98.5 -47.5q23 0 41 4.5t32 9.5t24 9.5t18 4.5q5 0 9.5 -2.5t7 -9.5t4.5 -19t2 -30q0 -29 -4 -46t-12.5 -25t-24 -15t-36 -11.5t-43.5 -7.5t-46 -3q-70 0 -120 18.5t-82 56t-46.5 95t-14.5 135.5v526h-126q-15 0 -24 16t-9 52
q0 19 2.5 32t6.5 21.5t10.5 12t14.5 3.5h125v214q0 7 3.5 13t13 10.5t25.5 6.5t40 2q25 0 41 -2t25 -6.5t13 -10.5t4 -13v-214h447v257q0 8 4 14t13.5 9.5t25.5 6t40 2.5t40 -2.5t25.5 -6t13.5 -9.5t4 -14v-257h579q29 0 40.5 -13.5t11.5 -39.5v-873q0 -8 -4 -13.5
t-13.5 -9.5t-25.5 -6t-41 -2q-23 0 -39 2t-26 6t-13.5 9.5t-3.5 13.5v789h-465v-502q0 -93 27 -140.5t98 -47.5q22 0 40.5 4.5t32.5 9.5t24.5 9.5t17.5 4.5q6 0 10 -2.5t6.5 -9.5t4.5 -19t2 -30q0 -29 -4 -46t-12.5 -25t-23.5 -15t-35.5 -11.5t-44 -7.5t-45.5 -3
q-71 0 -121 18.5t-81.5 56t-46.5 95t-15 135.5v526h-447zM1575 1134q7 -11 9 -19t-3.5 -13t-18 -8t-34.5 -3q-20 0 -33 1.5t-22.5 5t-16.5 9.5t-14 16l-181 233q-8 9 -9 17.5t6 15t24.5 10t45.5 3.5q24 0 40.5 -2t27.5 -6t19 -11t16 -18zM1120 951z" />
    <glyph glyph-name="t_t_iacute.liga" unicode="tt&#xed;" horiz-adv-x="1753" 
d="M357 814v-502q0 -93 27.5 -140.5t98.5 -47.5q23 0 41 4.5t32 9.5t24 9.5t18 4.5q5 0 9.5 -2.5t7 -9.5t4.5 -19t2 -30q0 -29 -4 -46t-12.5 -25t-24 -15t-36 -11.5t-43.5 -7.5t-46 -3q-70 0 -120 18.5t-82 56t-46.5 95t-14.5 135.5v526h-126q-15 0 -24 16t-9 52
q0 19 2.5 32t6.5 21.5t10.5 12t14.5 3.5h125v214q0 7 3.5 13t13 10.5t25.5 6.5t40 2q25 0 41 -2t25 -6.5t13 -10.5t4 -13v-214h447v257q0 8 4 14t13.5 9.5t25.5 6t40 2.5t40 -2.5t25.5 -6t13.5 -9.5t4 -14v-257h579q29 0 40.5 -13.5t11.5 -39.5v-873q0 -8 -4 -13.5
t-13.5 -9.5t-25.5 -6t-41 -2q-23 0 -39 2t-26 6t-13.5 9.5t-3.5 13.5v789h-465v-502q0 -93 27 -140.5t98 -47.5q22 0 40.5 4.5t32.5 9.5t24.5 9.5t17.5 4.5q6 0 10 -2.5t6.5 -9.5t4.5 -19t2 -30q0 -29 -4 -46t-12.5 -25t-23.5 -15t-35.5 -11.5t-44 -7.5t-45.5 -3
q-71 0 -121 18.5t-81.5 56t-46.5 95t-15 135.5v526h-447zM1587 1365q6 11 14 18t19.5 11t28.5 6t41 2q28 0 45.5 -3.5t24.5 -10t6 -15t-9 -17.5l-181 -233q-8 -10 -14.5 -16t-15 -9.5t-22 -5t-33.5 -1.5q-22 0 -35 3t-18.5 8t-4 13t8.5 19zM1301 951z" />
    <glyph glyph-name="t_t_icircumflex.liga" unicode="tt&#xee;" horiz-adv-x="1753" 
d="M357 814v-502q0 -93 27.5 -140.5t98.5 -47.5q23 0 41 4.5t32 9.5t24 9.5t18 4.5q5 0 9.5 -2.5t7 -9.5t4.5 -19t2 -30q0 -29 -4 -46t-12.5 -25t-24 -15t-36 -11.5t-43.5 -7.5t-46 -3q-70 0 -120 18.5t-82 56t-46.5 95t-14.5 135.5v526h-126q-15 0 -24 16t-9 52
q0 19 2.5 32t6.5 21.5t10.5 12t14.5 3.5h125v214q0 7 3.5 13t13 10.5t25.5 6.5t40 2q25 0 41 -2t25 -6.5t13 -10.5t4 -13v-214h447v257q0 8 4 14t13.5 9.5t25.5 6t40 2.5t40 -2.5t25.5 -6t13.5 -9.5t4 -14v-257h579q29 0 40.5 -13.5t11.5 -39.5v-873q0 -8 -4 -13.5
t-13.5 -9.5t-25.5 -6t-41 -2q-23 0 -39 2t-26 6t-13.5 9.5t-3.5 13.5v789h-465v-502q0 -93 27 -140.5t98 -47.5q22 0 40.5 4.5t32.5 9.5t24.5 9.5t17.5 4.5q6 0 10 -2.5t6.5 -9.5t4.5 -19t2 -30q0 -29 -4 -46t-12.5 -25t-23.5 -15t-35.5 -11.5t-44 -7.5t-45.5 -3
q-71 0 -121 18.5t-81.5 56t-46.5 95t-15 135.5v526h-447zM1376 1121q-6 -10 -12 -15.5t-14.5 -8.5t-21 -4.5t-31.5 -1.5q-27 0 -41.5 3.5t-19.5 10t-1 17t16 25.5l165 229q5 8 12 12.5t17.5 7.5t26 4.5t37.5 1.5q21 0 35 -1.5t24 -5t16.5 -8t11.5 -11.5l165 -229
q11 -15 15 -25.5t-0.5 -17t-19.5 -10t-41 -3.5q-21 0 -33.5 1.5t-20.5 4.5t-13 9t-12 15l-130 180zM1102 951z" />
    <glyph glyph-name="t_t_idieresis.liga" unicode="tt&#xef;" horiz-adv-x="1753" 
d="M357 814v-502q0 -93 27.5 -140.5t98.5 -47.5q23 0 41 4.5t32 9.5t24 9.5t18 4.5q5 0 9.5 -2.5t7 -9.5t4.5 -19t2 -30q0 -29 -4 -46t-12.5 -25t-24 -15t-36 -11.5t-43.5 -7.5t-46 -3q-70 0 -120 18.5t-82 56t-46.5 95t-14.5 135.5v526h-126q-15 0 -24 16t-9 52
q0 19 2.5 32t6.5 21.5t10.5 12t14.5 3.5h125v214q0 7 3.5 13t13 10.5t25.5 6.5t40 2q25 0 41 -2t25 -6.5t13 -10.5t4 -13v-214h447v257q0 8 4 14t13.5 9.5t25.5 6t40 2.5t40 -2.5t25.5 -6t13.5 -9.5t4 -14v-257h579q29 0 40.5 -13.5t11.5 -39.5v-873q0 -8 -4 -13.5
t-13.5 -9.5t-25.5 -6t-41 -2q-23 0 -39 2t-26 6t-13.5 9.5t-3.5 13.5v789h-465v-502q0 -93 27 -140.5t98 -47.5q22 0 40.5 4.5t32.5 9.5t24.5 9.5t17.5 4.5q6 0 10 -2.5t6.5 -9.5t4.5 -19t2 -30q0 -29 -4 -46t-12.5 -25t-23.5 -15t-35.5 -11.5t-44 -7.5t-45.5 -3
q-71 0 -121 18.5t-81.5 56t-46.5 95t-15 135.5v526h-447zM1448 1217q0 -54 -20 -74.5t-72 -20.5t-71 19.5t-19 72.5q0 55 19.5 75.5t71.5 20.5t71.5 -20t19.5 -73zM1759 1217q0 -54 -20 -74.5t-72 -20.5t-71 19.5t-19 72.5q0 55 19.5 75.5t70.5 20.5q53 0 72.5 -20t19.5 -73
zM1134 951z" />
    <glyph glyph-name="t_t_imacron.liga" unicode="tt&#x12b;" horiz-adv-x="1753" 
d="M357 814v-502q0 -93 27.5 -140.5t98.5 -47.5q23 0 41 4.5t32 9.5t24 9.5t18 4.5q5 0 9.5 -2.5t7 -9.5t4.5 -19t2 -30q0 -29 -4 -46t-12.5 -25t-24 -15t-36 -11.5t-43.5 -7.5t-46 -3q-70 0 -120 18.5t-82 56t-46.5 95t-14.5 135.5v526h-126q-15 0 -24 16t-9 52
q0 19 2.5 32t6.5 21.5t10.5 12t14.5 3.5h125v214q0 7 3.5 13t13 10.5t25.5 6.5t40 2q25 0 41 -2t25 -6.5t13 -10.5t4 -13v-214h447v257q0 8 4 14t13.5 9.5t25.5 6t40 2.5t40 -2.5t25.5 -6t13.5 -9.5t4 -14v-257h579q29 0 40.5 -13.5t11.5 -39.5v-873q0 -8 -4 -13.5
t-13.5 -9.5t-25.5 -6t-41 -2q-23 0 -39 2t-26 6t-13.5 9.5t-3.5 13.5v789h-465v-502q0 -93 27 -140.5t98 -47.5q22 0 40.5 4.5t32.5 9.5t24.5 9.5t17.5 4.5q6 0 10 -2.5t6.5 -9.5t4.5 -19t2 -30q0 -29 -4 -46t-12.5 -25t-23.5 -15t-35.5 -11.5t-44 -7.5t-45.5 -3
q-71 0 -121 18.5t-81.5 56t-46.5 95t-15 135.5v526h-447zM1750 1293q8 0 14 -3.5t9.5 -11t6 -20t2.5 -30.5q0 -17 -2.5 -28.5t-6 -19.5t-9.5 -12t-14 -4h-479q-8 0 -14.5 4t-10.5 12t-6 19.5t-2 28.5q0 18 2 30.5t6 20t10.5 11t14.5 3.5h479zM1106 951z" />
    <glyph glyph-name="t_t_itilde.liga" unicode="tt&#x129;" horiz-adv-x="1753" 
d="M357 814v-502q0 -93 27.5 -140.5t98.5 -47.5q23 0 41 4.5t32 9.5t24 9.5t18 4.5q5 0 9.5 -2.5t7 -9.5t4.5 -19t2 -30q0 -29 -4 -46t-12.5 -25t-24 -15t-36 -11.5t-43.5 -7.5t-46 -3q-70 0 -120 18.5t-82 56t-46.5 95t-14.5 135.5v526h-126q-15 0 -24 16t-9 52
q0 19 2.5 32t6.5 21.5t10.5 12t14.5 3.5h125v214q0 7 3.5 13t13 10.5t25.5 6.5t40 2q25 0 41 -2t25 -6.5t13 -10.5t4 -13v-214h447v257q0 8 4 14t13.5 9.5t25.5 6t40 2.5t40 -2.5t25.5 -6t13.5 -9.5t4 -14v-257h579q29 0 40.5 -13.5t11.5 -39.5v-873q0 -8 -4 -13.5
t-13.5 -9.5t-25.5 -6t-41 -2q-23 0 -39 2t-26 6t-13.5 9.5t-3.5 13.5v789h-465v-502q0 -93 27 -140.5t98 -47.5q22 0 40.5 4.5t32.5 9.5t24.5 9.5t17.5 4.5q6 0 10 -2.5t6.5 -9.5t4.5 -19t2 -30q0 -29 -4 -46t-12.5 -25t-23.5 -15t-35.5 -11.5t-44 -7.5t-45.5 -3
q-71 0 -121 18.5t-81.5 56t-46.5 95t-15 135.5v526h-447zM1829 1314q0 -106 -52 -162t-141 -56q-37 0 -66 9.5t-53 24.5t-44 32t-39.5 32t-38.5 24.5t-41 9.5q-40 0 -56 -29t-16 -77q0 -7 -2 -12.5t-8.5 -8.5t-19 -4t-31.5 -1q-16 0 -27 1.5t-17.5 6t-9.5 13t-3 21.5
q0 99 50 158t143 59q54 0 93 -20.5t70.5 -45t59 -45.5t59.5 -21q36 0 54.5 26.5t18.5 78.5q0 16 10.5 21.5t45.5 5.5q37 0 49 -7.5t12 -33.5zM1035 951z" />
    <glyph glyph-name="t_t_ibreve.liga" unicode="tt&#x12d;" horiz-adv-x="1753" 
d="M357 814v-502q0 -93 27.5 -140.5t98.5 -47.5q23 0 41 4.5t32 9.5t24 9.5t18 4.5q5 0 9.5 -2.5t7 -9.5t4.5 -19t2 -30q0 -29 -4 -46t-12.5 -25t-24 -15t-36 -11.5t-43.5 -7.5t-46 -3q-70 0 -120 18.5t-82 56t-46.5 95t-14.5 135.5v526h-126q-15 0 -24 16t-9 52
q0 19 2.5 32t6.5 21.5t10.5 12t14.5 3.5h125v214q0 7 3.5 13t13 10.5t25.5 6.5t40 2q25 0 41 -2t25 -6.5t13 -10.5t4 -13v-214h447v257q0 8 4 14t13.5 9.5t25.5 6t40 2.5t40 -2.5t25.5 -6t13.5 -9.5t4 -14v-257h579q29 0 40.5 -13.5t11.5 -39.5v-873q0 -8 -4 -13.5
t-13.5 -9.5t-25.5 -6t-41 -2q-23 0 -39 2t-26 6t-13.5 9.5t-3.5 13.5v789h-465v-502q0 -93 27 -140.5t98 -47.5q22 0 40.5 4.5t32.5 9.5t24.5 9.5t17.5 4.5q6 0 10 -2.5t6.5 -9.5t4.5 -19t2 -30q0 -29 -4 -46t-12.5 -25t-23.5 -15t-35.5 -11.5t-44 -7.5t-45.5 -3
q-71 0 -121 18.5t-81.5 56t-46.5 95t-15 135.5v526h-447zM1652 1365q0 15 12 22.5t46 7.5q19 0 30.5 -1.5t18 -5t9 -9t2.5 -12.5q0 -68 -16.5 -118.5t-49 -84.5t-81 -51t-112.5 -17q-68 0 -116.5 18t-80 52t-46 84t-14.5 114q0 16 12 23.5t46 7.5q18 0 29.5 -2t18 -5.5
t9.5 -9t3 -13.5q3 -34 11.5 -62.5t25 -48.5t42 -30.5t60.5 -10.5q30 0 55 8.5t43.5 27t29.5 47t13 69.5zM1122 951z" />
    <glyph glyph-name="t_t_iogonek.liga" unicode="tt&#x12f;" horiz-adv-x="1753" 
d="M1669 -291q0 -15 -2 -24.5t-5.5 -16t-10 -9.5t-15.5 -6q-33 -9 -67 -13.5t-76 -4.5q-45 0 -81 10t-61 28.5t-38.5 46.5t-13.5 65q0 16 2.5 33.5t11 36.5t24 40.5t41.5 47.5l57 57v814h-465v-502q0 -93 27 -140.5t98 -47.5q22 0 40.5 4.5t32.5 9.5t24.5 9.5t17.5 4.5
q6 0 10 -2.5t6.5 -9.5t4.5 -19t2 -30q0 -29 -4 -46t-12.5 -25t-23.5 -15t-35.5 -11.5t-44 -7.5t-45.5 -3q-71 0 -121 18.5t-81.5 56t-46.5 95t-15 135.5v526h-447v-502q0 -93 27.5 -140.5t98.5 -47.5q23 0 41 4.5t32 9.5t24 9.5t18 4.5q5 0 9.5 -2.5t7 -9.5t4.5 -19t2 -30
q0 -29 -4 -46t-12.5 -25t-24 -15t-36 -11.5t-43.5 -7.5t-46 -3q-70 0 -120 18.5t-82 56t-46.5 95t-14.5 135.5v526h-126q-15 0 -24 16t-9 52q0 19 2.5 32t6.5 21.5t10.5 12t14.5 3.5h125v214q0 7 3.5 13t13 10.5t25.5 6.5t40 2q25 0 41 -2t25 -6.5t13 -10.5t4 -13v-214h447
v257q0 8 4 14t13.5 9.5t25.5 6t40 2.5t40 -2.5t25.5 -6t13.5 -9.5t4 -14v-257h579q29 0 40.5 -13.5t11.5 -39.5v-873q0 -12 -6 -29.5t-15 -27.5l-73 -73q-31 -30 -39.5 -49.5t-8.5 -36.5q0 -52 74 -52h107q7 0 13 -2t9 -7t5 -14.5t2 -24.5zM1619 1228q0 -28 -4.5 -47
t-16.5 -30.5t-31.5 -16.5t-49.5 -5q-29 0 -48.5 5t-31.5 16.5t-16.5 30.5t-4.5 47t4.5 46.5t16.5 31t31.5 17t48.5 4.5q30 0 49.5 -4.5t31.5 -17t16.5 -31t4.5 -46.5z" />
    <glyph glyph-name="t_t_dotlessi.liga" unicode="tt&#x131;" horiz-adv-x="1753" 
d="M357 814v-502q0 -93 27.5 -140.5t98.5 -47.5q23 0 41 4.5t32 9.5t24 9.5t18 4.5q5 0 9.5 -2.5t7 -9.5t4.5 -19t2 -30q0 -29 -4 -46t-12.5 -25t-24 -15t-36 -11.5t-43.5 -7.5t-46 -3q-70 0 -120 18.5t-82 56t-46.5 95t-14.5 135.5v526h-126q-15 0 -24 16t-9 52
q0 19 2.5 32t6.5 21.5t10.5 12t14.5 3.5h125v214q0 7 3.5 13t13 10.5t25.5 6.5t40 2q25 0 41 -2t25 -6.5t13 -10.5t4 -13v-214h447v257q0 8 4 14t13.5 9.5t25.5 6t40 2.5t40 -2.5t25.5 -6t13.5 -9.5t4 -14v-257h579q29 0 40.5 -13.5t11.5 -39.5v-873q0 -8 -4 -13.5
t-13.5 -9.5t-25.5 -6t-41 -2q-23 0 -39 2t-26 6t-13.5 9.5t-3.5 13.5v789h-465v-502q0 -93 27 -140.5t98 -47.5q22 0 40.5 4.5t32.5 9.5t24.5 9.5t17.5 4.5q6 0 10 -2.5t6.5 -9.5t4.5 -19t2 -30q0 -29 -4 -46t-12.5 -25t-23.5 -15t-35.5 -11.5t-44 -7.5t-45.5 -3
q-71 0 -121 18.5t-81.5 56t-46.5 95t-15 135.5v526h-447z" />
    <glyph glyph-name=".notdef" horiz-adv-x="1038" 
d="M978 1294v-1294h-934v1294h934zM891 81v1132h-762v-1132h762zM767 855q0 -59 -17.5 -105t-49 -77.5t-74.5 -49.5t-94 -21l-5 -152q0 -10 -15 -14t-41 -4q-15 0 -25 1t-16.5 3t-9.5 5t-3 9l-5 184q-2 30 12 42t38 12h18q45 0 75 12.5t48.5 33.5t26.5 50.5t8 62.5
q0 73 -41.5 116t-132.5 43q-37 0 -67 -7.5t-53 -17t-37.5 -17.5t-21.5 -8q-3 0 -6.5 2t-6.5 7.5t-4.5 15t-1.5 25.5q0 17 2.5 28t10.5 19q7 7 27 16t47.5 17.5t60.5 14.5t67 6q75 0 129 -20t88.5 -54t51.5 -80t17 -98zM549 273q0 -21 -3.5 -35t-12 -23t-23 -13t-35.5 -4
q-22 0 -36.5 4t-23.5 13t-13 23t-4 35t4 35.5t13 23.5t23.5 13t36.5 4q21 0 35.5 -4t23 -13t12 -23.5t3.5 -35.5zM0 -397z" />
    <glyph glyph-name="glyph1" horiz-adv-x="0" 
 />
    <glyph glyph-name="glyph2" horiz-adv-x="0" 
 />
    <glyph glyph-name="space" unicode=" " horiz-adv-x="463" 
 />
    <glyph glyph-name="space" unicode="&#xa0;" horiz-adv-x="463" 
 />
    <glyph glyph-name="exclam" unicode="!" horiz-adv-x="667" 
d="M445 373q0 -8 -3.5 -14t-12.5 -10t-23 -6t-35 -2t-35 2t-23 6t-12.5 10t-3.5 14l-17 954q-1 12 3 21t14.5 15t28 8.5t45.5 2.5q27 0 44.5 -3t28 -9t14.5 -14.5t4 -20.5zM476 104q0 -33 -4.5 -54.5t-17 -35t-32.5 -19t-51 -5.5t-51.5 5.5t-32.5 19t-16.5 35t-4.5 54.5
t4.5 55.5t16.5 35t32.5 18t51.5 5.5t51 -5.5t32.5 -18t17 -35t4.5 -55.5z" />
    <glyph glyph-name="quotedbl" unicode="&#x22;" horiz-adv-x="821" 
d="M643 902q0 -8 -3 -14t-11 -10t-19.5 -6t-29.5 -2t-30 2t-19.5 6t-10.5 10t-3 14l-23 463q0 8 5 14t15 10t26.5 6t39.5 2q24 0 40.5 -2t26.5 -6t14.5 -10t3.5 -14zM288 902q0 -8 -3 -14t-11 -10t-19.5 -6t-29.5 -2t-30 2t-19.5 6t-10.5 10t-3 14l-23 463q0 8 5 14t15 10
t26.5 6t39.5 2q48 0 67 -8t19 -24z" />
    <glyph glyph-name="numbersign" unicode="#" horiz-adv-x="1020" 
d="M983 886q0 -17 -2.5 -29t-7 -19.5t-11 -11t-13.5 -3.5h-131l-40 -332h116q15 0 24.5 -15t9.5 -49q0 -17 -3 -29t-7 -19.5t-10.5 -11t-13.5 -3.5h-133l-42 -342q-1 -7 -4 -12.5t-11 -9t-22 -5t-37 -1.5t-38 1.5t-23 5t-11 9t-2 12.5l42 342h-278l-42 -342
q-2 -7 -4.5 -12.5t-10 -9t-21.5 -5t-37 -1.5q-24 0 -39 1.5t-23 5t-11 9t-2 12.5l41 342h-116q-15 0 -24.5 14.5t-9.5 48.5q0 17 3 29t7 19.5t10 11.5t14 4h134l41 332h-121q-15 0 -24.5 15t-9.5 47q0 35 9.5 50t24.5 15h136l41 321q1 7 4.5 12.5t12 9t23.5 5.5t38 2
q24 0 38 -2t21.5 -5.5t9.5 -9t2 -11.5l-42 -322h278l39 321q1 7 5 12.5t12 9t23 5.5t39 2q23 0 37.5 -2t21.5 -5.5t9.5 -9t1.5 -11.5l-40 -322h115q15 0 24.5 -15.5t9.5 -48.5zM392 823l-40 -332h277l42 332h-279z" />
    <glyph glyph-name="dollar" unicode="$" horiz-adv-x="1038" 
d="M932 366q0 -80 -30.5 -145.5t-86.5 -112.5t-137 -75t-181 -33l-22 -217q-1 -6 -3.5 -11.5t-9.5 -9t-19.5 -5.5t-32.5 -2q-23 0 -36.5 2.5t-21.5 6t-10.5 10t-0.5 14.5l23 216q-48 6 -89 15.5t-73 20.5t-54.5 23t-33 22.5t-14.5 27.5t-4 47q0 22 2 36.5t6 24t10.5 13
t15.5 3.5q13 0 37 -14.5t63.5 -32t96.5 -32.5t137 -15q142 0 215.5 56t73.5 152q0 59 -27 98.5t-71.5 68t-101 49t-115 41.5t-115 48t-100.5 67t-71 97.5t-27 141.5q0 67 23 125t69 101.5t116 71t163 33.5l20 202q1 6 3.5 11.5t9.5 9.5t19 5.5t33 1.5q22 0 36.5 -2t22 -6.5
t9.5 -10.5t2 -14l-22 -200q30 -3 62.5 -10.5t61 -17t51.5 -21t31.5 -19.5t12 -15t5.5 -16t3.5 -21t1.5 -27q0 -19 -1.5 -33t-4.5 -22t-8 -12t-12 -4q-11 0 -35 13t-60.5 28t-84.5 28t-107 13q-67 0 -114.5 -13t-77 -36.5t-43 -56.5t-13.5 -72q0 -60 27.5 -100t72 -68
t101.5 -48t116.5 -41.5t116.5 -47.5t101.5 -66t72 -97.5t27.5 -141.5z" />
    <glyph glyph-name="percent" unicode="%" horiz-adv-x="1464" 
d="M629 974q0 -77 -17 -140t-52 -107.5t-88.5 -69.5t-125.5 -25q-73 0 -125 23t-85 66.5t-48.5 106t-15.5 142.5q0 73 16.5 135t50.5 107t87.5 71t126.5 26q79 0 132.5 -27t85.5 -72.5t45 -106.5t13 -129zM489 969q0 56 -8 99.5t-24.5 72.5t-43.5 43.5t-64 14.5
q-35 0 -61 -14t-42.5 -42t-24.5 -69.5t-8 -97.5q0 -68 9.5 -113.5t27 -72t44 -37t60.5 -10.5q40 0 65.5 15t41 44.5t22 71t6.5 95.5zM1392 327q0 -77 -17 -140t-52 -107.5t-88.5 -69.5t-125.5 -25q-73 0 -125 23t-85 66.5t-48.5 106t-15.5 142.5q0 73 16.5 135t50.5 107
t87.5 71t126.5 26q79 0 132.5 -27t85.5 -72.5t45 -106.5t13 -129zM1252 322q0 56 -8 99.5t-24.5 72.5t-43.5 43.5t-64 14.5q-35 0 -61 -14t-42.5 -42t-24.5 -69.5t-8 -97.5q0 -68 9.5 -113.5t27 -72t44 -37t60.5 -10.5q40 0 65.5 15t41 44.5t22 71t6.5 95.5zM346 -8
q-5 -9 -12 -13.5t-17 -8t-24 -5t-34 -1.5q-22 0 -35.5 4t-19 10.5t-4 16t9.5 21.5l900 1289q5 8 12 13.5t17.5 8.5t24 4.5t34.5 1.5t34.5 -3.5t19.5 -10.5t4.5 -17t-9.5 -21z" />
    <glyph glyph-name="ampersand" unicode="&#x26;" horiz-adv-x="1397" 
d="M108 341q0 55 15 104.5t47 96t83.5 90t124.5 87.5q-40 54 -68.5 98t-47 82t-26.5 72.5t-8 69.5q0 62 21 118.5t67.5 100t119.5 69t177 25.5q88 0 152.5 -19t107 -54t64 -84.5t21.5 -110.5q0 -59 -19 -108t-61 -95t-107.5 -91.5t-158.5 -95.5q34 -41 74 -85.5t83.5 -89.5
t89 -88.5t89.5 -83.5q20 27 36 61.5t28 73t18 78.5t6 81v36q0 10 3.5 16.5t11.5 11t23.5 6.5t40.5 2q22 0 37.5 -1t25.5 -4.5t14.5 -11t4.5 -20.5v-25q0 -56 -9.5 -110t-26 -105.5t-41 -98.5t-54.5 -87q45 -36 78.5 -60t57 -39t39 -21t25.5 -6t19 1t14.5 -3t8.5 -16t3 -37
t-1 -40t-3.5 -22.5t-8.5 -12.5t-22 -9t-42 -4q-20 0 -44 7t-56 24.5t-74.5 47.5t-99.5 76q-42 -34 -88.5 -63t-99 -49.5t-110 -32t-124.5 -11.5q-63 0 -119.5 11t-104.5 31.5t-86 51.5t-64.5 70.5t-41 88.5t-14.5 106zM403 1054q0 -27 7.5 -55t23 -58.5t38 -65.5t53.5 -78
q73 41 122.5 75.5t79.5 66.5t43.5 64t13.5 68q0 29 -10.5 55.5t-33.5 47t-58 32.5t-84 12q-53 0 -89.5 -13.5t-60 -36t-34.5 -52.5t-11 -62zM287 358q0 -52 17.5 -95t51.5 -74.5t85 -49t118 -17.5q41 0 80 8.5t74.5 23t67.5 35t59 43.5q-52 45 -103.5 93.5t-99.5 97.5
t-92.5 97.5t-81.5 94.5q-50 -32 -83.5 -63.5t-54 -63t-29.5 -63.5t-9 -67zM0 1294z" />
    <glyph glyph-name="quotesingle" unicode="'" horiz-adv-x="452" 
d="M290 902q0 -8 -3.5 -14t-11 -10t-19.5 -6t-30 -2t-30.5 2t-19.5 6t-10.5 10t-3.5 14l-23 463q0 8 5 14t15.5 10t27 6t39.5 2q24 0 40.5 -1.5t27 -6t15 -10.5t3.5 -14z" />
    <glyph glyph-name="parenleft" unicode="(" horiz-adv-x="621" 
d="M495 1378q-95 -201 -141.5 -412.5t-46.5 -425.5q0 -215 47.5 -426t138.5 -414q5 -12 5.5 -20.5t-6.5 -14t-21.5 -8t-39.5 -2.5q-18 0 -31 1t-22.5 4t-15.5 7t-9 9q-54 102 -95 206.5t-69 212.5t-42 218.5t-14 223.5t15.5 223t44 218.5t69.5 213.5t92 208q1 4 5.5 7
t12.5 6t22 4.5t36 1.5q23 0 37 -3t22 -8t9 -13t-3 -17z" />
    <glyph glyph-name="parenright" unicode=")" horiz-adv-x="621" 
d="M487 537q0 -113 -14 -223.5t-42 -218.5t-68.5 -212.5t-94.5 -206.5q-3 -5 -9 -9t-15.5 -7t-22.5 -4t-31 -1q-26 0 -40.5 2.5t-21 8t-6 14t5.5 20.5q92 202 139 413.5t47 426.5q0 214 -47 425.5t-141 412.5q-4 9 -3 17t9 13t22 8t37 3q21 0 35 -1.5t22.5 -4.5t12.5 -6
t6 -7q103 -205 161.5 -421.5t58.5 -441.5z" />
    <glyph glyph-name="asterisk" unicode="*" horiz-adv-x="1020" 
d="M841 935q14 -6 13 -23.5t-24 -56.5q-23 -40 -37.5 -49t-26.5 0l-213 155l28 -262q3 -15 -13 -23t-62 -8t-62 8t-13 23l28 262l-212 -155q-12 -9 -27 0t-38 49q-23 39 -23.5 56.5t13.5 23.5l241 107l-241 106q-14 7 -13.5 24.5t23.5 56.5t38 48t27 0l212 -154l-28 261
q-3 16 13 24t62 8t62 -8t13 -24l-28 -261l213 154q12 9 26.5 0t37.5 -49q23 -38 24 -55.5t-13 -24.5l-241 -106z" />
    <glyph glyph-name="plus" unicode="+" horiz-adv-x="1020" 
d="M950 576q0 -19 -3 -32.5t-8 -22.5t-12 -13t-15 -4h-328v-364q0 -8 -4 -13.5t-12.5 -9.5t-22.5 -6.5t-35 -2.5q-20 0 -34.5 2.5t-23 6.5t-12.5 9.5t-4 13.5v364h-328q-9 0 -15.5 4t-11.5 13t-8 22.5t-3 32.5q0 18 3 31.5t8 22.5t11.5 13t14.5 4h329v364q0 8 4 14.5
t12.5 11t23 7t34.5 2.5q21 0 35 -2.5t22.5 -7t12.5 -11t4 -14.5v-364h329q8 0 14.5 -4t12 -13t8 -22.5t2.5 -31.5z" />
    <glyph glyph-name="comma" unicode="," horiz-adv-x="511" 
d="M371 143q0 -31 -3 -57t-10 -49t-18.5 -45.5t-28.5 -47.5l-137 -206q-5 -7 -11.5 -12t-16 -9t-22 -5.5t-31.5 -1.5q-17 0 -28.5 1.5t-16.5 5t-5.5 9.5t3.5 14l133 275v128q0 27 5.5 43t17.5 24t30 11t44 3q25 0 43 -3t29.5 -11t17 -24t5.5 -43z" />
    <glyph glyph-name="hyphen" unicode="-" horiz-adv-x="627" 
d="M558 505q0 -39 -9 -54t-26 -15h-418q-18 0 -27 15.5t-9 53.5t9 53t27 15h418q8 0 14.5 -3t11 -11.5t7 -21.5t2.5 -32z" />
    <glyph glyph-name="hyphen" unicode="&#x2010;" horiz-adv-x="627" 
d="M558 505q0 -39 -9 -54t-26 -15h-418q-18 0 -27 15.5t-9 53.5t9 53t27 15h418q8 0 14.5 -3t11 -11.5t7 -21.5t2.5 -32z" />
    <glyph glyph-name="hyphen" unicode="&#xad;" horiz-adv-x="627" 
d="M558 505q0 -39 -9 -54t-26 -15h-418q-18 0 -27 15.5t-9 53.5t9 53t27 15h418q8 0 14.5 -3t11 -11.5t7 -21.5t2.5 -32z" />
    <glyph glyph-name="period" unicode="." horiz-adv-x="517" 
d="M366 109q0 -71 -23.5 -94.5t-85.5 -23.5q-60 0 -83 23t-23 92q0 71 23.5 94.5t85.5 23.5q60 0 83 -23t23 -92z" />
    <glyph glyph-name="slash" unicode="/" horiz-adv-x="791" 
d="M168 -241q-4 -13 -10.5 -20.5t-16.5 -11.5t-24.5 -6t-35.5 -2q-25 0 -41.5 3.5t-25.5 10t-11 16t4 22.5l605 1659q4 13 10.5 20.5t16 12t24.5 6t36 1.5q25 0 41 -3.5t25 -9.5t11 -16t-3 -23z" />
    <glyph glyph-name="zero" unicode="0" horiz-adv-x="1038" 
d="M967 650q0 -149 -23.5 -272t-78 -211.5t-142.5 -137t-217 -48.5q-122 0 -205.5 43.5t-134.5 128t-72.5 208t-21.5 283.5q0 148 24 271.5t78 212t142 137t216 48.5q123 0 206.5 -43.5t134.5 -128t72.5 -208t21.5 -283.5zM791 638q0 97 -7 174t-20.5 136t-35 101.5
t-51.5 70t-68.5 40t-86.5 12.5q-85 0 -138 -40t-83.5 -110t-41.5 -164t-11 -202q0 -145 15 -246.5t47.5 -165.5t83 -93t122.5 -29q56 0 98.5 18t73 51.5t50.5 80.5t32 104t16.5 123.5t4.5 138.5z" />
    <glyph glyph-name="one" unicode="1" horiz-adv-x="1038" 
d="M927 68q0 -19 -3 -32t-8 -21t-11.5 -11.5t-13.5 -3.5h-676q-7 0 -13 3.5t-11.5 11.5t-8.5 21t-3 32q0 18 3 31t7.5 21.5t11 13t14.5 4.5h270v984l-250 -149q-19 -10 -30.5 -12t-18.5 4.5t-9.5 21.5t-2.5 38q0 17 1.5 29t4.5 20t8.5 14t14.5 12l298 191q4 3 10 5t15 4
t21 2.5t30 0.5q24 0 40 -2t25 -5.5t12 -9t3 -11.5v-1137h234q8 0 15 -4.5t11.5 -13t7 -21.5t2.5 -31z" />
    <glyph glyph-name="two" unicode="2" horiz-adv-x="1038" 
d="M924 74q0 -18 -2.5 -32t-7 -23.5t-12 -14t-16.5 -4.5h-715q-14 0 -24.5 3.5t-18 11.5t-11 23t-3.5 37q0 20 1.5 35t6.5 26.5t12.5 23t19.5 24.5l251 266q87 92 139.5 165t81 133t37.5 109t9 92t-14 81.5t-40.5 67.5t-66.5 46t-92 17q-61 0 -109.5 -17t-85 -37t-61 -37
t-36.5 -17q-7 0 -12.5 4t-9 13t-5.5 24t-2 36q0 15 1 26t3.5 19t6.5 15t16 17.5t41.5 28.5t74 35.5t98 29.5t112.5 12q94 0 164.5 -26.5t117 -72.5t69.5 -107t23 -130q0 -62 -11 -123.5t-46.5 -133t-102.5 -159t-178 -201.5l-205 -214h563q8 0 15.5 -4.5t13 -13.5t8 -22.5
t2.5 -31.5z" />
    <glyph glyph-name="three" unicode="3" horiz-adv-x="1038" 
d="M914 370q0 -89 -31 -160.5t-89 -122.5t-143 -78.5t-192 -27.5q-65 0 -121.5 10.5t-100.5 25t-73 30t-36.5 22.5t-11.5 14t-7 17t-4.5 24.5t-1.5 35.5q0 36 7 50t20 14q9 0 35.5 -16t68 -34.5t97 -34.5t123.5 -16q66 0 116 17t84 48t51 73.5t17 92.5q0 55 -21.5 99t-63 76
t-102 49t-137.5 17h-123q-8 0 -15.5 3.5t-13 11.5t-9 21t-3.5 34q0 19 3 31.5t8.5 20t12.5 11t16 3.5h113q66 0 118.5 17t89 49t56 76.5t19.5 99.5q0 40 -13 76.5t-39 63.5t-66.5 42.5t-93.5 15.5q-58 0 -106.5 -17.5t-86.5 -37.5t-63 -37.5t-35 -17.5q-7 0 -12.5 2.5t-9 10
t-5 21t-1.5 35.5q0 15 1 26.5t4 20t7 15.5t13.5 16.5t38.5 27.5t71.5 35.5t98 29.5t119.5 12q90 0 158 -23t113.5 -65t68 -100.5t22.5 -129.5q0 -61 -16 -113.5t-47 -93t-76 -69t-104 -39.5v-2q67 -7 122.5 -33.5t95.5 -66.5t62.5 -93.5t22.5 -114.5z" />
    <glyph glyph-name="four" unicode="4" horiz-adv-x="1038" 
d="M979 368q0 -33 -10 -52t-28 -19h-146v-272q0 -8 -4 -13.5t-14 -9.5t-26 -6t-41 -2q-24 0 -40 2t-25.5 6t-13 9.5t-3.5 13.5v272h-534q-12 0 -20 3t-14.5 11t-9 23t-2.5 39q0 19 1 34t4 27.5t8 24t12 24.5l466 786q5 8 14.5 14t24.5 10t37 5.5t52 1.5q33 0 57.5 -2.5
t39.5 -6.5t23 -10.5t8 -15.5v-826h146q17 0 27.5 -17.5t10.5 -53.5zM628 1149h-2l-421 -710h423v710z" />
    <glyph glyph-name="five" unicode="5" horiz-adv-x="1038" 
d="M918 416q0 -104 -35 -185t-99 -136.5t-152.5 -84.5t-196.5 -29q-60 0 -114 8.5t-96 21t-69 24.5t-34.5 19t-10.5 13t-5.5 14.5t-3.5 21.5t-1 31q0 17 1.5 30.5t5.5 22t9.5 12.5t12.5 4q10 0 31 -12.5t56.5 -27t88 -27.5t124.5 -13q67 0 123 16t96.5 50t63.5 85.5
t23 125.5q0 62 -19.5 109.5t-60 79t-102.5 47t-148 15.5q-61 0 -105 -6t-82 -6q-28 0 -40 13t-12 50v527q0 33 15.5 49t44.5 16h573q8 0 15.5 -4.5t12.5 -13.5t7.5 -23t2.5 -33q0 -36 -10 -56t-28 -20h-483v-363q35 5 71.5 6t84.5 1q111 0 194 -26.5t138.5 -75t84 -117.5
t28.5 -153z" />
    <glyph glyph-name="six" unicode="6" horiz-adv-x="1038" 
d="M957 419q0 -85 -26 -164.5t-80 -140t-137 -97t-196 -36.5q-81 0 -143 20t-108 57t-76.5 91t-49 123t-26.5 151t-8 176q0 83 9 168t32 164t62.5 148.5t99 121t142.5 81.5t193 30q37 0 75 -4.5t70 -12t54 -16.5t29 -14.5t10.5 -12t5.5 -14t3 -17t1 -23.5q0 -18 -0.5 -31
t-4 -21t-9 -12t-14.5 -4q-11 0 -30 7t-46 15.5t-65.5 15.5t-89.5 7q-93 0 -160 -38t-109.5 -102t-63 -148.5t-23.5 -176.5q26 15 58.5 30t71 27t81.5 19.5t92 7.5q105 0 177 -28.5t116.5 -79t63.5 -119t19 -148.5zM783 403q0 58 -11.5 105.5t-38.5 80.5t-72 51t-111 18
q-37 0 -74 -6.5t-71.5 -18t-66 -27t-57.5 -33.5q0 -129 16.5 -216t48 -139.5t78.5 -75t110 -22.5q64 0 111 24t78 64.5t45.5 91t14.5 103.5z" />
    <glyph glyph-name="seven" unicode="7" horiz-adv-x="1038" 
d="M943 1220q0 -18 -1.5 -32.5t-4 -28t-7 -26t-10.5 -26.5l-466 -1074q-5 -12 -12.5 -19.5t-19 -12t-29.5 -6t-44 -1.5q-34 0 -53 3t-27.5 9.5t-7.5 16t7 22.5l490 1098h-621q-19 0 -28.5 20t-9.5 56q0 19 2.5 33t7.5 23.5t12 14t16 4.5h754q14 0 24.5 -3t16 -12t8.5 -23
t3 -36z" />
    <glyph glyph-name="eight" unicode="8" horiz-adv-x="1038" 
d="M954 332q0 -84 -30 -149.5t-86.5 -110.5t-139.5 -68t-190 -23q-100 0 -179 21t-134 62t-84 101t-29 137q0 61 20 112t57.5 94t92.5 80.5t124 71.5q-60 31 -106 65.5t-78 75t-48.5 86.5t-16.5 100q0 68 24.5 127.5t74 103.5t126 69.5t178.5 25.5q98 0 169.5 -23.5t118 -64
t68.5 -95.5t22 -118q0 -51 -16.5 -98t-48.5 -89t-78.5 -78.5t-106.5 -68.5q71 -35 126.5 -72t93 -79.5t57 -90t19.5 -104.5zM738 996q0 42 -14.5 76t-42.5 58t-69.5 36.5t-94.5 12.5q-108 0 -163.5 -49t-55.5 -134q0 -39 13.5 -72.5t42 -63.5t72 -58.5t103.5 -59.5
q101 52 155 115t54 139zM780 314q0 46 -17 83.5t-51.5 70t-86 63t-119.5 63.5q-63 -31 -110.5 -62t-78 -64t-46 -69.5t-15.5 -80.5q0 -97 66.5 -150t198.5 -53q128 0 193.5 53.5t65.5 145.5z" />
    <glyph glyph-name="nine" unicode="9" horiz-adv-x="1038" 
d="M934 698q0 -84 -10 -170t-34 -165.5t-64.5 -149t-102 -121.5t-146 -81.5t-196.5 -29.5q-43 0 -83.5 5.5t-73 13.5t-54.5 17t-32 18t-14.5 24.5t-4.5 41.5q0 22 1.5 35t4.5 20t8.5 9.5t13.5 2.5q11 0 31 -7.5t50.5 -16.5t71.5 -16.5t92 -7.5q97 0 166.5 37.5t113.5 100.5
t66 146t24 175q-53 -31 -127 -55t-170 -24q-108 0 -181.5 29.5t-118 80.5t-64 121t-19.5 153q0 86 25 163.5t78 136.5t135 94t196 35q81 0 143.5 -20.5t108.5 -59t78 -93t51.5 -123.5t28 -149.5t8.5 -169.5zM759 717q0 128 -17 215.5t-50 141.5t-81 78t-111 24
q-65 0 -111 -23.5t-75.5 -63t-43.5 -89.5t-14 -103q0 -59 12.5 -108t40.5 -83t73 -52.5t111 -18.5q75 0 145 22.5t121 59.5z" />
    <glyph glyph-name="colon" unicode=":" horiz-adv-x="548" 
d="M397 800q0 -32 -4.5 -54t-17 -35.5t-32.5 -19t-51 -5.5q-32 0 -52 5.5t-32 19t-16.5 35.5t-4.5 54q0 34 4.5 56.5t16.5 36t32 19t52 5.5q31 0 51 -5.5t32.5 -19t17 -36t4.5 -56.5zM397 106q0 -33 -4.5 -55t-17 -35.5t-32.5 -19t-51 -5.5q-32 0 -52 5.5t-32 19t-16.5 35.5
t-4.5 55t4.5 55.5t16.5 35.5t32 19t52 6q31 0 51 -6t32.5 -19t17 -35.5t4.5 -55.5z" />
    <glyph glyph-name="semicolon" unicode=";" horiz-adv-x="548" 
d="M397 800q0 -32 -4.5 -54t-17 -35.5t-32.5 -19t-51 -5.5q-32 0 -52 5.5t-32 19t-16.5 35.5t-4.5 54q0 34 4.5 56.5t16.5 36t32 19t52 5.5q31 0 51 -5.5t32.5 -19t17 -36t4.5 -56.5zM397 143q0 -31 -3 -57t-9.5 -49t-18 -45.5t-28.5 -47.5l-136 -204q-5 -8 -11.5 -13
t-15.5 -8.5t-21.5 -5.5t-30.5 -2q-17 0 -28.5 1.5t-16.5 5.5t-5.5 9.5t3.5 14.5l131 273v128q0 27 6 43t17.5 24t29.5 11t43 3q24 0 42 -3t29.5 -11t17 -24t5.5 -43z" />
    <glyph glyph-name="less" unicode="&#x3c;" horiz-adv-x="1020" 
d="M919 162q0 -25 -2 -40.5t-7 -22t-12.5 -5.5t-18.5 7l-788 398q-10 5 -16 24t-6 55q0 16 1.5 30t5 23t8 15.5t10.5 8.5l785 396q23 11 31.5 -1t8.5 -59q0 -29 -1.5 -46t-5 -27.5t-10 -16t-18.5 -11.5l-644 -315l640 -310q13 -7 20.5 -12.5t11.5 -16t5.5 -28t1.5 -46.5z
" />
    <glyph glyph-name="equal" unicode="=" horiz-adv-x="1020" 
d="M925 771q0 -40 -11.5 -55.5t-26.5 -15.5h-756q-15 0 -26 15.5t-11 55.5q0 36 10 53t27 17h756q18 0 28 -17t10 -53zM925 382q0 -40 -11.5 -55t-26.5 -15h-756q-15 0 -26 15t-11 55q0 37 10 54t27 17h756q18 0 28 -17t10 -54z" />
    <glyph glyph-name="greater" unicode="&#x3e;" horiz-adv-x="1020" 
d="M952 574q0 -17 -2 -30.5t-5 -23.5t-8 -15.5t-11 -8.5l-785 -396q-11 -5 -19 -5.5t-12.5 6.5t-6.5 21.5t-2 37.5q0 28 1 45t4.5 27.5t10.5 16.5t18 11l645 317l-641 309q-13 6 -20.5 11.5t-11.5 16.5t-5 28.5t-1 46.5q0 26 2 40.5t6.5 21t12.5 5.5t19 -7l788 -397
q10 -5 16.5 -24.5t6.5 -53.5z" />
    <glyph glyph-name="question" unicode="?" horiz-adv-x="949" 
d="M855 991q0 -88 -25 -156t-70 -116t-108 -75t-140 -32l-7 -241q0 -15 -17.5 -22.5t-56.5 -7.5q-21 0 -36 1.5t-24 5t-13 9.5t-4 14l-6 277q-1 23 3.5 37.5t13.5 24t23 13t32 3.5h22q65 0 111 20.5t74.5 54.5t41.5 80t13 96q0 57 -16 104.5t-48 82t-80.5 53.5t-114.5 19
q-58 0 -101.5 -12.5t-75.5 -27.5t-52.5 -27t-30.5 -12q-7 0 -12.5 3t-9.5 11.5t-6 23t-2 36.5q0 24 3 36.5t13 22t38.5 25t69 28.5t89 22t100.5 9q107 0 184 -30.5t127 -82.5t74 -122t24 -148zM539 104q0 -33 -4.5 -54.5t-16.5 -35t-32.5 -19t-50.5 -5.5q-32 0 -52 5.5
t-32.5 19t-17 35t-4.5 54.5t4.5 55.5t17 35t32.5 18t52 5.5q30 0 50.5 -5.5t32.5 -18t16.5 -35t4.5 -55.5z" />
    <glyph glyph-name="at" unicode="@" horiz-adv-x="1831" 
d="M1656 769q0 -68 -8.5 -139t-27.5 -138t-50 -126.5t-76 -104.5t-104.5 -70.5t-136.5 -25.5q-41 0 -76 9.5t-62 27.5t-45.5 46.5t-25.5 65.5q-40 -40 -77.5 -68.5t-73.5 -46.5t-70.5 -26t-67.5 -8q-43 0 -76 8.5t-58.5 25t-43.5 40.5t-30 54t-17 66t-5 78q0 43 7 98.5
t23 114.5t44 115.5t69.5 101t98.5 72t133 27.5q32 0 61.5 -7.5t56.5 -23.5t52 -40t51 -57l17 88q4 14 18 21t52 7q18 0 30.5 -2t19.5 -5.5t9.5 -8.5t0.5 -12l-89 -460q-16 -87 8 -128.5t91 -41.5q41 0 74 20.5t58 55.5t42 81.5t28 98t16 105.5t5 104q0 87 -23.5 165.5
t-80.5 138t-152.5 95t-239.5 35.5q-118 0 -210 -26t-162 -70.5t-120 -102.5t-84.5 -123.5t-55.5 -134t-32 -132t-14.5 -119.5t-3.5 -95q0 -111 25.5 -203t88.5 -159t169 -104t267 -37q73 0 132 8.5t102.5 18t70.5 18t37 8.5q6 0 10.5 -3.5t7 -11t3.5 -19t1 -28.5
q0 -14 -0.5 -23t-2.5 -16.5t-5.5 -13.5t-9.5 -11t-34.5 -15t-77 -20t-113.5 -17t-143 -7q-187 0 -316.5 44t-211 126t-117.5 197t-36 257q0 52 5.5 119.5t21 144t43.5 156t72.5 155.5t108 143.5t150 118t198 79.5t252.5 29q164 0 283.5 -39.5t197.5 -111.5t116 -175.5
t38 -230.5zM1076 704q-38 64 -78 98t-91 34q-42 0 -76 -20.5t-59 -53t-42.5 -73.5t-28.5 -84t-15.5 -83.5t-4.5 -71.5q0 -74 26.5 -114t89.5 -40q24 0 49 8.5t53 26t59.5 46t69.5 67.5zM0 1294z" />
    <glyph glyph-name="A" unicode="A" horiz-adv-x="1185" 
d="M1141 61q8 -22 8.5 -35.5t-7.5 -20.5t-26.5 -9t-49.5 -2t-49.5 1.5t-28 5t-14 9.5t-8.5 15l-111 315h-538l-106 -311q-3 -9 -8 -15.5t-14.5 -11t-27 -6.5t-45.5 -2q-29 0 -47.5 2.5t-26 9.5t-7 20.5t8.5 35.5l434 1202q4 11 10.5 18t19 11t32 5.5t49.5 1.5q32 0 53 -1.5
t34 -5.5t20 -11.5t11 -18.5zM584 1122h-1l-223 -645h450z" />
    <glyph glyph-name="B" unicode="B" horiz-adv-x="1114" 
d="M1025 371q0 -61 -15.5 -112.5t-43.5 -92.5t-67.5 -72t-89 -52t-106 -31.5t-129.5 -10.5h-338q-23 0 -43.5 15.5t-20.5 54.5v1154q0 39 20.5 54.5t43.5 15.5h294q116 0 190 -22t123.5 -64t74.5 -103t25 -138q0 -46 -11 -88t-32.5 -77.5t-54 -63.5t-74.5 -46
q53 -10 99 -36.5t80.5 -67.5t54.5 -96t20 -121zM766 950q0 47 -13 85t-41 64.5t-73 40.5t-119 14h-178v-419h196q67 0 108 17.5t68 47t39.5 69t12.5 81.5zM844 361q0 58 -18.5 102t-54 74t-89 45.5t-134.5 15.5h-206v-456h250q59 0 103 14t77.5 41.5t52.5 68.5t19 95z" />
    <glyph glyph-name="C" unicode="C" horiz-adv-x="1092" 
d="M1036 183q0 -16 -1 -28t-3.5 -21t-6.5 -16t-14 -17t-42 -30.5t-79.5 -40t-109 -33t-134.5 -13.5q-126 0 -227.5 42t-173 124t-110 202.5t-38.5 277.5q0 161 41.5 287t116.5 213.5t179.5 133.5t231.5 46q56 0 109 -10.5t98 -26.5t80 -37t48.5 -34.5t17.5 -20.5t6.5 -16.5
t4 -22.5t1.5 -31q0 -20 -2 -34t-6 -23.5t-9.5 -14t-13.5 -4.5q-14 0 -39 19.5t-64.5 43t-96 43t-135.5 19.5q-86 0 -156.5 -34.5t-120.5 -101.5t-77.5 -163.5t-27.5 -220.5q0 -123 26.5 -217.5t76 -158t121.5 -96t163 -32.5q77 0 134.5 19t98 42.5t66.5 42.5t41 19
q7 0 12 -3t8 -11.5t4.5 -23.5t1.5 -38z" />
    <glyph glyph-name="D" unicode="D" horiz-adv-x="1260" 
d="M1167 666q0 -168 -43 -293.5t-125.5 -208t-202.5 -123.5t-286 -41h-274q-23 0 -43.5 15.5t-20.5 54.5v1154q0 39 20.5 54.5t43.5 15.5h293q168 0 284 -43.5t194.5 -125t119 -197.5t40.5 -262zM986 659q0 105 -26 195.5t-81.5 156.5t-140.5 103t-219 37h-175v-1007h177
q124 0 209 31t142 95t85.5 160.5t28.5 228.5z" />
    <glyph glyph-name="E" unicode="E" horiz-adv-x="1000" 
d="M892 71q0 -18 -2 -31.5t-7 -22.5t-11.5 -13t-14.5 -4h-621q-23 0 -43.5 15.5t-20.5 54.5v1154q0 39 20.5 54.5t43.5 15.5h614q8 0 14.5 -4t10.5 -13t6.5 -22.5t2.5 -33.5q0 -18 -2.5 -31.5t-6.5 -22t-10.5 -12.5t-14.5 -4h-506v-406h434q8 0 14.5 -4.5t11 -12.5t6.5 -22
t2 -33q0 -18 -2 -31t-6.5 -21t-11 -11.5t-14.5 -3.5h-434v-463h513q8 0 14.5 -4t11.5 -12.5t7 -22t2 -33.5z" />
    <glyph glyph-name="F" unicode="F" horiz-adv-x="941" 
d="M852 1220q0 -19 -2 -33t-7 -22.5t-11.5 -12.5t-13.5 -4h-474v-440h448q7 0 13.5 -3.5t11.5 -11.5t7 -21.5t2 -34.5q0 -19 -2 -32.5t-7 -22t-11.5 -13t-13.5 -4.5h-448v-539q0 -7 -4 -13.5t-14 -10t-26 -6t-42 -2.5q-24 0 -41 2.5t-27 6t-14 10t-4 13.5v1198
q0 39 20.5 54.5t43.5 15.5h582q7 0 13.5 -4t11.5 -13t7 -23.5t2 -33.5z" />
    <glyph glyph-name="G" unicode="G" horiz-adv-x="1292" 
d="M1144 1118q0 -19 -2 -33.5t-6 -24t-10 -13.5t-13 -4q-12 0 -40 19t-75 42t-112.5 42t-155.5 19q-107 0 -192 -39t-144 -108t-90.5 -164t-31.5 -206q0 -124 34.5 -220t95.5 -162t145.5 -100t185.5 -34q60 0 121.5 14.5t114.5 43.5v377h-300q-17 0 -25.5 17t-8.5 53
q0 19 2 32.5t6.5 22t10.5 12.5t15 4h411q11 0 22 -4t20 -12t14 -22t5 -32v-493q0 -26 -9 -45t-38 -33.5t-75 -31.5t-95 -29t-99 -18t-99 -6q-150 0 -268 46.5t-199.5 132.5t-124.5 206t-43 268q0 154 46.5 279t131 213t203 136.5t262.5 48.5q74 0 139 -13t115.5 -30.5
t85 -38t47.5 -33.5t18 -30t5 -49z" />
    <glyph glyph-name="H" unicode="H" horiz-adv-x="1276" 
d="M1104 26q0 -8 -4 -14t-14 -9.5t-26.5 -6t-40.5 -2.5q-26 0 -42 2.5t-26 6t-14 9.5t-4 14v574h-589v-574q0 -8 -4 -14t-14 -9.5t-26.5 -6t-41.5 -2.5q-24 0 -41 2.5t-27 6t-14 9.5t-4 14v1242q0 8 4 14t14 9.5t27 6t41 2.5q25 0 41.5 -2.5t26.5 -6t14 -9.5t4 -14v-518h589
v518q0 8 4 14t14 9.5t26 6t42 2.5q24 0 40.5 -2.5t26.5 -6t14 -9.5t4 -14v-1242z" />
    <glyph glyph-name="I" unicode="I" horiz-adv-x="516" 
d="M344 26q0 -8 -4 -14t-14 -9.5t-26.5 -6t-41.5 -2.5q-24 0 -41 2.5t-27 6t-14 9.5t-4 14v1242q0 8 4.5 14t15 9.5t27 6t39.5 2.5q25 0 41.5 -2.5t26.5 -6t14 -9.5t4 -14v-1242z" />
    <glyph glyph-name="J" unicode="J" horiz-adv-x="653" 
d="M484 326q0 -77 -14 -141t-48 -109t-89.5 -69.5t-137.5 -24.5q-28 0 -55.5 4.5t-50.5 12t-40 16t-22.5 14.5t-9 12t-6 14.5t-3.5 21t-1 30.5q0 22 1.5 36.5t5.5 23t9.5 12t13.5 3.5t20.5 -7.5t30 -16.5t40.5 -16.5t54 -7.5q34 0 58 8.5t40 31.5t24 63.5t8 105.5v926
q0 7 4 13t14 10t26.5 6t41.5 2q24 0 41 -2t26.5 -6t14 -10t4.5 -13v-943z" />
    <glyph glyph-name="K" unicode="K" horiz-adv-x="1064" 
d="M1016 28q0 -8 -3.5 -14.5t-13.5 -10.5t-27 -6.5t-44 -2.5q-35 0 -57 3t-33 11t-18 18l-476 647v-647q0 -7 -4 -13.5t-14 -10t-26.5 -6t-41.5 -2.5q-24 0 -41 2.5t-27 6t-14 10t-4 13.5v1242q0 8 4 14t14 9.5t27 6t41 2.5q25 0 41.5 -2.5t26.5 -6t14 -9.5t4 -14v-575
l458 575q6 9 14 15t19.5 9.5t28 5.5t42.5 2t42 -2.5t25.5 -6.5t13 -10t3.5 -13q0 -13 -6.5 -26t-24.5 -36l-429 -513l462 -614q17 -26 20.5 -35.5t3.5 -15.5z" />
    <glyph glyph-name="L" unicode="L" horiz-adv-x="861" 
d="M843 75q0 -20 -2 -33.5t-6.5 -23t-11 -14t-15.5 -4.5h-572q-23 0 -43.5 15.5t-20.5 54.5v1198q0 8 4 14t14 9.5t27 6t41 2.5q25 0 41.5 -2.5t26.5 -6t14 -9.5t4 -14v-1119h464q9 0 15.5 -4.5t11 -13t6.5 -22.5t2 -34z" />
    <glyph glyph-name="M" unicode="M" horiz-adv-x="1751" 
d="M1579 26q0 -8 -4 -14t-14 -9.5t-25.5 -6t-40.5 -2.5q-23 0 -39.5 2.5t-26 6t-13.5 9.5t-4 14v1127h-2l-461 -1132q-3 -7 -8.5 -12t-16 -8.5t-25 -5t-34.5 -1.5q-21 0 -36 2t-25 5.5t-15.5 8.5t-7.5 11l-441 1132h-1v-1127q0 -8 -4 -14t-14 -9.5t-26 -6t-41 -2.5
q-24 0 -40 2.5t-25.5 6t-13 9.5t-3.5 14v1190q0 42 22 60t49 18h104q32 0 56 -6t42 -19t30 -33t21 -47l375 -937h5l390 934q11 30 24 51t28.5 33.5t34.5 18t44 5.5h109q15 0 28.5 -4.5t23 -14t15.5 -24t6 -35.5v-1190z" />
    <glyph glyph-name="N" unicode="N" horiz-adv-x="1322" 
d="M1150 71q0 -20 -6.5 -34t-17 -23t-23.5 -13t-26 -4h-55q-26 0 -45.5 5.5t-37 20t-35 39.5t-38.5 64l-408 736q-32 57 -64.5 119.5t-60.5 121.5h-2q2 -72 3 -147t1 -149v-781q0 -7 -4 -13.5t-13.5 -10t-25 -6t-39.5 -2.5t-39.5 2.5t-24.5 6t-13 10t-4 13.5v1194
q0 40 22 57t48 17h82q29 0 48.5 -5t35 -16.5t30 -32t31.5 -51.5l314 -568q29 -52 56 -101.5t52 -97.5t49.5 -94.5t48.5 -93.5h1q-2 79 -2.5 164.5t-0.5 164.5v702q0 7 4 13t13.5 10.5t25 6.5t40.5 2q22 0 38 -2t25 -6.5t13 -10.5t4 -13v-1194z" />
    <glyph glyph-name="O" unicode="O" horiz-adv-x="1356" 
d="M1256 662q0 -157 -37 -283t-110.5 -214.5t-184.5 -136t-259 -47.5q-146 0 -252.5 43.5t-176 126.5t-103.5 206t-34 283q0 153 37 278t111 212.5t185 135t259 47.5q143 0 249 -43t176.5 -125.5t105 -204t34.5 -278.5zM1075 650q0 110 -19.5 204.5t-65 164t-121.5 108.5
t-188 39t-188 -42t-123.5 -112t-68 -163.5t-20.5 -196.5q0 -114 19 -210t64 -165.5t120.5 -108t189.5 -38.5q113 0 190 42t124 113.5t67 165.5t20 199z" />
    <glyph glyph-name="P" unicode="P" horiz-adv-x="1058" 
d="M967 915q0 -97 -32 -175t-91.5 -133t-146 -85t-206.5 -30h-147v-466q0 -8 -4.5 -14t-14 -9.5t-26 -6t-41.5 -2.5t-41.5 2.5t-26.5 6t-14 9.5t-4 14v1194q0 40 21 57t47 17h277q42 0 80.5 -3.5t91 -15t107 -43t92.5 -77.5t58.5 -106.5t20.5 -133.5zM786 901
q0 79 -29.5 132t-73 79t-90 33t-90.5 7h-159v-519h155q78 0 129.5 20t86.5 55.5t53 85t18 107.5z" />
    <glyph glyph-name="Q" unicode="Q" horiz-adv-x="1378" 
d="M1415 -114q0 -23 -2.5 -38.5t-7.5 -24t-11 -11.5t-12 -3q-20 0 -64.5 16.5t-102.5 48t-124 76.5t-128 105q-49 -30 -124 -52t-174 -22q-146 0 -252.5 43t-176 126t-103.5 206.5t-34 283.5q0 154 37 278.5t111 212t185 135t259 47.5q139 0 244.5 -43t177 -125.5
t107.5 -203.5t36 -278q0 -81 -9.5 -155t-30 -140t-51.5 -122t-73 -101q73 -60 128 -93.5t91 -50.5t56 -24.5t30 -17t14 -27t4 -46.5zM1075 651q0 110 -19.5 204t-65 163.5t-121.5 108.5t-188 39t-188 -41.5t-123.5 -112t-68 -163.5t-20.5 -197q0 -114 19 -209.5t64 -165.5
t120.5 -108.5t189.5 -38.5q113 0 190 42t124 113.5t67 166t20 199.5z" />
    <glyph glyph-name="R" unicode="R" horiz-adv-x="1112" 
d="M1035 26q0 -8 -3 -14t-13 -10t-28 -6t-48 -2q-26 0 -42.5 2t-26.5 6.5t-15.5 12.5t-9.5 20l-119 305q-21 52 -43.5 95.5t-53.5 75t-73 49t-101 17.5h-115v-551q0 -8 -4.5 -14t-14 -9.5t-26 -6t-41.5 -2.5t-41.5 2.5t-26.5 6t-14 9.5t-4 14v1198q0 39 20.5 54.5t43.5 15.5
h275q49 0 81.5 -2.5t58.5 -5.5q75 -13 132.5 -41t96.5 -71t58.5 -98.5t19.5 -122.5q0 -65 -17.5 -116.5t-50.5 -91t-79 -68.5t-103 -49q32 -14 58 -35.5t48.5 -51.5t42.5 -69t40 -88l116 -285q14 -36 18 -50.5t4 -22.5zM776 935q0 76 -34 128.5t-114 75.5q-25 7 -56.5 10
t-82.5 3h-145v-436h168q68 0 117.5 16.5t82.5 46t48.5 69.5t15.5 87z" />
    <glyph glyph-name="S" unicode="S" horiz-adv-x="941" 
d="M867 363q0 -91 -33.5 -162t-93 -120.5t-140 -74.5t-173.5 -25q-65 0 -120.5 11t-99 27t-73 33t-41 29t-17 30.5t-5.5 49.5q0 22 2 36.5t6 23.5t10 12.5t14 3.5q14 0 39.5 -17t65.5 -37t96.5 -37.5t130.5 -17.5q56 0 102.5 15t80 42.5t51.5 67.5t18 91q0 55 -25 94
t-66 68.5t-93.5 54t-107.5 50t-107 56.5t-93 73t-66.5 98.5t-25.5 135.5q0 81 29.5 144.5t82 106.5t125 65.5t156.5 22.5q43 0 86.5 -7.5t82 -20t68.5 -28t39.5 -25t12.5 -15t5 -14t3 -20.5t1 -31q0 -18 -1.5 -32t-4.5 -23.5t-8.5 -14t-12.5 -4.5q-11 0 -34.5 14t-57.5 31.5
t-80.5 32t-104.5 14.5q-54 0 -94 -14.5t-66 -38.5t-39 -57t-13 -70q0 -54 25 -93t66.5 -69t94.5 -55t108 -50.5t108 -56t94.5 -72t67 -98t25.5 -133.5z" />
    <glyph glyph-name="T" unicode="T" horiz-adv-x="998" 
d="M983 1220q0 -19 -2 -33t-6.5 -22.5t-11 -12.5t-14.5 -4h-364v-1122q0 -8 -4 -14t-14 -9.5t-26.5 -6t-41.5 -2.5q-24 0 -41 2.5t-27 6t-14 9.5t-4 14v1122h-364q-8 0 -14.5 4t-10.5 12.5t-6.5 22.5t-2.5 33t2.5 33.5t6.5 23.5t10.5 13t14.5 4h900q8 0 14.5 -4t11 -13
t6.5 -23.5t2 -33.5z" />
    <glyph glyph-name="U" unicode="U" horiz-adv-x="1314" 
d="M1145 478q0 -118 -34.5 -210.5t-98.5 -156.5t-156 -97t-209 -33q-107 0 -195 31t-151 91.5t-97 151.5t-34 210v803q0 8 4 14t14 9.5t26 6t42 2.5q24 0 41 -2.5t26.5 -6t13.5 -9.5t4 -14v-782q0 -90 22 -157t63.5 -111.5t100 -67t131.5 -22.5q75 0 133.5 22t99 66t62 109
t21.5 152v791q0 8 4 14t14 9.5t26.5 6t41.5 2.5q24 0 40.5 -2.5t26 -6t14 -9.5t4.5 -14v-790z" />
    <glyph glyph-name="V" unicode="V" horiz-adv-x="1162" 
d="M695 30q-4 -11 -11 -18t-19.5 -11t-32 -5.5t-48.5 -1.5q-22 0 -38.5 0.5t-28.5 2.5t-20.5 4.5t-14.5 6.5t-9.5 9.5t-6.5 13.5l-423 1202q-8 22 -8.5 35.5t8.5 20.5t29 9t54 2q28 0 44.5 -1.5t25.5 -5.5t13.5 -10.5t8.5 -16.5l371 -1089h1l361 1087q3 11 7 18t14 11
t28 5.5t48 1.5q31 0 49 -2.5t24.5 -9.5t5 -20.5t-9.5 -35.5z" />
    <glyph glyph-name="W" unicode="W" horiz-adv-x="1822" 
d="M1411 38q-4 -14 -12 -22.5t-22 -13t-34.5 -6.5t-50.5 -2q-31 0 -52.5 2t-35.5 6.5t-21 13t-11 22.5l-271 977h-2l-250 -977q-3 -14 -10 -22.5t-20 -13t-33.5 -6.5t-52.5 -2q-33 0 -55 2t-36 6.5t-21.5 13t-10.5 22.5l-342 1195q-6 23 -6.5 36t8 20t27.5 9t51 2
q31 0 49 -1.5t27.5 -5.5t13 -11t5.5 -18l291 -1084h1l276 1082q3 11 7.5 18.5t14.5 11.5t28.5 6t48.5 2q28 0 44.5 -2t26.5 -6t14.5 -11.5t7.5 -18.5l297 -1082h2l285 1083q3 10 6 17.5t12.5 11.5t27 6t46.5 2q30 0 47.5 -2.5t25.5 -9.5t7.5 -20t-5.5 -36z" />
    <glyph glyph-name="X" unicode="X" horiz-adv-x="1063" 
d="M996 62q13 -22 15.5 -35t-6.5 -20.5t-29.5 -10t-54.5 -2.5q-32 0 -50 1.5t-28.5 5.5t-16 9.5t-9.5 14.5l-288 515l-291 -515q-5 -9 -11 -15t-16.5 -9.5t-28.5 -5t-48 -1.5q-33 0 -52 2.5t-26.5 10t-5 20.5t15.5 35l353 595l-337 575q-12 22 -15.5 35.5t4.5 21t28 9.5
t55 2q30 0 49 -1.5t30 -5t16 -10t11 -14.5l278 -484l276 484q5 8 10 14.5t14.5 10t26.5 5t46 1.5q31 0 50.5 -2.5t28 -9.5t6.5 -20.5t-14 -35.5l-336 -571z" />
    <glyph glyph-name="Y" unicode="Y" horiz-adv-x="998" 
d="M585 503v-477q0 -8 -4 -14t-14 -9.5t-27 -6t-41 -2.5q-25 0 -41.5 2.5t-27 6t-14.5 9.5t-4 14v477l-366 730q-11 23 -13.5 36t5 20t27 9t52.5 2q30 0 48.5 -2t29.5 -5.5t16.5 -10t10.5 -16.5l179 -372q25 -53 50 -111t51 -117h2q23 57 47.5 113.5t49.5 111.5l180 374
q3 10 8.5 17t15 10.5t26.5 5.5t43 2q36 0 56.5 -2.5t28.5 -9.5t5.5 -20t-13.5 -35z" />
    <glyph glyph-name="Z" unicode="Z" horiz-adv-x="959" 
d="M916 72q0 -19 -2 -32.5t-6.5 -22.5t-11 -13t-15.5 -4h-764q-26 0 -42 16t-16 51v37q0 13 1.5 24t6.5 23.5t14 28t22 36.5l597 934h-590q-10 0 -17 4t-11.5 12.5t-6.5 22t-2 31.5q0 20 2 34t6.5 23t11.5 13t17 4h720q27 0 42.5 -15.5t15.5 -47.5v-39q0 -16 -2 -28.5
t-7 -25.5t-13.5 -28t-22.5 -35l-594 -930h632q17 0 26 -17t9 -56z" />
    <glyph glyph-name="bracketleft" unicode="[" horiz-adv-x="628" 
d="M539 -260q0 -33 -7.5 -46.5t-21.5 -13.5h-256q-12 0 -23 3.5t-20 11.5t-14.5 21.5t-5.5 33.5v1579q0 19 5.5 32.5t14.5 22t20 12t23 3.5h256q6 0 11.5 -3t9.5 -11t6 -19.5t2 -28.5q0 -32 -7.5 -46t-21.5 -14h-163v-1476h163q6 0 11.5 -3t9.5 -10.5t6 -19t2 -28.5z" />
    <glyph glyph-name="backslash" unicode="\" horiz-adv-x="791" 
d="M783 -223q6 -17 6 -27t-8 -15t-24.5 -7t-43.5 -2q-26 0 -42 1.5t-25.5 4t-14.5 8.5t-8 14l-605 1659q-7 17 -7 27t8 15t24.5 6.5t43.5 1.5q26 0 42 -1t26 -4.5t14.5 -8.5t7.5 -13z" />
    <glyph glyph-name="bracketright" unicode="]" horiz-adv-x="628" 
d="M438 -250q0 -20 -5.5 -33.5t-14.5 -21.5t-20.5 -11.5t-23.5 -3.5h-255q-14 0 -21.5 13.5t-7.5 46.5q0 17 1.5 28.5t5.5 19t9.5 10.5t12.5 3h163v1476h-163q-14 0 -21.5 14t-7.5 46q0 17 1.5 28.5t5.5 19.5t9.5 11t12.5 3h255q12 0 23.5 -3.5t20.5 -12t14.5 -22t5.5 -32.5
v-1579z" />
    <glyph glyph-name="asciicircum" unicode="^" horiz-adv-x="1020" 
d="M900 624q8 -19 9 -30.5t-7 -17.5t-25.5 -7.5t-46.5 -1.5q-26 0 -43.5 1.5t-28.5 5.5t-16.5 10t-9.5 14l-232 551l-3 -3l-219 -548q-3 -8 -8.5 -14t-16.5 -10t-27.5 -5.5t-42.5 -1.5q-29 0 -45.5 1.5t-24 8t-7 17.5t8.5 30l284 648q3 9 11 15.5t20.5 10.5t30.5 6t42 2
q26 0 44 -2t30 -6t20 -10.5t12 -15.5z" />
    <glyph glyph-name="underscore" unicode="_" horiz-adv-x="1020" 
d="M1024 -298q0 -35 -8 -51t-25 -16h-963q-17 0 -26 15t-9 50q0 34 9 51t26 17h963q16 0 24.5 -16t8.5 -50z" />
    <glyph glyph-name="grave" unicode="`" horiz-adv-x="596" 
d="M455 1134q7 -11 9 -19t-3.5 -13t-18 -8t-34.5 -3q-20 0 -33 1.5t-22.5 5t-16.5 9.5t-14 16l-181 233q-8 9 -9 17.5t6 15t24.5 10t45.5 3.5q24 0 40.5 -2t27.5 -6t19 -11t16 -18zM0 951z" />
    <glyph glyph-name="a" unicode="a" horiz-adv-x="981" 
d="M831 24q0 -12 -8 -18t-22 -9t-41 -3q-26 0 -41.5 3t-22.5 9t-7 18v90q-59 -63 -131.5 -98t-153.5 -35q-71 0 -128.5 18.5t-98 53.5t-63 86t-22.5 116q0 76 31 132t89 93t142 55.5t189 18.5h124v70q0 52 -11 92t-35.5 66.5t-63.5 40t-96 13.5q-61 0 -109.5 -14.5t-85 -32
t-61 -32t-36.5 -14.5q-8 0 -14 4t-10.5 12t-6.5 20.5t-2 27.5q0 25 3.5 39.5t17 27.5t46.5 30.5t76 32t94 24t103 9.5q97 0 165 -22t110 -64.5t61 -105.5t19 -147v-607zM667 435h-141q-68 0 -118 -11.5t-83 -34t-48.5 -54t-15.5 -72.5q0 -70 44.5 -111.5t124.5 -41.5
q65 0 120.5 33t116.5 101v191z" />
    <glyph glyph-name="b" unicode="b" 
d="M981 487q0 -117 -25.5 -210.5t-75 -159.5t-121.5 -101t-165 -35q-43 0 -79.5 8.5t-71.5 27.5t-70 48t-74 70v-110q0 -8 -4 -14t-13 -9.5t-22.5 -5.5t-34.5 -2q-20 0 -34 2t-23 5.5t-12 9.5t-3 14v1336q0 8 3.5 14t13 10t25.5 6t40 2q25 0 41 -2t25 -6t13 -10t4 -14v-539
q40 41 77.5 69t73.5 45.5t72 25.5t76 8q98 0 167.5 -39t113 -104.5t63.5 -153.5t20 -186zM807 468q0 69 -10.5 134t-36.5 115t-69 80.5t-107 30.5q-32 0 -63 -9t-63 -30t-66.5 -54t-73.5 -83v-359q68 -83 130 -126.5t129 -43.5q62 0 106 30t71.5 79.5t40 111t12.5 124.5z
" />
    <glyph glyph-name="c" unicode="c" horiz-adv-x="866" 
d="M800 162q0 -17 -1 -29.5t-3.5 -21t-6 -15t-16 -19t-42.5 -31t-67.5 -33t-81.5 -23.5t-91 -9q-97 0 -172 32t-125.5 93.5t-77 151t-26.5 206.5q0 133 32.5 228.5t89 156.5t133 90.5t165.5 29.5q43 0 83.5 -8t74.5 -21t60.5 -30t38.5 -29t16.5 -19t7.5 -16.5t4 -21.5t1 -30
q0 -39 -9 -54.5t-22 -15.5q-15 0 -34.5 16.5t-49.5 36.5t-72.5 36.5t-100.5 16.5q-119 0 -182.5 -91.5t-63.5 -265.5q0 -87 16.5 -152.5t48.5 -109.5t78.5 -65.5t106.5 -21.5q57 0 100 18t74.5 39.5t53 39t33.5 17.5q7 0 12 -4t8.5 -13.5t5 -24t1.5 -34.5z" />
    <glyph glyph-name="d" unicode="d" 
d="M924 25q0 -8 -3.5 -14t-12 -9.5t-22.5 -5.5t-34 -2q-21 0 -35 2t-23 5.5t-13 9.5t-4 14v119q-71 -77 -147.5 -120t-167.5 -43q-99 0 -169 38.5t-113.5 104t-63.5 154t-20 186.5q0 116 25 209.5t74 159.5t121.5 101.5t167.5 35.5q79 0 144.5 -34.5t129.5 -101.5v523
q0 7 3.5 13.5t13.5 10t25.5 6t39.5 2.5q25 0 41 -2.5t25 -6t13.5 -10t4.5 -13.5v-1332zM758 658q-67 83 -129.5 126.5t-130.5 43.5q-63 0 -107 -30t-71.5 -79t-40 -111t-12.5 -126q0 -68 10.5 -133t36.5 -115.5t69 -81t108 -30.5q33 0 63.5 9t62.5 30t67 54.5t74 82.5v360z
" />
    <glyph glyph-name="e" unicode="e" horiz-adv-x="1019" 
d="M921 514q0 -39 -19.5 -55.5t-44.5 -16.5h-590q0 -75 15 -135t50 -103t91 -66t137 -23q64 0 114 10.5t86.5 23.5t60 23.5t35.5 10.5q7 0 12.5 -3.5t8.5 -10.5t4.5 -19.5t1.5 -30.5q0 -13 -1 -22.5t-2.5 -17t-5 -13.5t-9 -11.5t-32.5 -18t-70 -24.5t-99.5 -21.5
t-120.5 -9.5q-111 0 -194.5 31t-140.5 92t-86 153t-29 214q0 116 30 208.5t86.5 157t136.5 99t179 34.5q106 0 180.5 -34t122.5 -91.5t70.5 -135t22.5 -165.5v-30zM755 563q3 130 -57.5 204t-179.5 74q-61 0 -107 -23t-77 -61t-48 -88.5t-19 -105.5h488z" />
    <glyph glyph-name="f" unicode="f" horiz-adv-x="625" 
d="M646 1295q0 -19 -2 -30.5t-4.5 -18.5t-6.5 -9.5t-10 -2.5q-7 0 -17.5 4.5t-25.5 10t-35.5 10t-47.5 4.5q-37 0 -63 -12t-42 -37.5t-23 -66t-7 -98.5v-98h201q8 0 13.5 -3.5t10 -12t7 -21.5t2.5 -32q0 -36 -9 -52t-24 -16h-201v-789q0 -8 -4 -13.5t-13.5 -9.5t-25.5 -6
t-40 -2t-40 2t-25.5 6t-13.5 9.5t-4 13.5v789h-127q-16 0 -24 16t-8 52q0 19 2 32t6 21.5t10 12t14 3.5h127v93q0 94 17.5 161.5t53.5 110.5t90.5 63.5t128.5 20.5q35 0 68 -6.5t51 -14t24 -13.5t10 -15.5t5.5 -23t1.5 -32.5z" />
    <glyph glyph-name="g" unicode="g" horiz-adv-x="964" 
d="M905 884q0 -35 -9.5 -50.5t-24.5 -15.5h-129q35 -36 49 -79.5t14 -90.5q0 -78 -25 -138t-71.5 -101.5t-110.5 -63.5t-142 -22q-55 0 -104.5 14.5t-76.5 36.5q-18 -18 -29.5 -41t-11.5 -53q0 -35 32.5 -58t86.5 -25l235 -10q67 -2 123 -18.5t97 -47t64 -75t23 -103.5
q0 -62 -26 -118t-79.5 -98.5t-136.5 -67t-196 -24.5q-109 0 -185.5 18.5t-125.5 50.5t-71 76.5t-22 96.5q0 33 8 64t24.5 59t41 53.5t56.5 50.5q-49 25 -72.5 63t-23.5 82q0 61 25 109t62 86q-31 37 -49 83.5t-18 112.5q0 77 26 138t72 103t110.5 64.5t140.5 22.5
q41 0 76.5 -4.5t66.5 -12.5h272q17 0 25.5 -16.5t8.5 -50.5zM647 647q0 92 -50.5 143.5t-143.5 51.5q-48 0 -83.5 -16t-59 -44t-35 -64.5t-11.5 -76.5q0 -89 50.5 -140t141.5 -51q49 0 85 15.5t59.5 43t35 63.5t11.5 75zM730 -66q0 58 -47.5 89.5t-128.5 33.5l-233 8
q-32 -25 -52.5 -47.5t-32.5 -43t-16.5 -40.5t-4.5 -41q0 -65 66 -98.5t184 -33.5q75 0 125.5 14.5t81.5 38.5t44.5 55t13.5 65z" />
    <glyph glyph-name="h" unicode="h" 
d="M928 25q0 -8 -4 -13.5t-13 -9.5t-25 -6t-40 -2q-25 0 -41 2t-25 6t-13 9.5t-4 13.5v527q0 77 -12 124t-35 81t-59.5 52t-84.5 18q-62 0 -124 -44t-130 -129v-629q0 -8 -4 -13.5t-13 -9.5t-25 -6t-41 -2q-24 0 -40 2t-25.5 6t-13 9.5t-3.5 13.5v1336q0 8 3.5 14t13 10
t25.5 6t40 2q25 0 41 -2t25 -6t13 -10t4 -14v-539q71 75 143 111.5t145 36.5q90 0 151.5 -30.5t99.5 -81.5t54.5 -119.5t16.5 -165.5v-548z" />
    <glyph glyph-name="i" unicode="i" horiz-adv-x="470" 
d="M318 25q0 -8 -4 -13.5t-13 -9.5t-25 -6t-41 -2q-24 0 -40 2t-25.5 6t-13 9.5t-3.5 13.5v900q0 7 3.5 13t13 10t25.5 6t40 2q25 0 41 -2t25 -6t13 -10t4 -13v-900zM337 1229q0 -58 -22 -79t-81 -21q-58 0 -79.5 20.5t-21.5 77.5q0 58 22 79t81 21q58 0 79.5 -20.5
t21.5 -77.5z" />
    <glyph glyph-name="j" unicode="j" horiz-adv-x="490" 
d="M337 -15q0 -100 -15 -161.5t-47 -103.5t-82 -63.5t-121 -21.5q-32 0 -54.5 4t-34.5 9t-16.5 11.5t-6.5 15t-2.5 17.5t-0.5 22q0 18 1.5 31t5 21t8 11.5t11.5 3.5q6 0 23.5 -2.5t40.5 -2.5q33 0 56.5 10t38.5 32.5t22 58.5t7 109v939q0 7 4 13t13.5 10t25.5 6t40 2t40 -2
t25.5 -6t13.5 -10t4 -13v-940zM356 1229q0 -58 -22 -79t-81 -21q-58 0 -79 20.5t-21 77.5q0 58 21.5 79t80.5 21t80 -20.5t21 -77.5z" />
    <glyph glyph-name="k" unicode="k" horiz-adv-x="931" 
d="M892 26q0 -8 -4 -14t-13.5 -10t-26.5 -6t-43 -2q-27 0 -44.5 1.5t-29.5 5t-19.5 10t-13.5 15.5l-380 498v-499q0 -8 -4 -13.5t-13 -9.5t-25 -6t-41 -2q-24 0 -40 2t-25.5 6t-13 9.5t-3.5 13.5v1336q0 8 3.5 14t13 10t25.5 6t40 2q25 0 41 -2t25 -6t13 -10t4 -14v-814
l340 374q8 10 17 16.5t21.5 11t29.5 6t41 1.5q25 0 42 -1.5t27.5 -5t15 -9t4.5 -14.5q0 -12 -6.5 -24t-21.5 -28l-326 -326l366 -475q13 -17 18.5 -27.5t5.5 -19.5z" />
    <glyph glyph-name="l" unicode="l" horiz-adv-x="470" 
d="M318 25q0 -8 -4 -13.5t-13 -9.5t-25 -6t-41 -2q-24 0 -40 2t-25.5 6t-13 9.5t-3.5 13.5v1336q0 8 3.5 14t13 10t25.5 6t40 2q25 0 41 -2t25 -6t13 -10t4 -14v-1336z" />
    <glyph glyph-name="m" unicode="m" horiz-adv-x="1636" 
d="M1488 25q0 -8 -4 -13.5t-13 -9.5t-25 -6t-40 -2q-25 0 -41 2t-25.5 6t-13.5 9.5t-4 13.5v547q0 57 -10 104t-32 81t-56 52t-80 18q-57 0 -114.5 -44t-126.5 -129v-629q0 -8 -4 -13.5t-13.5 -9.5t-25.5 -6t-40 -2q-23 0 -39.5 2t-26 6t-13 9.5t-3.5 13.5v547q0 57 -11 104
t-33 81t-55.5 52t-79.5 18q-57 0 -115 -44t-126 -129v-629q0 -8 -4 -13.5t-13 -9.5t-25 -6t-41 -2q-24 0 -40 2t-25.5 6t-13 9.5t-3.5 13.5v900q0 8 3 13.5t12 10t23 6t37 1.5q22 0 36.5 -1.5t22.5 -6t11.5 -10t3.5 -13.5v-119q76 85 147.5 124.5t144.5 39.5q56 0 100.5 -13
t78.5 -36.5t58 -56t40 -72.5q45 49 85.5 83t78 55t73 30.5t71.5 9.5q87 0 146 -30.5t95.5 -81.5t52 -119.5t15.5 -144.5v-569z" />
    <glyph glyph-name="n" unicode="n" 
d="M928 25q0 -8 -4 -13.5t-13 -9.5t-25 -6t-40 -2q-25 0 -41 2t-25 6t-13 9.5t-4 13.5v527q0 77 -12 124t-35 81t-59.5 52t-84.5 18q-62 0 -124 -44t-130 -129v-629q0 -8 -4 -13.5t-13 -9.5t-25 -6t-41 -2q-24 0 -40 2t-25.5 6t-13 9.5t-3.5 13.5v900q0 8 3 13.5t12 10t23 6
t37 1.5q22 0 36.5 -1.5t22.5 -6t11.5 -10t3.5 -13.5v-119q76 85 151.5 124.5t152.5 39.5q90 0 151.5 -30.5t99.5 -81.5t54.5 -119.5t16.5 -164.5v-549z" />
    <glyph glyph-name="o" unicode="o" horiz-adv-x="1080" 
d="M990 485q0 -110 -29 -202.5t-86.5 -159.5t-144 -104.5t-200.5 -37.5q-111 0 -193.5 33t-137.5 96t-82 153t-27 204q0 110 28.5 202.5t86 159.5t143.5 104t201 37q111 0 193.5 -33t137.5 -96t82.5 -153t27.5 -203zM816 474q0 73 -13.5 138t-44.5 114t-84 77.5t-132 28.5
q-73 0 -125.5 -26t-86.5 -73.5t-50.5 -112.5t-16.5 -142q0 -74 13.5 -139t45 -113.5t84.5 -77t132 -28.5q72 0 125 26t87 73t50 112t16 143z" />
    <glyph glyph-name="p" unicode="p" 
d="M981 489q0 -118 -25.5 -212t-75 -159.5t-122.5 -101t-167 -35.5q-40 0 -74 8t-66.5 25t-64.5 43t-68 61v-450q0 -8 -4 -14t-13 -10t-25 -6t-41 -2q-24 0 -40 2t-25.5 6t-13 10t-3.5 14v1257q0 9 3 14.5t12 9.5t23 5.5t34 1.5q21 0 34.5 -1.5t22.5 -5.5t12.5 -9.5
t3.5 -14.5v-121q41 42 79 73t76.5 51.5t79 31t85.5 10.5q98 0 167 -38t112.5 -104t63.5 -153.5t20 -185.5zM807 470q0 69 -10.5 133.5t-36 114.5t-68.5 80t-107 30q-32 0 -63 -9.5t-63 -30t-67 -54t-74 -82.5v-358q68 -83 129 -127t128 -44q62 0 106.5 30t72 80t40.5 112
t13 125z" />
    <glyph glyph-name="q" unicode="q" 
d="M924 -332q0 -8 -4.5 -14t-13.5 -10t-25 -6t-40 -2q-25 0 -40.5 2t-25.5 6t-13.5 10t-3.5 14v461q-41 -41 -78 -69.5t-73 -46t-72.5 -25t-75.5 -7.5q-98 0 -167 38.5t-112.5 104t-63.5 154t-20 186.5q0 116 25 209.5t74.5 159.5t122 101.5t167.5 35.5q40 0 75 -8.5
t69.5 -27t70 -48t77.5 -70.5v109q0 9 4 14.5t13 9.5t23 5.5t35 1.5q20 0 34 -1.5t22.5 -5.5t12 -9.5t3.5 -14.5v-1257zM758 658q-67 83 -129.5 126.5t-130.5 43.5q-63 0 -107 -30t-71.5 -79t-40 -111t-12.5 -126q0 -69 10.5 -134t36.5 -115t69 -80.5t108 -30.5q33 0 63.5 9
t62.5 30t67 54.5t74 82.5v360z" />
    <glyph glyph-name="r" unicode="r" horiz-adv-x="714" 
d="M679 866q0 -22 -1 -37t-4 -23.5t-7.5 -13t-12.5 -4.5t-19.5 4.5t-26 9t-32.5 8.5t-39 4q-25 0 -49 -10t-50.5 -33t-55.5 -61t-64 -93v-592q0 -8 -4 -13.5t-13 -9.5t-25 -6t-41 -2q-24 0 -40 2t-25.5 6t-13 9.5t-3.5 13.5v900q0 8 3 13.5t12 10t23 6t37 1.5
q22 0 36.5 -1.5t22.5 -6t11.5 -10t3.5 -13.5v-131q37 54 69.5 88t61.5 53.5t57.5 27t57.5 7.5q13 0 29.5 -1.5t34.5 -5.5t32.5 -9t20.5 -10t8 -9.5t3.5 -11.5t2 -20.5t0.5 -36.5z" />
    <glyph glyph-name="s" unicode="s" horiz-adv-x="801" 
d="M718 270q0 -69 -25.5 -123t-72.5 -91t-112 -56t-143 -19q-48 0 -91.5 7.5t-78 19t-58.5 24t-35 22.5t-16 28t-5 49q0 19 2 32t5 21t8.5 11.5t12.5 3.5q11 0 32.5 -13.5t53 -29.5t74.5 -29.5t99 -13.5q42 0 76 9t59 26.5t38.5 44.5t13.5 64q0 38 -19.5 64t-51.5 46
t-72 35.5t-82.5 32.5t-83 38.5t-72.5 52.5t-51.5 74t-19.5 103q0 53 20.5 101.5t61.5 85t102.5 58.5t143.5 22q36 0 72 -6t65 -15t49.5 -19.5t31 -18.5t14 -14t5 -13.5t3 -18.5t1.5 -27q0 -17 -1.5 -29.5t-5 -20.5t-8.5 -11.5t-11 -3.5q-9 0 -26 11t-44 23.5t-63.5 23.5
t-83.5 11q-42 0 -74 -9.5t-52.5 -27t-31 -41.5t-10.5 -52q0 -39 20 -65.5t52 -46.5t73 -36t83.5 -33t84 -38t73.5 -51t51.5 -72t19.5 -100z" />
    <glyph glyph-name="t" unicode="t" horiz-adv-x="686" 
d="M621 91q0 -29 -4 -46t-12 -25t-24 -15t-36.5 -11.5t-43.5 -7.5t-46 -3q-70 0 -120 18.5t-82 56t-46.5 95t-14.5 135.5v526h-126q-15 0 -24 16t-9 52q0 19 2.5 32t6.5 21.5t10.5 12t14.5 3.5h125v214q0 7 3.5 13t13 10.5t25.5 6.5t40 2q25 0 41 -2t25 -6.5t13 -10.5t4 -13
v-214h231q8 0 14 -3.5t10.5 -12t6.5 -21.5t2 -32q0 -36 -9 -52t-24 -16h-231v-502q0 -93 27.5 -140.5t98.5 -47.5q23 0 41 4.5t32 9.5t24 9.5t18 4.5q5 0 9.5 -2.5t7 -9.5t4.5 -19t2 -30z" />
    <glyph glyph-name="u" unicode="u" 
d="M924 25q0 -8 -3.5 -13.5t-12.5 -9.5t-23.5 -6t-35.5 -2q-23 0 -37.5 2t-23 6t-11.5 9.5t-3 13.5v119q-77 -85 -152 -124t-152 -39q-90 0 -151.5 30t-99.5 81.5t-54.5 120t-16.5 166.5v546q0 8 3.5 13.5t13.5 10t26 6t40 1.5t40 -1.5t25.5 -6t13.5 -10t4 -13.5v-524
q0 -79 11.5 -126.5t35 -81t59.5 -52t84 -18.5q62 0 123.5 44t130.5 129v629q0 8 3.5 13.5t13.5 10t25.5 6t40.5 1.5q24 0 40 -1.5t25 -6t13.5 -10t4.5 -13.5v-900z" />
    <glyph glyph-name="v" unicode="v" horiz-adv-x="925" 
d="M891 927q0 -4 -0.5 -8.5t-1.5 -9.5t-2.5 -11t-3.5 -13l-307 -855q-4 -11 -10.5 -18t-19.5 -11t-33 -5.5t-50 -1.5t-50 2t-32.5 6t-19.5 11t-11 17l-306 855q-4 12 -6.5 21t-3 13.5t-0.5 7.5q0 8 4 14t13.5 9.5t25 4.5t38.5 1q29 0 46.5 -1.5t27 -5.5t14 -10t8.5 -15
l254 -742l4 -12l3 12l251 742q2 9 7 15t14.5 10t26 5.5t43.5 1.5q23 0 38 -1t23.5 -5t12 -9.5t3.5 -13.5z" />
    <glyph glyph-name="w" unicode="w" horiz-adv-x="1464" 
d="M1412 927q0 -7 -2 -17t-7 -25l-265 -855q-3 -11 -9.5 -18t-18 -11t-31.5 -5.5t-50 -1.5q-31 0 -52 2t-33.5 6t-18.5 11t-9 17l-189 653l-2 9l-2 -9l-175 -653q-3 -11 -9.5 -18t-19.5 -11t-33.5 -5.5t-50.5 -1.5q-31 0 -50.5 2t-32 6t-18.5 11t-9 17l-263 855q-5 15 -7 25
t-2 17q0 9 4 14.5t13.5 9t25.5 4.5t39 1q28 0 45 -1.5t26 -5t13 -10t7 -15.5l217 -742l2 -9l2 9l199 742q2 9 6.5 15.5t13.5 10t24.5 5t40.5 1.5q24 0 39.5 -1.5t24.5 -5t13 -9.5t6 -14l215 -744l2 -9l1 9l214 742q2 9 6.5 15.5t14 10t26 5t42.5 1.5q24 0 38.5 -1t23 -5
t12 -9t3.5 -14z" />
    <glyph glyph-name="x" unicode="x" horiz-adv-x="887" 
d="M835 44q8 -14 8 -23.5t-9.5 -15.5t-29 -8.5t-50.5 -2.5q-30 0 -47.5 1.5t-28 5t-16 9t-9.5 12.5l-216 357l-215 -357q-4 -7 -9.5 -12.5t-16 -9t-27.5 -5t-45 -1.5q-29 0 -47.5 2.5t-27 8.5t-8 15.5t9.5 23.5l280 439l-265 423q-8 14 -8.5 23.5t9 16t29 8.5t51.5 2
q29 0 46.5 -1.5t27.5 -4.5t15 -8t9 -12l205 -335l208 335q4 6 9 11t13.5 8.5t24 5t42.5 1.5q29 0 47.5 -2t27.5 -7.5t8 -15.5t-10 -25l-263 -418z" />
    <glyph glyph-name="y" unicode="y" horiz-adv-x="927" 
d="M563 0l-120 -331q-6 -16 -30.5 -24.5t-74.5 -8.5q-26 0 -42 2.5t-24.5 8.5t-9.5 16t5 24l124 313q-9 4 -17 13t-11 19l-321 860q-8 21 -8 33t8 19t26 9.5t48 2.5t47 -1.5t27 -5.5t14.5 -11.5t9.5 -20.5l257 -722h3l248 726q6 19 14.5 24.5t25.5 8t49 2.5q28 0 46 -2.5
t26.5 -9.5t8.5 -19t-6 -30z" />
    <glyph glyph-name="z" unicode="z" horiz-adv-x="809" 
d="M727 70q0 -19 -3 -32.5t-7 -22t-11 -12t-15 -3.5h-554q-21 0 -34.5 14t-13.5 47v34q0 14 2 25t6 22t11 23.5t17 28.5l397 618h-385q-16 0 -25.5 16.5t-9.5 53.5q0 18 2 31.5t6.5 22t11 12t15.5 3.5h516q11 0 19.5 -3t14.5 -10t9.5 -18t3.5 -28v-32q0 -14 -2 -26t-6 -23.5
t-11 -24.5t-17 -29l-395 -618h422q8 0 14.5 -3.5t11 -11.5t7.5 -21.5t3 -32.5z" />
    <glyph glyph-name="braceleft" unicode="{" horiz-adv-x="644" 
d="M580 -257q0 -16 -2 -27.5t-6.5 -18t-10.5 -10.5t-12 -4q-18 -4 -31.5 -4.5t-32.5 -0.5q-67 0 -110 21.5t-68 64t-34 106.5t-9 170v206q0 68 -8.5 110t-26 73.5t-45 51t-66.5 23.5q-9 2 -15 5.5t-9.5 10.5t-5.5 18.5t-2 26.5q0 16 1.5 27t5 18.5t9.5 10.5t15 5
q74 8 110.5 71.5t36.5 187.5v161q0 105 9.5 169t35 107t68 64.5t108.5 21.5q19 0 31.5 -0.5t30.5 -4.5q7 0 13.5 -3.5t11 -10.5t6.5 -18.5t2 -27.5q0 -17 -2 -28.5t-6.5 -19.5t-11 -11t-14.5 -3l-41 -1q-24 0 -41 -8.5t-27.5 -33t-16 -67.5t-5.5 -132v-146q0 -73 -8 -124.5
t-28.5 -92.5t-54.5 -70.5t-86 -40.5q52 -10 86 -39.5t54.5 -71t28.5 -92.5t8 -125v-190q0 -88 5 -131t15.5 -67.5t27 -33.5t39.5 -9l42 -1q9 0 16 -3t11.5 -10.5t6.5 -19t2 -29.5z" />
    <glyph glyph-name="bar" unicode="|" horiz-adv-x="943" 
d="M549 -333q0 -8 -3.5 -14t-12.5 -10t-24 -6t-38 -2q-22 0 -37 2t-24 6t-12.5 10t-3.5 14v1736q0 7 3.5 13t12.5 10t24 6t37 2q23 0 38 -2t24 -6t12.5 -10t3.5 -13v-1736z" />
    <glyph glyph-name="braceright" unicode="}" horiz-adv-x="644" 
d="M613 567q0 -16 -1.5 -27t-5 -18t-9.5 -10.5t-14 -4.5q-42 -4 -70 -29.5t-45.5 -65.5t-24.5 -89.5t-7 -121.5v-161q0 -105 -10 -169t-35 -107t-68 -64.5t-108 -21.5q-19 0 -32 1t-33 4q-7 0 -13 4t-10 10.5t-7 18t-3 27.5q0 17 3 28.5t7.5 19.5t10.5 11t13 3l43 1
q24 0 41 9t28 33t16 67t5 132v146q0 74 8.5 132t28.5 108t54.5 86t85.5 47q-51 10 -85.5 32t-54.5 55.5t-28.5 77.5t-8.5 118v190q0 89 -5 131.5t-15.5 67t-27 33.5t-39.5 9l-40 1q-11 0 -18.5 3t-12.5 10.5t-7 19t-2 29.5q0 16 2.5 27.5t7 18.5t11 10.5t15.5 3.5
q17 4 30 4.5t32 0.5q66 0 109 -21.5t68 -64t34.5 -106.5t9.5 -170v-206q0 -68 8.5 -102.5t26 -57.5t45 -35.5t66.5 -17.5q8 0 14 -4t10 -11.5t5.5 -18t1.5 -26.5z" />
    <glyph glyph-name="asciitilde" unicode="~" horiz-adv-x="1020" 
d="M962 1037q-2 -68 -24.5 -119t-57.5 -85.5t-81 -52t-94 -17.5t-83 10.5t-62 28t-47.5 39.5t-39 45t-35.5 43t-35 35.5t-39 24.5t-48 9q-34 0 -57.5 -14.5t-38.5 -38.5t-21.5 -55t-6.5 -66q0 -18 -17 -23.5t-49 -5.5q-20 0 -32.5 2t-20 5.5t-10 9.5t-2.5 13v27
q0 69 19 121.5t53 88t81.5 53.5t103.5 18q47 0 82.5 -10.5t62.5 -27.5t48 -38.5t39 -44.5t34.5 -43t34.5 -35.5t39 -24.5t49 -9q33 0 56.5 13t38.5 36.5t22 55.5t7 70q0 16 16.5 21.5t48.5 5.5q19 0 32 -1.5t21 -5.5t11 -10t2 -15v-33z" />
    <glyph glyph-name="exclamdown" unicode="&#xa1;" horiz-adv-x="667" 
d="M222.055 809.046q0 7.99902 3.49902 13.998q3.5 5.99902 12.499 9.99902q8.99805 3.99902 22.9971 5.99902q13.998 2 34.9951 2q20.998 0 34.9961 -2t22.9971 -5.99902q8.99902 -4 12.499 -9.99902q3.49902 -5.99902 3.49902 -13.998l16.998 -953.884
q1 -11.999 -3 -20.998q-3.99902 -8.99805 -14.498 -14.998q-10.499 -5.99902 -27.9961 -8.49902q-17.498 -2.49902 -45.4951 -2.49902q-26.9961 0 -44.4941 2.99902q-17.498 3 -27.9971 8.99902q-10.498 6 -14.498 14.498q-3.99902 8.49902 -3.99902 20.498z
M191.059 1078.01q0 32.9961 4.49902 54.4932q4.49902 21.498 16.998 34.9961q12.498 13.498 32.4961 18.9971q19.9971 5.5 50.9932 5.5t51.4941 -5.5q20.4971 -5.49902 32.4961 -18.9971q11.998 -13.498 16.498 -34.9961q4.49902 -21.4971 4.49902 -54.4932
t-4.49902 -55.4932q-4.5 -22.4971 -16.498 -34.9961q-11.999 -12.498 -32.4961 -17.9971q-20.498 -5.5 -51.4941 -5.5t-50.9932 5.5q-19.998 5.49902 -32.4961 17.9971q-12.499 12.499 -16.998 34.9961t-4.49902 55.4932z" />
    <glyph glyph-name="cent" unicode="&#xa2;" horiz-adv-x="1020" 
d="M892 327q0 -32 -4.5 -48.5t-15.5 -28.5t-31.5 -26.5t-47 -28t-57.5 -24t-68 -15.5v-147q0 -7 -3 -13t-11.5 -10t-22.5 -6t-35 -2t-35 2t-22.5 6t-11.5 10t-3 13v144q-168 21 -253.5 142.5t-85.5 337.5q0 116 25 203.5t70 148.5t107 96.5t136 47.5v147q0 7 3.5 13t12 10
t22 6t34.5 2t35.5 -2t23 -6t11.5 -10t3 -13v-144q28 -3 56.5 -11.5t55 -20t50 -27t35.5 -27.5t16.5 -19t7.5 -16t4 -21t1 -29q0 -14 -1.5 -26.5t-5.5 -22.5t-11 -16t-16 -6q-16 0 -34.5 17t-48 36.5t-72 36.5t-104.5 17q-51 0 -95 -19t-77.5 -61.5t-53 -110t-19.5 -165.5
q0 -94 19.5 -160.5t54.5 -108.5t82.5 -61t103.5 -19t97.5 17.5t71 39t49.5 39.5t32 18q8 0 12.5 -5.5t8 -16t4.5 -25t1 -32.5z" />
    <glyph glyph-name="sterling" unicode="&#xa3;" horiz-adv-x="1038" 
d="M950 69q0 -19 -3 -32t-8 -21t-11.5 -12t-12.5 -4h-796q-7 0 -13 4t-11.5 12t-8.5 21t-3 32q0 18 2.5 31.5t7.5 22t11.5 12.5t14.5 4h123v454h-123q-7 0 -13 3.5t-11.5 11.5t-8.5 20.5t-3 32.5q0 17 2.5 30t7.5 21.5t11.5 12t14.5 3.5h123v120q0 123 28 211t79.5 144
t124.5 81.5t163 25.5q42 0 82.5 -7.5t75 -20.5t62 -30t41 -30t18.5 -21t8 -18t4 -22t1 -30q0 -17 -2 -30t-6 -21.5t-9.5 -13t-12.5 -4.5q-14 0 -33.5 17t-49.5 37t-72.5 37t-101.5 17q-60 0 -103.5 -20.5t-71.5 -60.5t-42 -99t-14 -136v-126h328q8 0 14.5 -3.5t11 -12
t7 -21.5t2.5 -30q0 -20 -3 -32.5t-8 -20.5t-11 -11.5t-13 -3.5h-328v-454h504q7 0 13.5 -4t11.5 -12.5t7.5 -22t2.5 -31.5z" />
    <glyph glyph-name="currency" unicode="&#xa4;" horiz-adv-x="1020" 
d="M798 858q41 -49 62.5 -117t21.5 -151t-26 -154.5t-75 -125.5l145 -209q11 -17 13.5 -29.5t-4 -20t-23 -11.5t-43.5 -4q-25 0 -41 1.5t-27 4t-17.5 7.5t-11.5 13l-106 169q-35 -18 -77.5 -28.5t-90.5 -10.5q-46 0 -84 7.5t-69 22.5l-107 -171q-5 -8 -11 -13t-17 -7.5
t-27.5 -3.5t-40.5 -1q-28 0 -44.5 3.5t-23.5 11t-4 19.5t14 28l142 207q-47 49 -70.5 120.5t-23.5 158.5t24.5 157.5t68.5 122.5l-145 212q-11 17 -14 29.5t4 20t23 11t44 3.5q24 0 40.5 -1t27.5 -4t17.5 -7.5t11.5 -12.5l106 -170q36 19 80 29.5t96 10.5q48 0 90 -9.5
t77 -29.5l107 171q4 8 10.5 13.5t17 8t27 4t41.5 1.5q28 0 44.5 -4t23 -12t3 -20t-13.5 -29zM729 575q0 55 -12.5 105.5t-39 87.5t-69 59.5t-102.5 22.5q-55 0 -96.5 -19.5t-69 -54.5t-41.5 -82t-14 -103q0 -61 12.5 -111t40 -86t70.5 -56t105 -20q54 0 94.5 20.5t67.5 55.5
t40.5 81.5t13.5 99.5z" />
    <glyph glyph-name="yen" unicode="&#xa5;" horiz-adv-x="1038" 
d="M605 614v-54h276q14 0 22 -14.5t8 -45.5q0 -35 -9 -48.5t-21 -13.5h-276v-158h276q14 0 22 -14.5t8 -45.5q0 -34 -9 -47.5t-21 -13.5h-276v-135q0 -8 -4 -13.5t-14 -9t-27 -5.5t-41 -2q-25 0 -41.5 2t-26.5 5.5t-14 9t-4 13.5v135h-276q-12 0 -21 13.5t-9 47.5
q0 31 9 45.5t21 14.5h276v158h-276q-12 0 -21 13.5t-9 48.5q0 31 9 45.5t21 14.5h276v54l-362 619q-13 21 -16 34.5t5 20.5t28 9.5t54 2.5q27 0 44.5 -1.5t28.5 -5t17 -9.5t11 -15l150 -268q35 -63 67.5 -128t65.5 -130q33 65 65 130t67 128l149 268q4 9 9 15t14.5 9.5t27 5
t46.5 1.5q31 0 49.5 -2.5t25.5 -9.5t3.5 -20.5t-15.5 -34.5z" />
    <glyph glyph-name="brokenbar" unicode="&#xa6;" horiz-adv-x="1020" 
d="M586 759q0 -7 -3.5 -13t-12.5 -10.5t-24 -6t-38 -1.5q-22 0 -37.5 1.5t-24.5 6t-12.5 10.5t-3.5 13v663q0 7 3.5 13t12.5 10t24.5 6.5t37.5 2.5q23 0 38 -2.5t24 -6.5t12.5 -10t3.5 -13v-663zM586 -360q0 -7 -3.5 -13t-12.5 -10t-24 -6t-38 -2q-22 0 -37.5 2t-24.5 6
t-12.5 10t-3.5 13v673q0 7 3.5 13t12.5 10.5t24.5 6.5t37.5 2q23 0 38 -2t24 -6.5t12.5 -10.5t3.5 -13v-673z" />
    <glyph glyph-name="section" unicode="&#xa7;" horiz-adv-x="1020" 
d="M909 550q0 -41 -12.5 -81t-35 -75t-54 -65.5t-69.5 -53.5q38 -36 57.5 -82t19.5 -104q0 -70 -26.5 -124.5t-74 -92t-113 -56.5t-143.5 -19q-52 0 -96.5 9.5t-78.5 22t-56.5 26t-29 20t-10 12t-5.5 14t-3 19.5t-1 26q0 18 2 31t5.5 21.5t8.5 12t12 3.5q14 0 33.5 -13.5
t49.5 -29.5t73 -29.5t104 -13.5q39 0 73 9t58 27t37.5 45t13.5 64q0 35 -10 61t-32 47.5t-57 40t-85 38.5l-87 35q-60 25 -108 53t-81.5 64.5t-51.5 83t-18 109.5q0 41 12.5 80.5t35.5 74.5t55 66t71 52q-39 38 -59 86t-20 114q0 61 23.5 110.5t66.5 84.5t102.5 53.5
t131.5 18.5q39 0 74.5 -6t65 -15.5t50.5 -21t28 -17.5t10 -11t5 -13.5t3.5 -20.5t1.5 -28q0 -17 -2 -29.5t-5 -20.5t-8 -11.5t-12 -3.5q-9 0 -24 11t-40 24t-61.5 24.5t-86.5 11.5q-43 0 -72.5 -12t-48.5 -30t-27.5 -41.5t-8.5 -46.5q0 -37 10.5 -64.5t32.5 -49.5
t56.5 -41.5t84.5 -39.5l87 -35q60 -25 108 -53t81.5 -64t51.5 -83t18 -108zM744 538q0 69 -41 111.5t-128 75.5l-84 35q-25 10 -46 20t-41 21q-62 -28 -91.5 -78.5t-29.5 -106.5q0 -35 10 -62t31 -49t53 -41t75 -36l84 -34q25 -9 46 -19.5t41 -22.5q63 28 92 79.5t29 106.5z
" />
    <glyph glyph-name="dieresis" unicode="&#xa8;" horiz-adv-x="804" 
d="M318 1217q0 -55 -20 -75t-74 -20t-73 19.5t-19 72.5q0 56 19.5 76t73.5 20q55 0 74 -20t19 -73zM672 1217q0 -55 -20 -75t-74 -20t-73 19.5t-19 72.5q0 56 19.5 76t73.5 20q55 0 74 -20t19 -73zM0 951z" />
    <glyph glyph-name="copyright" unicode="&#xa9;" horiz-adv-x="1709" 
d="M862 97q155 0 258 46.5t165 128.5t88.5 193.5t26.5 239.5q0 138 -29 245.5t-95 181.5t-171.5 113t-258.5 39q-136 0 -237 -38.5t-168 -114.5t-99.5 -190t-32.5 -266q0 -143 31 -251.5t97.5 -181t171.5 -109t253 -36.5zM1534 716q0 -190 -44.5 -328.5t-131.5 -229
t-214 -134t-292 -43.5q-169 0 -296 43t-211.5 128.5t-127 213.5t-42.5 299q0 186 43.5 324t129 229t213 136.5t295.5 45.5q175 0 302 -45.5t211 -132.5t124.5 -214.5t40.5 -291.5zM1132 408q0 -15 -1 -26t-3.5 -19.5t-5.5 -14.5t-12.5 -15t-33.5 -25t-56 -29.5t-72 -22
t-85 -8.5q-89 0 -157 28t-114 83.5t-69.5 136t-23.5 186.5q0 117 28.5 202t79 139.5t119.5 81t149 26.5q39 0 74.5 -7.5t66 -19.5t55.5 -28t36.5 -27t15 -17t6 -14t3.5 -19t1 -24t-2 -24t-5 -19.5t-8.5 -13t-13.5 -4.5q-17 0 -34.5 14.5t-43 32t-62 32t-91.5 14.5
q-107 0 -164.5 -81t-57.5 -236q0 -81 15 -140t44.5 -98.5t72.5 -58.5t99 -19q51 0 88 15.5t63.5 34.5t44.5 34.5t32 15.5q5 0 9.5 -3t7 -11t4 -21t1.5 -31z" />
    <glyph glyph-name="ordfeminine" unicode="&#xaa;" horiz-adv-x="824" 
d="M672 645q0 -6 -3.5 -10t-10.5 -7t-19 -5t-29 -2q-20 0 -32.5 2t-19.5 5t-10 7.5t-3 10.5v54h-2q-38 -42 -89 -66t-111 -24q-52 0 -94 13.5t-71.5 38.5t-45.5 62t-16 86q0 53 21.5 92.5t62 65.5t99 38.5t134.5 12.5h90v41q0 32 -7 56t-23.5 40.5t-43.5 24.5t-67 8
q-39 0 -72 -9.5t-57.5 -21t-41.5 -21t-24 -9.5q-16 0 -25 17.5t-9 49.5q0 11 1.5 20.5t5.5 15.5t11 12t36.5 20t81.5 29t117 15q73 0 123.5 -17t82 -48.5t46 -76t14.5 -100.5v-420zM679 407q0 -34 -8.5 -48t-26.5 -14h-495q-17 0 -26 14t-9 48q0 35 9 49t26 14h495
q18 0 26.5 -14t8.5 -49zM523 923h-86q-45 0 -77 -7t-52 -21t-29.5 -34t-9.5 -45q0 -46 28.5 -71t77.5 -25q22 0 40.5 5t35.5 14.5t34.5 24.5t37.5 37v122z" />
    <glyph glyph-name="guillemotleft" unicode="&#xab;" horiz-adv-x="1049" 
d="M869 161q6 -10 6 -17t-7.5 -12t-23 -7.5t-40.5 -2.5q-23 0 -37 0.5t-23 3.5t-14 7t-11 13l-219 336q-14 21 -14 40.5t15 41.5l214 329q5 7 10.5 12.5t14.5 8.5t23 3.5t36 0.5q25 0 40.5 -2.5t23 -8t8 -13t-5.5 -17.5l-215 -355zM283 520l213 -373q6 -10 6.5 -18.5t-6 -15
t-21.5 -9.5t-41 -3q-22 0 -35.5 1t-22.5 4t-14.5 8t-10.5 13l-221 353q-13 23 -13 43t15 42l217 347q5 8 10.5 13t14.5 8t22.5 4t35.5 1q25 0 40 -3t22 -9t7 -14t-6 -19z" />
    <glyph glyph-name="logicalnot" unicode="&#xac;" horiz-adv-x="1020" 
d="M922 321q0 -8 -4 -14.5t-12.5 -11t-22.5 -6.5t-35 -2q-19 0 -33 2t-23 6.5t-13 11t-4 14.5v181h-679q-8 0 -14.5 4t-11 12.5t-7 22t-2.5 32.5t3 32t7.5 21.5t11 12.5t14.5 4h754q39 0 55 -14t16 -53v-255z" />
    <glyph glyph-name="registered" unicode="&#xae;" horiz-adv-x="1038" 
d="M910 1020q0 -82 -30.5 -153.5t-83.5 -124t-125 -83t-154 -30.5q-85 0 -156.5 29.5t-123 81t-80.5 122.5t-29 156q0 82 30.5 153t83.5 123.5t124.5 82.5t154.5 30q85 0 156.5 -29t123 -80.5t80.5 -122.5t29 -155zM820 1014q0 71 -22.5 129t-62.5 99.5t-95 63.5t-119 22
q-69 0 -124.5 -24t-95.5 -66t-61.5 -97.5t-21.5 -118.5q0 -70 22.5 -128t62.5 -99.5t95 -64t119 -22.5q69 0 125 24.5t95.5 66t61 97t21.5 118.5zM702 831q0 -4 -1.5 -7.5t-7.5 -5t-17 -2.5t-30 -1q-17 0 -27.5 1t-17 3.5t-10 7t-5.5 12.5l-21 69q-12 37 -28.5 51.5
t-49.5 14.5h-27v-140q0 -11 -8.5 -15t-39.5 -4t-41 4t-10 15v359q0 22 11 34.5t33 12.5h115q40 0 70.5 -7t52 -22t32.5 -37.5t11 -53.5q0 -48 -26 -74.5t-70 -37.5q24 -8 45 -27t36 -57l24 -64q7 -23 7 -29zM578 1108q0 11 -3 21t-11.5 17.5t-22.5 11.5t-35 4h-46v-112h44
q42 0 58 16t16 42z" />
    <glyph glyph-name="macron" unicode="&#xaf;" horiz-adv-x="807" 
d="M644 1293q8 0 14 -3.5t9.5 -11t6 -20t2.5 -30.5q0 -17 -2.5 -28.5t-6 -19.5t-9.5 -12t-14 -4h-479q-8 0 -14.5 4t-10.5 12t-6 19.5t-2 28.5q0 18 2 30.5t6 20t10.5 11t14.5 3.5h479zM0 951z" />
    <glyph glyph-name="macron" unicode="&#x2c9;" horiz-adv-x="807" 
d="M644 1293q8 0 14 -3.5t9.5 -11t6 -20t2.5 -30.5q0 -17 -2.5 -28.5t-6 -19.5t-9.5 -12t-14 -4h-479q-8 0 -14.5 4t-10.5 12t-6 19.5t-2 28.5q0 18 2 30.5t6 20t10.5 11t14.5 3.5h479zM0 951z" />
    <glyph glyph-name="degree" unicode="&#xb0;" horiz-adv-x="694" 
d="M591 1133q0 -49 -18.5 -92t-52 -75.5t-79 -50.5t-98.5 -18t-96.5 16.5t-75.5 46.5t-50 72t-18 93t19 94.5t52.5 74.5t78.5 49t98 18q52 0 96 -17t76 -46.5t50 -71.5t18 -93zM465 1129q0 27 -9 50.5t-25 40.5t-38 26.5t-48 9.5q-25 0 -46.5 -9.5t-37.5 -26.5t-25 -40
t-9 -49q0 -29 9 -53t25.5 -41t39 -26.5t48.5 -9.5q24 0 45.5 10t37 27.5t24.5 40.5t9 50zM0 1294z" />
    <glyph glyph-name="plusminus" unicode="&#xb1;" horiz-adv-x="1020" 
d="M944 720q0 -37 -11 -54t-26 -17h-325v-360q0 -7 -4 -12.5t-12.5 -9.5t-22 -6.5t-33.5 -2.5t-34 2.5t-22.5 6.5t-12.5 9.5t-4 12.5v360h-324q-15 0 -26 17t-11 54q0 18 2.5 31.5t7.5 21.5t11.5 12t14.5 4h325v362q0 7 4 13t12.5 10.5t22.5 7t34 2.5t33.5 -2.5t22 -7
t12.5 -10.5t4 -13v-362h326q7 0 13.5 -4t12 -12t8 -21.5t2.5 -31.5zM938 70q0 -20 -3 -33.5t-8.5 -22t-11.5 -11.5t-13 -3h-781q-7 0 -13.5 3t-11.5 11.5t-8.5 22t-3.5 33.5t3 33t7.5 21.5t11.5 13t14 4.5h783q8 0 14 -4.5t11 -13t7.5 -21.5t2.5 -33z" />
    <glyph glyph-name="uni00B2" unicode="&#xb2;" horiz-adv-x="688" 
d="M615 780q0 -29 -6 -44t-20 -15h-470q-11 0 -19.5 2t-14 8t-8 17t-2.5 28q0 16 1.5 27t5.5 20.5t10.5 18t16.5 19.5l153 150q50 48 80.5 87t47.5 71t22 59t5 51q0 47 -32 77t-91 30q-37 0 -66.5 -10t-52 -21t-38.5 -21t-24 -10q-4 0 -8.5 3t-7.5 10.5t-4.5 19t-1.5 27.5
q0 22 3 35.5t12 22.5t30 21.5t50.5 23t65.5 17.5t76 7q63 0 110.5 -16t78.5 -44t46.5 -67t15.5 -84q0 -35 -6.5 -69.5t-29.5 -77t-66.5 -94.5t-116.5 -120l-106 -101h334q12 0 19.5 -15t7.5 -43z" />
    <glyph glyph-name="uni00B3" unicode="&#xb3;" horiz-adv-x="685" 
d="M601 944q0 -56 -21.5 -100t-61 -74t-97 -46t-127.5 -16q-47 0 -85 6t-65.5 14.5t-43.5 17t-20 12t-7 9t-4.5 13t-2.5 19t-1 29.5q0 22 5 36t17 14q6 0 22 -9t41 -19t58.5 -18.5t74.5 -8.5q76 0 117 30t41 85q0 29 -12 52.5t-36.5 39.5t-60.5 24t-84 8h-72q-8 0 -13 3
t-8.5 10t-5.5 18t-2 27q0 14 2 24t5.5 16t8.5 9t12 3h69q83 0 127 33t44 92q0 46 -30 73t-91 27q-36 0 -67.5 -9.5t-56 -21t-41 -21t-22.5 -9.5q-11 0 -15.5 12t-4.5 41q0 13 1 22t2.5 15.5t4 11t8.5 10.5t28 17.5t51.5 21.5t65.5 17t74 7q62 0 108.5 -14t77 -40t45 -61.5
t14.5 -78.5q0 -72 -39 -122t-116 -66v-2q40 -3 74.5 -17.5t60.5 -39t40 -56.5t14 -70z" />
    <glyph glyph-name="acute" unicode="&#xb4;" horiz-adv-x="598" 
d="M286 1365q6 11 14 18t19.5 11t28.5 6t41 2q28 0 45.5 -3.5t24.5 -10t6 -15t-9 -17.5l-181 -233q-8 -10 -14.5 -16t-15 -9.5t-22 -5t-33.5 -1.5q-22 0 -35 3t-18.5 8t-4 13t8.5 19zM0 951z" />
    <glyph glyph-name="mu" unicode="&#xb5;" horiz-adv-x="1126" 
d="M1104 76q0 -31 -3.5 -47t-10.5 -22t-17.5 -10.5t-26.5 -7.5t-32.5 -5t-36.5 -2q-84 0 -134 36.5t-66 123.5q-73 -84 -145 -120.5t-142 -36.5q-58 0 -104.5 16t-77.5 55q2 -22 3.5 -47.5t3.5 -52t2.5 -52.5t0.5 -48v-188q0 -8 -4 -14t-13 -10t-25 -6t-41 -2q-24 0 -40 2
t-25.5 6t-13 10t-3.5 14v1257q0 8 3.5 13.5t13 10t25.5 6t40 1.5q25 0 41 -1.5t25 -6t13 -10t4 -13.5v-566q0 -111 49 -173t142 -62q62 0 123.5 43.5t130.5 128.5v629q0 8 4 13.5t13 10t25 6t41 1.5q24 0 40 -1.5t25 -6t13 -10t4 -13.5v-654q0 -41 4 -69.5t13 -45.5
t24.5 -25t39.5 -8q16 0 28 2t20.5 4t15 4t13.5 2q4 0 7.5 -2.5t6 -8.5t3.5 -17.5t1 -30.5z" />
    <glyph glyph-name="paragraph" unicode="&#xb6;" horiz-adv-x="1200" 
d="M1022 -205q0 -7 -3.5 -12.5t-11.5 -8.5t-22 -5.5t-35 -2.5q-20 0 -34 2.5t-22.5 5.5t-11.5 8.5t-3 12.5v1370h-198v-1370q0 -7 -4 -12.5t-11.5 -8.5t-21.5 -5.5t-35 -2.5q-42 0 -57 8t-15 21v738q-103 0 -183 25.5t-135 74t-83.5 118t-28.5 158.5q0 82 29 152t83.5 122
t136 81.5t206.5 29.5h403q29 0 43 -17t14 -43v-1439z" />
    <glyph glyph-name="periodcentered" unicode="&#xb7;" horiz-adv-x="517" 
d="M366 584q0 -71 -23.5 -94.5t-85.5 -23.5q-60 0 -83 23t-23 92q0 71 23.5 94.5t85.5 23.5q60 0 83 -23t23 -92z" />
    <glyph glyph-name="periodcentered" unicode="&#x2219;" horiz-adv-x="517" 
d="M366 584q0 -71 -23.5 -94.5t-85.5 -23.5q-60 0 -83 23t-23 92q0 71 23.5 94.5t85.5 23.5q60 0 83 -23t23 -92z" />
    <glyph glyph-name="cedilla" unicode="&#xb8;" horiz-adv-x="629" 
d="M458 -74q21 -45 30.5 -74.5t9.5 -55.5q0 -38 -14 -68t-40 -50.5t-62 -31.5t-81 -11q-34 0 -65.5 4.5t-54 9.5t-31 9t-12 10t-5 15t-1.5 24q0 31 6.5 41.5t21.5 10.5h124q32 0 50 13.5t18 40.5q0 13 -6 32.5t-16 41.5l-51 113h145z" />
    <glyph glyph-name="uni00B9" unicode="&#xb9;" horiz-adv-x="504" 
d="M373 739q0 -7 -4 -11.5t-13 -7t-22.5 -4t-33.5 -1.5t-33 1t-21 4t-11.5 7.5t-3.5 11.5v628l-149 -80q-14 -7 -23 -8t-14 4t-7.5 16t-2.5 28q0 14 1 24t3.5 16.5t7 11.5t11.5 10l186 111q3 1 8.5 3t13 3t18.5 1.5t27 0.5q20 0 32.5 -1.5t19 -3.5t8.5 -5.5t2 -8.5v-750z
" />
    <glyph glyph-name="ordmasculine" unicode="&#xba;" horiz-adv-x="865" 
d="M761 965q0 -79 -22 -144.5t-63.5 -112t-103.5 -72.5t-142 -26q-85 0 -147.5 23.5t-103 68t-60 109t-19.5 147.5q0 78 21 142.5t62.5 111t104.5 72.5t148 26q80 0 141 -24.5t101.5 -69t61.5 -108.5t21 -143zM724 407q0 -34 -8.5 -48t-26.5 -14h-518q-17 0 -26 14t-9 48
q0 35 9 49t26 14h518q18 0 26.5 -14t8.5 -49zM600 958q0 46 -8.5 87.5t-28 73t-52 50t-81.5 18.5q-44 0 -76 -16.5t-52.5 -46t-30.5 -71t-10 -91.5q0 -49 8 -90.5t27.5 -72t52.5 -48t81 -17.5q41 0 73 13.5t53.5 41t32.5 70t11 99.5z" />
    <glyph glyph-name="guillemotright" unicode="&#xbb;" horiz-adv-x="1049" 
d="M699 127q-5 -8 -10.5 -13t-14 -8t-22.5 -4t-36 -1q-25 0 -40 3t-22.5 9t-7 14t6.5 18l213 374l-214 373q-6 10 -6.5 18.5t6.5 15t22 9.5t40 3q22 0 35.5 -1t22.5 -4t14 -8t11 -13l220 -353q14 -23 14 -43t-15 -43zM333 146q-5 -8 -10 -13t-14 -7.5t-23 -3.5t-37 -1
q-26 0 -41.5 2.5t-23 8t-7.5 13t7 17.5l215 355l-220 361q-6 10 -6 17t7.5 12t23 8t41.5 3q22 0 36.5 -1t23 -4t14 -7.5t10.5 -12.5l219 -336q14 -21 14 -40.5t-15 -41.5z" />
    <glyph glyph-name="onequarter" unicode="&#xbc;" horiz-adv-x="1303" 
d="M1228 184q0 -26 -6 -40t-17 -14h-75v-113q0 -6 -3.5 -10t-11.5 -7t-21.5 -4.5t-33.5 -1.5q-19 0 -32 1.5t-21 4.5t-11.5 7t-3.5 10v113h-286q-8 0 -14 2t-9.5 8t-5.5 18t-2 31q0 16 0.5 27t2.5 20t5.5 17t9.5 18l236 362q3 4 10 7.5t18.5 6.5t29 4.5t41.5 1.5
q28 0 47.5 -1.5t32 -4.5t17.5 -7.5t5 -9.5v-396h75q10 0 16.5 -11.5t6.5 -38.5zM992 536h-2l-199 -302h201v302zM247 -8q-5 -9 -12 -13.5t-17 -8t-24 -5t-34 -1.5q-22 0 -35.5 4t-19 10.5t-4 16t9.5 21.5l900 1289q5 8 12 13.5t17.5 8.5t24 4.5t34.5 1.5t34.5 -3.5
t19.5 -10.5t4.5 -17t-9.5 -21zM406 664q0 -6 -4 -10.5t-12.5 -7.5t-22 -4t-34.5 -1q-19 0 -32.5 1t-22 4t-12 7.5t-3.5 10.5v504l-149 -78q-14 -7 -23 -8.5t-14 3t-7 14.5t-2 27q0 13 0.5 23.5t3.5 18.5t7.5 13t10.5 9l187 110q4 1 8.5 2t11 1.5t17 1t26.5 0.5q21 0 33.5 -1
t20 -3t10 -4.5t2.5 -7.5v-625z" />
    <glyph glyph-name="onehalf" unicode="&#xbd;" horiz-adv-x="1375" 
d="M406 664q0 -6 -4 -10.5t-12.5 -7.5t-22 -4t-34.5 -1q-19 0 -32.5 1t-22 4t-12 7.5t-3.5 10.5v504l-149 -78q-14 -7 -23 -8.5t-14 3t-7 14.5t-2 27q0 13 0.5 23.5t3.5 18.5t7.5 13t10.5 9l187 110q4 1 8.5 2t11 1.5t17 1t26.5 0.5q21 0 33.5 -1t20 -3t10 -4.5t2.5 -7.5
v-625zM1284 53q0 -28 -6.5 -40.5t-16.5 -12.5h-413q-12 0 -19.5 2t-12.5 8t-7.5 17t-2.5 30q0 15 1 25.5t4 19.5t8.5 16.5t16.5 16.5l133 122q37 35 62 61t40 49t21.5 45t6.5 47q0 39 -27 64t-73 25q-34 0 -60.5 -8t-46 -17.5t-32.5 -17.5t-20 -8q-4 0 -8 3t-6.5 10t-4 18
t-1.5 28q0 20 2.5 30t9.5 18t26.5 18t46 19t59 15t67.5 6q56 0 97.5 -13.5t69.5 -38.5t41.5 -59t13.5 -75q0 -33 -8.5 -64.5t-29 -65t-57 -72t-91.5 -83.5l-95 -80h285q14 0 20.5 -15t6.5 -43zM247 -8q-5 -9 -12 -13.5t-17 -8t-24 -5t-34 -1.5q-22 0 -35.5 4t-19 10.5t-4 16
t9.5 21.5l900 1289q5 8 12 13.5t17.5 8.5t24 4.5t34.5 1.5t34.5 -3.5t19.5 -10.5t4.5 -17t-9.5 -21z" />
    <glyph glyph-name="threequarters" unicode="&#xbe;" horiz-adv-x="1383" 
d="M554 832q0 -45 -20 -82t-56 -63t-87 -40.5t-113 -14.5q-34 0 -65.5 4.5t-57.5 11.5t-44.5 15.5t-26 16.5t-10.5 20.5t-3 38.5q0 27 4.5 36t13.5 9q8 0 22 -7.5t35 -16t51 -15.5t72 -7q35 0 59.5 8t40 20.5t23 29t7.5 33.5q0 23 -9 41t-28.5 31t-50.5 19.5t-75 6.5h-66
q-7 0 -12 2.5t-8 8.5t-5 16t-2 24q0 15 2 24.5t5 15t7.5 7.5t10.5 2h65q71 0 108 25.5t37 70.5q0 35 -26 58.5t-83 23.5q-29 0 -55 -8t-46.5 -17.5t-35 -17t-20.5 -7.5q-4 0 -8 2t-7 8t-4.5 15.5t-1.5 23.5q0 11 0.5 18.5t2 13.5t4 10t7.5 9t23 14.5t45 18t60.5 15t71.5 6.5
q56 0 97 -12.5t68.5 -34t41 -52t13.5 -67.5q0 -29 -9.5 -54t-27 -45.5t-43 -35t-55.5 -22.5q40 -4 70.5 -17t51 -33t31.5 -46.5t11 -57.5zM326 -8q-5 -9 -12 -13.5t-17 -8t-24 -5t-34 -1.5q-22 0 -35.5 4t-19 10.5t-4 16t9.5 21.5l900 1289q5 8 12 13.5t17.5 8.5t24 4.5
t34.5 1.5t34.5 -3.5t19.5 -10.5t4.5 -17t-9.5 -21zM1308 184q0 -26 -6 -40t-17 -14h-75v-113q0 -6 -3.5 -10t-11.5 -7t-21.5 -4.5t-33.5 -1.5q-19 0 -32 1.5t-21 4.5t-11.5 7t-3.5 10v113h-286q-8 0 -14 2t-9.5 8t-5.5 18t-2 31q0 16 0.5 27t2.5 20t5.5 17t9.5 18l236 362
q3 4 10 7.5t18.5 6.5t29 4.5t41.5 1.5q28 0 47.5 -1.5t32 -4.5t17.5 -7.5t5 -9.5v-396h75q10 0 16.5 -11.5t6.5 -38.5zM1072 536h-2l-199 -302h201v302z" />
    <glyph glyph-name="questiondown" unicode="&#xbf;" horiz-adv-x="949" 
d="M94.1045 191.121q0 87.9893 24.9971 155.98q24.9971 67.9922 69.9912 115.986t107.987 74.9902q62.9922 26.9971 139.982 31.9961l6.99902 240.971q0 14.998 17.498 22.498q17.498 7.49902 56.4932 7.49902q20.9971 0 35.9951 -1.5q14.999 -1.5 23.9971 -5
q8.99902 -3.49902 12.999 -9.49805q3.99902 -6 3.99902 -13.999l6 -276.966q0.999023 -22.9971 -3.5 -37.4951q-4.5 -14.498 -13.498 -23.9971q-8.99902 -9.49902 -22.998 -12.999q-13.998 -3.49902 -31.9961 -3.49902h-21.9971q-64.9922 0 -110.986 -20.498
q-45.9941 -20.4971 -74.4912 -54.4932q-28.4961 -33.9961 -41.4941 -79.9902q-12.999 -45.9941 -12.999 -95.9883q0 -56.9932 15.998 -104.487t47.9941 -81.9902q31.9961 -34.4951 80.4902 -53.4932t114.486 -18.998q57.9932 0 101.487 12.499
q43.4951 12.498 75.4912 27.4971q31.9961 14.998 52.4932 26.9961q20.498 11.999 30.4961 11.999q7 0 12.499 -3t9.49902 -11.499q3.99902 -8.49805 5.99902 -22.9971q2 -14.498 2 -36.4951q0 -23.9971 -3 -36.4961q-3 -12.498 -12.998 -21.9971
q-9.99902 -9.49902 -38.4961 -24.9971q-28.4961 -15.498 -68.9912 -28.4961t-88.9893 -21.9971t-100.487 -8.99902q-106.987 0 -183.978 30.4961q-76.9912 30.4961 -126.984 82.4902q-49.9941 51.9932 -73.9912 121.984q-23.9971 69.9922 -23.9971 147.982zM410.065 1078.01
q0 32.9961 4.5 54.4932q4.49902 21.498 16.498 34.9961q11.998 13.498 32.4961 18.9971q20.4971 5.5 50.4932 5.5q31.9961 0 51.9941 -5.5q19.9971 -5.49902 32.4961 -18.9971q12.498 -13.498 16.998 -34.9961q4.49902 -21.4971 4.49902 -54.4932t-4.49902 -55.4932
q-4.5 -22.4971 -16.998 -34.9961q-12.499 -12.498 -32.4961 -17.9971q-19.998 -5.5 -51.9941 -5.5q-29.9961 0 -50.4932 5.5q-20.498 5.49902 -32.4961 17.9971q-11.999 12.499 -16.498 34.9961q-4.5 22.4971 -4.5 55.4932z" />
    <glyph glyph-name="Agrave" unicode="&#xc0;" horiz-adv-x="1185" 
d="M1141 61q8 -22 8.5 -35.5t-7.5 -20.5t-26.5 -9t-49.5 -2t-49.5 1.5t-28 5t-14 9.5t-8.5 15l-111 315h-538l-106 -311q-3 -9 -8 -15.5t-14.5 -11t-27 -6.5t-45.5 -2q-29 0 -47.5 2.5t-26 9.5t-7 20.5t8.5 35.5l434 1202q4 11 10.5 18t19 11t32 5.5t49.5 1.5q32 0 53 -1.5
t34 -5.5t20 -11.5t11 -18.5zM584 1122h-1l-223 -645h450zM643 1438q9 -11 11.5 -19t-2.5 -13.5t-18.5 -8t-36.5 -2.5q-21 0 -35 1.5t-25 5t-19.5 9t-18.5 15.5l-226 212q-11 10 -13.5 19t4.5 16t24.5 11.5t47.5 4.5q25 0 42.5 -1.5t30.5 -5.5t24 -11t22 -20zM127 1294z" />
    <glyph glyph-name="Aacute" unicode="&#xc1;" horiz-adv-x="1185" 
d="M1141 61q8 -22 8.5 -35.5t-7.5 -20.5t-26.5 -9t-49.5 -2t-49.5 1.5t-28 5t-14 9.5t-8.5 15l-111 315h-538l-106 -311q-3 -9 -8 -15.5t-14.5 -11t-27 -6.5t-45.5 -2q-29 0 -47.5 2.5t-26 9.5t-7 20.5t8.5 35.5l434 1202q4 11 10.5 18t19 11t32 5.5t49.5 1.5q32 0 53 -1.5
t34 -5.5t20 -11.5t11 -18.5zM584 1122h-1l-223 -645h450zM704 1651q11 13 21.5 20t23.5 11t31 5.5t43 1.5q30 0 47 -4.5t24 -11.5t4.5 -16t-11.5 -19l-227 -212q-10 -10 -18.5 -15.5t-19.5 -9t-25.5 -5t-35.5 -1.5q-23 0 -36 2.5t-18 8t-3 13.5t11 19zM371 1294z" />
    <glyph glyph-name="Acircumflex" unicode="&#xc2;" horiz-adv-x="1185" 
d="M1141 61q8 -22 8.5 -35.5t-7.5 -20.5t-26.5 -9t-49.5 -2t-49.5 1.5t-28 5t-14 9.5t-8.5 15l-111 315h-538l-106 -311q-3 -9 -8 -15.5t-14.5 -11t-27 -6.5t-45.5 -2q-29 0 -47.5 2.5t-26 9.5t-7 20.5t8.5 35.5l434 1202q4 11 10.5 18t19 11t32 5.5t49.5 1.5q32 0 53 -1.5
t34 -5.5t20 -11.5t11 -18.5zM584 1122h-1l-223 -645h450zM605 1689q21 0 35 -1t24.5 -4.5t18 -9t16.5 -14.5l214 -227q9 -10 11 -17.5t-4 -12t-20 -6.5t-36 -2q-30 0 -48 1.5t-29 4t-17.5 7t-11.5 9.5l-154 173l-159 -168q-8 -8 -16 -13.5t-20 -8.5t-30 -4t-45 -1
q-25 0 -38.5 2.5t-19 7t-3.5 11.5t11 17l224 227q8 9 16.5 14.5t19.5 9t25.5 4.5t35.5 1zM140 1294z" />
    <glyph glyph-name="Atilde" unicode="&#xc3;" horiz-adv-x="1185" 
d="M1141 61q8 -22 8.5 -35.5t-7.5 -20.5t-26.5 -9t-49.5 -2t-49.5 1.5t-28 5t-14 9.5t-8.5 15l-111 315h-538l-106 -311q-3 -9 -8 -15.5t-14.5 -11t-27 -6.5t-45.5 -2q-29 0 -47.5 2.5t-26 9.5t-7 20.5t8.5 35.5l434 1202q4 11 10.5 18t19 11t32 5.5t49.5 1.5q32 0 53 -1.5
t34 -5.5t20 -11.5t11 -18.5zM584 1122h-1l-223 -645h450zM819 1614q0 13 14 17.5t48 4.5q36 0 47 -7.5t11 -32.5q0 -93 -51.5 -146.5t-145.5 -53.5q-53 0 -92 18t-71.5 39.5t-61 39t-60.5 17.5q-42 0 -59 -25t-17 -67q0 -7 -4.5 -11.5t-12.5 -7t-19.5 -3t-25.5 -0.5
q-36 0 -47 8t-11 32q0 48 14 85.5t40 62.5t62.5 38.5t80.5 13.5q53 0 92 -18t71 -39t60.5 -39t61.5 -18q35 0 55.5 20.5t20.5 71.5zM132 1294z" />
    <glyph glyph-name="Adieresis" unicode="&#xc4;" horiz-adv-x="1185" 
d="M1141 61q8 -22 8.5 -35.5t-7.5 -20.5t-26.5 -9t-49.5 -2t-49.5 1.5t-28 5t-14 9.5t-8.5 15l-111 315h-538l-106 -311q-3 -9 -8 -15.5t-14.5 -11t-27 -6.5t-45.5 -2q-29 0 -47.5 2.5t-26 9.5t-7 20.5t8.5 35.5l434 1202q4 11 10.5 18t19 11t32 5.5t49.5 1.5q32 0 53 -1.5
t34 -5.5t20 -11.5t11 -18.5zM584 1122h-1l-223 -645h450zM488 1529q0 -56 -21 -77t-77 -21t-76 20.5t-20 75.5q0 56 20.5 76.5t76.5 20.5t76.5 -20t20.5 -75zM901 1529q0 -56 -20.5 -77t-77.5 -21q-55 0 -75.5 20.5t-20.5 75.5q0 56 21 76.5t76 20.5q57 0 77 -20t20 -75z
M162 1294z" />
    <glyph glyph-name="Aring" unicode="&#xc5;" horiz-adv-x="1185" 
d="M1141 61q8 -22 8.5 -35.5t-7.5 -20.5t-26.5 -9t-49.5 -2t-49.5 1.5t-28 5t-14 9.5t-8.5 15l-111 315h-538l-106 -311q-3 -9 -8 -15.5t-14.5 -11t-27 -6.5t-45.5 -2q-29 0 -47.5 2.5t-26 9.5t-7 20.5t8.5 35.5l434 1202q4 11 10.5 18t19 11t32 5.5t49.5 1.5q32 0 53 -1.5
t34 -5.5t20 -11.5t11 -18.5zM584 1122h-1l-223 -645h450zM802 1551q0 -42 -14.5 -77t-41.5 -60t-65.5 -39.5t-86.5 -14.5q-51 0 -88.5 13.5t-62.5 37.5t-37 58t-12 75q0 43 13.5 78t40.5 59.5t65.5 38.5t87.5 14q97 0 149 -48.5t52 -134.5zM690 1545q0 42 -21.5 70.5
t-70.5 28.5q-46 0 -69.5 -25t-23.5 -68q0 -46 21.5 -73t73.5 -27q46 0 68 26.5t22 67.5zM262 1294z" />
    <glyph glyph-name="AE" unicode="&#xc6;" horiz-adv-x="1563" 
d="M1453 71q0 -18 -2 -31.5t-6.5 -22.5t-11 -13t-13.5 -4h-621q-24 0 -44 15.5t-20 54.5v246h-446l-154 -288q-5 -10 -11 -16.5t-17.5 -10.5t-30 -5.5t-47.5 -1.5q-21 0 -36 1t-25.5 3.5t-15 8t-4.5 13.5q0 7 3.5 17t11.5 25l652 1195q6 12 14.5 19.5t21.5 11t32.5 5
t48.5 1.5h680q8 0 14.5 -4t11 -13t6.5 -22.5t2 -33.5q0 -18 -2 -31.5t-6.5 -22t-11 -12.5t-14.5 -4h-506v-407h434q9 0 15.5 -4t10.5 -13t6.5 -22.5t2.5 -32.5t-2.5 -32t-6.5 -22t-10.5 -13t-15.5 -4h-434v-458h514q7 0 13.5 -4t11 -12.5t6.5 -22t2 -33.5zM735 1151h-6
l-375 -697h381v697z" />
    <glyph glyph-name="Ccedilla" unicode="&#xc7;" horiz-adv-x="1092" 
d="M737 -74q22 -45 31 -74.5t9 -55.5q0 -38 -14 -68t-39.5 -50.5t-61.5 -31.5t-81 -11q-35 0 -66 4.5t-54 9.5t-31 9t-11.5 10t-5 15t-1.5 24q0 31 6.5 41.5t21.5 10.5h123q33 0 51 13.5t18 40.5q0 13 -6 32.5t-16 41.5l-46 102q-89 10 -172 49t-150.5 116.5t-106 198
t-38.5 277.5q0 161 41.5 287t116.5 213.5t179.5 133.5t231.5 46q56 0 109 -10.5t98 -26.5t80 -37t48.5 -34.5t17.5 -20.5t6.5 -16.5t4 -22.5t1.5 -31q0 -20 -2 -34t-6 -23.5t-9.5 -14t-13.5 -4.5q-14 0 -39 19.5t-64.5 43t-96 43t-135.5 19.5q-86 0 -156.5 -34.5
t-120.5 -101.5t-77.5 -163.5t-27.5 -220.5q0 -123 26.5 -217.5t76 -158t121.5 -96t163 -32.5q73 0 131.5 18.5t100 42.5t67.5 43t41 19q7 0 12 -3t8 -11.5t4.5 -23.5t1.5 -38q0 -16 -1 -28t-3.5 -21t-6.5 -16t-14 -17t-42 -30.5t-77.5 -39.5t-92.5 -30t-89 -14z" />
    <glyph glyph-name="Egrave" unicode="&#xc8;" horiz-adv-x="1000" 
d="M892 71q0 -18 -2 -31.5t-7 -22.5t-11.5 -13t-14.5 -4h-621q-23 0 -43.5 15.5t-20.5 54.5v1154q0 39 20.5 54.5t43.5 15.5h614q8 0 14.5 -4t10.5 -13t6.5 -22.5t2.5 -33.5q0 -18 -2.5 -31.5t-6.5 -22t-10.5 -12.5t-14.5 -4h-506v-406h434q8 0 14.5 -4.5t11 -12.5t6.5 -22
t2 -33q0 -18 -2 -31t-6.5 -21t-11 -11.5t-14.5 -3.5h-434v-463h513q8 0 14.5 -4t11.5 -12.5t7 -22t2 -33.5zM585 1438q9 -11 11.5 -19t-2.5 -13.5t-18.5 -8t-36.5 -2.5q-21 0 -35 1.5t-25 5t-19.5 9t-18.5 15.5l-226 212q-11 10 -13.5 19t4.5 16t24.5 11.5t47.5 4.5
q25 0 42.5 -1.5t30.5 -5.5t24 -11t22 -20zM69 1294z" />
    <glyph glyph-name="Eacute" unicode="&#xc9;" horiz-adv-x="1000" 
d="M892 71q0 -18 -2 -31.5t-7 -22.5t-11.5 -13t-14.5 -4h-621q-23 0 -43.5 15.5t-20.5 54.5v1154q0 39 20.5 54.5t43.5 15.5h614q8 0 14.5 -4t10.5 -13t6.5 -22.5t2.5 -33.5q0 -18 -2.5 -31.5t-6.5 -22t-10.5 -12.5t-14.5 -4h-506v-406h434q8 0 14.5 -4.5t11 -12.5t6.5 -22
t2 -33q0 -18 -2 -31t-6.5 -21t-11 -11.5t-14.5 -3.5h-434v-463h513q8 0 14.5 -4t11.5 -12.5t7 -22t2 -33.5zM654 1651q11 13 21.5 20t23.5 11t31 5.5t43 1.5q30 0 47 -4.5t24 -11.5t4.5 -16t-11.5 -19l-227 -212q-10 -10 -18.5 -15.5t-19.5 -9t-25.5 -5t-35.5 -1.5
q-23 0 -36 2.5t-18 8t-3 13.5t11 19zM321 1294z" />
    <glyph glyph-name="Ecircumflex" unicode="&#xca;" horiz-adv-x="1000" 
d="M892 71q0 -18 -2 -31.5t-7 -22.5t-11.5 -13t-14.5 -4h-621q-23 0 -43.5 15.5t-20.5 54.5v1154q0 39 20.5 54.5t43.5 15.5h614q8 0 14.5 -4t10.5 -13t6.5 -22.5t2.5 -33.5q0 -18 -2.5 -31.5t-6.5 -22t-10.5 -12.5t-14.5 -4h-506v-406h434q8 0 14.5 -4.5t11 -12.5t6.5 -22
t2 -33q0 -18 -2 -31t-6.5 -21t-11 -11.5t-14.5 -3.5h-434v-463h513q8 0 14.5 -4t11.5 -12.5t7 -22t2 -33.5zM535 1689q21 0 35 -1t24.5 -4.5t18 -9t16.5 -14.5l214 -227q9 -10 11 -17.5t-4 -12t-20 -6.5t-36 -2q-30 0 -48 1.5t-29 4t-17.5 7t-11.5 9.5l-154 173l-159 -168
q-8 -8 -16 -13.5t-20 -8.5t-30 -4t-45 -1q-25 0 -38.5 2.5t-19 7t-3.5 11.5t11 17l224 227q8 9 16.5 14.5t19.5 9t25.5 4.5t35.5 1zM70 1294z" />
    <glyph glyph-name="Edieresis" unicode="&#xcb;" horiz-adv-x="1000" 
d="M892 71q0 -18 -2 -31.5t-7 -22.5t-11.5 -13t-14.5 -4h-621q-23 0 -43.5 15.5t-20.5 54.5v1154q0 39 20.5 54.5t43.5 15.5h614q8 0 14.5 -4t10.5 -13t6.5 -22.5t2.5 -33.5q0 -18 -2.5 -31.5t-6.5 -22t-10.5 -12.5t-14.5 -4h-506v-406h434q8 0 14.5 -4.5t11 -12.5t6.5 -22
t2 -33q0 -18 -2 -31t-6.5 -21t-11 -11.5t-14.5 -3.5h-434v-463h513q8 0 14.5 -4t11.5 -12.5t7 -22t2 -33.5zM425 1529q0 -56 -21 -77t-77 -21t-76 20.5t-20 75.5q0 56 20.5 76.5t76.5 20.5t76.5 -20t20.5 -75zM838 1529q0 -56 -20.5 -77t-77.5 -21q-55 0 -75.5 20.5
t-20.5 75.5q0 56 21 76.5t76 20.5q57 0 77 -20t20 -75zM99 1294z" />
    <glyph glyph-name="Igrave" unicode="&#xcc;" horiz-adv-x="516" 
d="M344 26q0 -8 -4 -14t-14 -9.5t-26.5 -6t-41.5 -2.5q-24 0 -41 2.5t-27 6t-14 9.5t-4 14v1242q0 8 4.5 14t15 9.5t27 6t39.5 2.5q25 0 41.5 -2.5t26.5 -6t14 -9.5t4 -14v-1242zM334 1438q9 -11 11.5 -19t-2.5 -13.5t-18.5 -8t-36.5 -2.5q-21 0 -35 1.5t-25 5t-19.5 9
t-18.5 15.5l-226 212q-11 10 -13.5 19t4.5 16t24.5 11.5t47.5 4.5q25 0 42.5 -1.5t30.5 -5.5t24 -11t22 -20zM-182 1294z" />
    <glyph glyph-name="Iacute" unicode="&#xcd;" horiz-adv-x="516" 
d="M344 26q0 -8 -4 -14t-14 -9.5t-26.5 -6t-41.5 -2.5q-24 0 -41 2.5t-27 6t-14 9.5t-4 14v1242q0 8 4.5 14t15 9.5t27 6t39.5 2.5q25 0 41.5 -2.5t26.5 -6t14 -9.5t4 -14v-1242zM373 1651q11 13 21.5 20t23.5 11t31 5.5t43 1.5q30 0 47 -4.5t24 -11.5t4.5 -16t-11.5 -19
l-227 -212q-10 -10 -18.5 -15.5t-19.5 -9t-25.5 -5t-35.5 -1.5q-23 0 -36 2.5t-18 8t-3 13.5t11 19zM40 1294z" />
    <glyph glyph-name="Icircumflex" unicode="&#xce;" horiz-adv-x="516" 
d="M344 26q0 -8 -4 -14t-14 -9.5t-26.5 -6t-41.5 -2.5q-24 0 -41 2.5t-27 6t-14 9.5t-4 14v1242q0 8 4.5 14t15 9.5t27 6t39.5 2.5q25 0 41.5 -2.5t26.5 -6t14 -9.5t4 -14v-1242zM266 1689q21 0 35 -1t24.5 -4.5t18 -9t16.5 -14.5l214 -227q9 -10 11 -17.5t-4 -12t-20 -6.5
t-36 -2q-30 0 -48 1.5t-29 4t-17.5 7t-11.5 9.5l-154 173l-159 -168q-8 -8 -16 -13.5t-20 -8.5t-30 -4t-45 -1q-25 0 -38.5 2.5t-19 7t-3.5 11.5t11 17l224 227q8 9 16.5 14.5t19.5 9t25.5 4.5t35.5 1zM-199 1294z" />
    <glyph glyph-name="Idieresis" unicode="&#xcf;" horiz-adv-x="516" 
d="M344 26q0 -8 -4 -14t-14 -9.5t-26.5 -6t-41.5 -2.5q-24 0 -41 2.5t-27 6t-14 9.5t-4 14v1242q0 8 4.5 14t15 9.5t27 6t39.5 2.5q25 0 41.5 -2.5t26.5 -6t14 -9.5t4 -14v-1242zM150 1529q0 -56 -21 -77t-77 -21t-76 20.5t-20 75.5q0 56 20.5 76.5t76.5 20.5t76.5 -20
t20.5 -75zM563 1529q0 -56 -20.5 -77t-77.5 -21q-55 0 -75.5 20.5t-20.5 75.5q0 56 21 76.5t76 20.5q57 0 77 -20t20 -75zM-176 1294z" />
    <glyph glyph-name="Eth" unicode="&#xd0;" horiz-adv-x="1279" 
d="M1186 666q0 -168 -43 -293.5t-126 -208t-203 -123.5t-286 -41h-274q-23 0 -43 15.5t-20 54.5v531h-130q-8 0 -14.5 4t-11 12.5t-6.5 22t-2 32.5t2 32.5t6.5 22.5t11 13t14.5 4h130v480q0 39 20 54.5t43 15.5h293q168 0 284.5 -43.5t195 -125t119 -197.5t40.5 -262z
M1004 659q0 105 -26 195.5t-81 156.5t-140.5 103t-219.5 37h-175v-407h236q7 0 13.5 -4t11 -13t6.5 -22.5t2 -32.5t-2 -32t-6.5 -22t-11 -13t-13.5 -4h-236v-457h178q124 0 209 31t141.5 95t85 160.5t28.5 228.5z" />
    <glyph glyph-name="Ntilde" unicode="&#xd1;" horiz-adv-x="1322" 
d="M1150 71q0 -20 -6.5 -34t-17 -23t-23.5 -13t-26 -4h-55q-26 0 -45.5 5.5t-37 20t-35 39.5t-38.5 64l-408 736q-32 57 -64.5 119.5t-60.5 121.5h-2q2 -72 3 -147t1 -149v-781q0 -7 -4 -13.5t-13.5 -10t-25 -6t-39.5 -2.5t-39.5 2.5t-24.5 6t-13 10t-4 13.5v1194
q0 40 22 57t48 17h82q29 0 48.5 -5t35 -16.5t30 -32t31.5 -51.5l314 -568q29 -52 56 -101.5t52 -97.5t49.5 -94.5t48.5 -93.5h1q-2 79 -2.5 164.5t-0.5 164.5v702q0 7 4 13t13.5 10.5t25 6.5t40.5 2q22 0 38 -2t25 -6.5t13 -10.5t4 -13v-1194zM881 1614q0 13 14 17.5t48 4.5
q36 0 47 -7.5t11 -32.5q0 -93 -51.5 -146.5t-145.5 -53.5q-53 0 -92 18t-71.5 39.5t-61 39t-60.5 17.5q-42 0 -59 -25t-17 -67q0 -7 -4.5 -11.5t-12.5 -7t-19.5 -3t-25.5 -0.5q-36 0 -47 8t-11 32q0 48 14 85.5t40 62.5t62.5 38.5t80.5 13.5q53 0 92 -18t71 -39t60.5 -39
t61.5 -18q35 0 55.5 20.5t20.5 71.5zM194 1294z" />
    <glyph glyph-name="Ograve" unicode="&#xd2;" horiz-adv-x="1356" 
d="M1256 662q0 -157 -37 -283t-110.5 -214.5t-184.5 -136t-259 -47.5q-146 0 -252.5 43.5t-176 126.5t-103.5 206t-34 283q0 153 37 278t111 212.5t185 135t259 47.5q143 0 249 -43t176.5 -125.5t105 -204t34.5 -278.5zM1075 650q0 110 -19.5 204.5t-65 164t-121.5 108.5
t-188 39t-188 -42t-123.5 -112t-68 -163.5t-20.5 -196.5q0 -114 19 -210t64 -165.5t120.5 -108t189.5 -38.5q113 0 190 42t124 113.5t67 165.5t20 199zM757 1438q9 -11 11.5 -19t-2.5 -13.5t-18.5 -8t-36.5 -2.5q-21 0 -35 1.5t-25 5t-19.5 9t-18.5 15.5l-226 212
q-11 10 -13.5 19t4.5 16t24.5 11.5t47.5 4.5q25 0 42.5 -1.5t30.5 -5.5t24 -11t22 -20zM241 1294z" />
    <glyph glyph-name="Oacute" unicode="&#xd3;" horiz-adv-x="1356" 
d="M1256 662q0 -157 -37 -283t-110.5 -214.5t-184.5 -136t-259 -47.5q-146 0 -252.5 43.5t-176 126.5t-103.5 206t-34 283q0 153 37 278t111 212.5t185 135t259 47.5q143 0 249 -43t176.5 -125.5t105 -204t34.5 -278.5zM1075 650q0 110 -19.5 204.5t-65 164t-121.5 108.5
t-188 39t-188 -42t-123.5 -112t-68 -163.5t-20.5 -196.5q0 -114 19 -210t64 -165.5t120.5 -108t189.5 -38.5q113 0 190 42t124 113.5t67 165.5t20 199zM782 1651q11 13 21.5 20t23.5 11t31 5.5t43 1.5q30 0 47 -4.5t24 -11.5t4.5 -16t-11.5 -19l-227 -212
q-10 -10 -18.5 -15.5t-19.5 -9t-25.5 -5t-35.5 -1.5q-23 0 -36 2.5t-18 8t-3 13.5t11 19zM449 1294z" />
    <glyph glyph-name="Ocircumflex" unicode="&#xd4;" horiz-adv-x="1356" 
d="M1256 662q0 -157 -37 -283t-110.5 -214.5t-184.5 -136t-259 -47.5q-146 0 -252.5 43.5t-176 126.5t-103.5 206t-34 283q0 153 37 278t111 212.5t185 135t259 47.5q143 0 249 -43t176.5 -125.5t105 -204t34.5 -278.5zM1075 650q0 110 -19.5 204.5t-65 164t-121.5 108.5
t-188 39t-188 -42t-123.5 -112t-68 -163.5t-20.5 -196.5q0 -114 19 -210t64 -165.5t120.5 -108t189.5 -38.5q113 0 190 42t124 113.5t67 165.5t20 199zM689 1689q21 0 35 -1t24.5 -4.5t18 -9t16.5 -14.5l214 -227q9 -10 11 -17.5t-4 -12t-20 -6.5t-36 -2q-30 0 -48 1.5
t-29 4t-17.5 7t-11.5 9.5l-154 173l-159 -168q-8 -8 -16 -13.5t-20 -8.5t-30 -4t-45 -1q-25 0 -38.5 2.5t-19 7t-3.5 11.5t11 17l224 227q8 9 16.5 14.5t19.5 9t25.5 4.5t35.5 1zM224 1294z" />
    <glyph glyph-name="Otilde" unicode="&#xd5;" horiz-adv-x="1356" 
d="M1256 662q0 -157 -37 -283t-110.5 -214.5t-184.5 -136t-259 -47.5q-146 0 -252.5 43.5t-176 126.5t-103.5 206t-34 283q0 153 37 278t111 212.5t185 135t259 47.5q143 0 249 -43t176.5 -125.5t105 -204t34.5 -278.5zM1075 650q0 110 -19.5 204.5t-65 164t-121.5 108.5
t-188 39t-188 -42t-123.5 -112t-68 -163.5t-20.5 -196.5q0 -114 19 -210t64 -165.5t120.5 -108t189.5 -38.5q113 0 190 42t124 113.5t67 165.5t20 199zM903 1614q0 13 14 17.5t48 4.5q36 0 47 -7.5t11 -32.5q0 -93 -51.5 -146.5t-145.5 -53.5q-53 0 -92 18t-71.5 39.5
t-61 39t-60.5 17.5q-42 0 -59 -25t-17 -67q0 -7 -4.5 -11.5t-12.5 -7t-19.5 -3t-25.5 -0.5q-36 0 -47 8t-11 32q0 48 14 85.5t40 62.5t62.5 38.5t80.5 13.5q53 0 92 -18t71 -39t60.5 -39t61.5 -18q35 0 55.5 20.5t20.5 71.5zM216 1294z" />
    <glyph glyph-name="Odieresis" unicode="&#xd6;" horiz-adv-x="1356" 
d="M1256 662q0 -157 -37 -283t-110.5 -214.5t-184.5 -136t-259 -47.5q-146 0 -252.5 43.5t-176 126.5t-103.5 206t-34 283q0 153 37 278t111 212.5t185 135t259 47.5q143 0 249 -43t176.5 -125.5t105 -204t34.5 -278.5zM1075 650q0 110 -19.5 204.5t-65 164t-121.5 108.5
t-188 39t-188 -42t-123.5 -112t-68 -163.5t-20.5 -196.5q0 -114 19 -210t64 -165.5t120.5 -108t189.5 -38.5q113 0 190 42t124 113.5t67 165.5t20 199zM572 1529q0 -56 -21 -77t-77 -21t-76 20.5t-20 75.5q0 56 20.5 76.5t76.5 20.5t76.5 -20t20.5 -75zM985 1529
q0 -56 -20.5 -77t-77.5 -21q-55 0 -75.5 20.5t-20.5 75.5q0 56 21 76.5t76 20.5q57 0 77 -20t20 -75zM246 1294z" />
    <glyph glyph-name="multiply" unicode="&#xd7;" horiz-adv-x="1020" 
d="M610 573l302 -301q5 -6 8 -12t3 -13q0 -13 -9.5 -28t-24 -28t-29.5 -22t-25 -9q-6 0 -11.5 3t-11.5 7l-303 304l-303 -303q-6 -5 -12.5 -7.5t-13.5 -2.5q-12 0 -26.5 10t-27.5 23.5t-21.5 29t-8.5 25.5q0 12 10 23l304 304l-303 303q-5 5 -8 11t-3 13q0 13 10 28t24 28
t29 21.5t25 8.5q13 0 24 -11l303 -304l303 303q5 5 11 8t13 3q12 0 27 -10t28 -23.5t22 -29t9 -25.5q0 -6 -2 -12t-8 -11z" />
    <glyph glyph-name="Oslash" unicode="&#xd8;" horiz-adv-x="1359" 
d="M1260 662q0 -157 -37.5 -283t-112.5 -214.5t-186 -136t-257 -47.5q-62 0 -115 9t-99 26l-111 -222q-3 -6 -10 -11t-18.5 -7.5t-27 -4t-36.5 -1.5q-25 0 -40 3.5t-22 10.5t-6.5 16.5t6.5 20.5l128 259q-55 39 -95.5 94t-67.5 125t-40.5 155t-13.5 186q0 153 37 278
t111 212.5t185.5 135t259.5 47.5q61 0 113 -9.5t102 -27.5l108 221q4 7 11 12t18.5 8t27.5 4t37 1q25 0 39.5 -4t21.5 -10.5t6.5 -16t-6.5 -21.5l-127 -258q54 -40 94 -95t67.5 -124t41.5 -151.5t14 -179.5zM1081 652q0 125 -27.5 227t-90.5 174l-444 -894q33 -15 71.5 -23
t86.5 -8q114 0 191.5 42t125 113.5t67.5 166.5t20 202zM842 1136q-33 16 -72.5 24t-88.5 8q-113 0 -190 -41.5t-124.5 -112t-68 -164.5t-20.5 -199q0 -129 27.5 -235t91.5 -177z" />
    <glyph glyph-name="Ugrave" unicode="&#xd9;" horiz-adv-x="1314" 
d="M1145 478q0 -118 -34.5 -210.5t-98.5 -156.5t-156 -97t-209 -33q-107 0 -195 31t-151 91.5t-97 151.5t-34 210v803q0 8 4 14t14 9.5t26 6t42 2.5q24 0 41 -2.5t26.5 -6t13.5 -9.5t4 -14v-782q0 -90 22 -157t63.5 -111.5t100 -67t131.5 -22.5q75 0 133.5 22t99 66t62 109
t21.5 152v791q0 8 4 14t14 9.5t26.5 6t41.5 2.5q24 0 40.5 -2.5t26 -6t14 -9.5t4.5 -14v-790zM718 1438q9 -11 11.5 -19t-2.5 -13.5t-18.5 -8t-36.5 -2.5q-21 0 -35 1.5t-25 5t-19.5 9t-18.5 15.5l-226 212q-11 10 -13.5 19t4.5 16t24.5 11.5t47.5 4.5q25 0 42.5 -1.5
t30.5 -5.5t24 -11t22 -20zM202 1294z" />
    <glyph glyph-name="Uacute" unicode="&#xda;" horiz-adv-x="1314" 
d="M1145 478q0 -118 -34.5 -210.5t-98.5 -156.5t-156 -97t-209 -33q-107 0 -195 31t-151 91.5t-97 151.5t-34 210v803q0 8 4 14t14 9.5t26 6t42 2.5q24 0 41 -2.5t26.5 -6t13.5 -9.5t4 -14v-782q0 -90 22 -157t63.5 -111.5t100 -67t131.5 -22.5q75 0 133.5 22t99 66t62 109
t21.5 152v791q0 8 4 14t14 9.5t26.5 6t41.5 2.5q24 0 40.5 -2.5t26 -6t14 -9.5t4.5 -14v-790zM761 1651q11 13 21.5 20t23.5 11t31 5.5t43 1.5q30 0 47 -4.5t24 -11.5t4.5 -16t-11.5 -19l-227 -212q-10 -10 -18.5 -15.5t-19.5 -9t-25.5 -5t-35.5 -1.5q-23 0 -36 2.5t-18 8
t-3 13.5t11 19zM428 1294z" />
    <glyph glyph-name="Ucircumflex" unicode="&#xdb;" horiz-adv-x="1314" 
d="M1145 478q0 -118 -34.5 -210.5t-98.5 -156.5t-156 -97t-209 -33q-107 0 -195 31t-151 91.5t-97 151.5t-34 210v803q0 8 4 14t14 9.5t26 6t42 2.5q24 0 41 -2.5t26.5 -6t13.5 -9.5t4 -14v-782q0 -90 22 -157t63.5 -111.5t100 -67t131.5 -22.5q75 0 133.5 22t99 66t62 109
t21.5 152v791q0 8 4 14t14 9.5t26.5 6t41.5 2.5q24 0 40.5 -2.5t26 -6t14 -9.5t4.5 -14v-790zM661 1689q21 0 35 -1t24.5 -4.5t18 -9t16.5 -14.5l214 -227q9 -10 11 -17.5t-4 -12t-20 -6.5t-36 -2q-30 0 -48 1.5t-29 4t-17.5 7t-11.5 9.5l-154 173l-159 -168
q-8 -8 -16 -13.5t-20 -8.5t-30 -4t-45 -1q-25 0 -38.5 2.5t-19 7t-3.5 11.5t11 17l224 227q8 9 16.5 14.5t19.5 9t25.5 4.5t35.5 1zM196 1294z" />
    <glyph glyph-name="Udieresis" unicode="&#xdc;" horiz-adv-x="1314" 
d="M1145 478q0 -118 -34.5 -210.5t-98.5 -156.5t-156 -97t-209 -33q-107 0 -195 31t-151 91.5t-97 151.5t-34 210v803q0 8 4 14t14 9.5t26 6t42 2.5q24 0 41 -2.5t26.5 -6t13.5 -9.5t4 -14v-782q0 -90 22 -157t63.5 -111.5t100 -67t131.5 -22.5q75 0 133.5 22t99 66t62 109
t21.5 152v791q0 8 4 14t14 9.5t26.5 6t41.5 2.5q24 0 40.5 -2.5t26 -6t14 -9.5t4.5 -14v-790zM546 1529q0 -56 -21 -77t-77 -21t-76 20.5t-20 75.5q0 56 20.5 76.5t76.5 20.5t76.5 -20t20.5 -75zM959 1529q0 -56 -20.5 -77t-77.5 -21q-55 0 -75.5 20.5t-20.5 75.5
q0 56 21 76.5t76 20.5q57 0 77 -20t20 -75zM220 1294z" />
    <glyph glyph-name="Yacute" unicode="&#xdd;" horiz-adv-x="998" 
d="M585 503v-477q0 -8 -4 -14t-14 -9.5t-27 -6t-41 -2.5q-25 0 -41.5 2.5t-27 6t-14.5 9.5t-4 14v477l-366 730q-11 23 -13.5 36t5 20t27 9t52.5 2q30 0 48.5 -2t29.5 -5.5t16.5 -10t10.5 -16.5l179 -372q25 -53 50 -111t51 -117h2q23 57 47.5 113.5t49.5 111.5l180 374
q3 10 8.5 17t15 10.5t26.5 5.5t43 2q36 0 56.5 -2.5t28.5 -9.5t5.5 -20t-13.5 -35zM647 1651q11 13 21.5 20t23.5 11t31 5.5t43 1.5q30 0 47 -4.5t24 -11.5t4.5 -16t-11.5 -19l-227 -212q-10 -10 -18.5 -15.5t-19.5 -9t-25.5 -5t-35.5 -1.5q-23 0 -36 2.5t-18 8t-3 13.5
t11 19zM314 1294z" />
    <glyph glyph-name="Thorn" unicode="&#xde;" horiz-adv-x="1058" 
d="M967 697q0 -96 -31.5 -174.5t-90 -133.5t-143 -85t-189.5 -30h-169v-252q0 -8 -4.5 -13.5t-14 -9.5t-26 -6t-41.5 -2t-41.5 2t-26.5 6t-14 9.5t-4 13.5v1249q0 7 4 13t14 10t26.5 6t41.5 2t41.5 -2t26 -6t14 -10t4.5 -13v-195h173q42 0 81.5 -3.5t76.5 -11.5
q68 -15 122 -46.5t92 -78t58 -106.5t20 -133zM786 683q0 94 -44 156t-127 83q-26 8 -55.5 9.5t-53.5 1.5h-162v-518h183q62 0 110 20t81.5 55.5t50.5 85t17 107.5z" />
    <glyph glyph-name="germandbls" unicode="&#xdf;" horiz-adv-x="1080" 
d="M1010 268q0 -62 -22.5 -114.5t-64.5 -90.5t-102.5 -60t-137.5 -22q-30 0 -59.5 5.5t-54 13t-43 16t-26.5 16.5t-12 23t-4 44q0 17 2 29.5t6 20.5t9.5 11.5t11.5 3.5q12 0 25 -8t33 -18t46.5 -18t65.5 -8q38 0 67.5 11.5t50 30t31 44.5t10.5 55q0 38 -15 66t-40.5 50.5
t-57.5 42t-65.5 40t-65.5 44.5t-57.5 55t-40.5 71t-15 94q0 52 17 93.5t47.5 72.5t73 51t92.5 28q11 24 14.5 50.5t3.5 57.5q0 35 -11 70t-35 62t-61 44.5t-89 17.5q-60 0 -102 -20t-67.5 -56t-37 -86.5t-11.5 -109.5v-963q0 -8 -4 -14.5t-13.5 -10.5t-25.5 -6.5t-41 -2.5
q-23 0 -39 2.5t-26 6.5t-13.5 10.5t-3.5 14.5v957q0 94 25 171t74.5 131t122 83.5t167.5 29.5q91 0 158 -27t111.5 -71t66.5 -101t22 -118q0 -49 -8 -92.5t-23 -82.5t-25.5 -48t-29.5 -9q-46 0 -77 -10.5t-50.5 -27.5t-28.5 -39t-9 -46q0 -48 27 -81.5t67 -60.5t87 -53
t87 -61.5t66.5 -84t26.5 -119.5z" />
    <glyph glyph-name="agrave" unicode="&#xe0;" horiz-adv-x="981" 
d="M831 24q0 -12 -8 -18t-22 -9t-41 -3q-26 0 -41.5 3t-22.5 9t-7 18v90q-59 -63 -131.5 -98t-153.5 -35q-71 0 -128.5 18.5t-98 53.5t-63 86t-22.5 116q0 76 31 132t89 93t142 55.5t189 18.5h124v70q0 52 -11 92t-35.5 66.5t-63.5 40t-96 13.5q-61 0 -109.5 -14.5t-85 -32
t-61 -32t-36.5 -14.5q-8 0 -14 4t-10.5 12t-6.5 20.5t-2 27.5q0 25 3.5 39.5t17 27.5t46.5 30.5t76 32t94 24t103 9.5q97 0 165 -22t110 -64.5t61 -105.5t19 -147v-607zM667 435h-141q-68 0 -118 -11.5t-83 -34t-48.5 -54t-15.5 -72.5q0 -70 44.5 -111.5t124.5 -41.5
q65 0 120.5 33t116.5 101v191zM564 1134q7 -11 9 -19t-3.5 -13t-18 -8t-34.5 -3q-20 0 -33 1.5t-22.5 5t-16.5 9.5t-14 16l-181 233q-8 9 -9 17.5t6 15t24.5 10t45.5 3.5q24 0 40.5 -2t27.5 -6t19 -11t16 -18zM109 951z" />
    <glyph glyph-name="aacute" unicode="&#xe1;" horiz-adv-x="981" 
d="M831 24q0 -12 -8 -18t-22 -9t-41 -3q-26 0 -41.5 3t-22.5 9t-7 18v90q-59 -63 -131.5 -98t-153.5 -35q-71 0 -128.5 18.5t-98 53.5t-63 86t-22.5 116q0 76 31 132t89 93t142 55.5t189 18.5h124v70q0 52 -11 92t-35.5 66.5t-63.5 40t-96 13.5q-61 0 -109.5 -14.5t-85 -32
t-61 -32t-36.5 -14.5q-8 0 -14 4t-10.5 12t-6.5 20.5t-2 27.5q0 25 3.5 39.5t17 27.5t46.5 30.5t76 32t94 24t103 9.5q97 0 165 -22t110 -64.5t61 -105.5t19 -147v-607zM667 435h-141q-68 0 -118 -11.5t-83 -34t-48.5 -54t-15.5 -72.5q0 -70 44.5 -111.5t124.5 -41.5
q65 0 120.5 33t116.5 101v191zM568 1365q6 11 14 18t19.5 11t28.5 6t41 2q28 0 45.5 -3.5t24.5 -10t6 -15t-9 -17.5l-181 -233q-8 -10 -14.5 -16t-15 -9.5t-22 -5t-33.5 -1.5q-22 0 -35 3t-18.5 8t-4 13t8.5 19zM282 951z" />
    <glyph glyph-name="acircumflex" unicode="&#xe2;" horiz-adv-x="981" 
d="M831 24q0 -12 -8 -18t-22 -9t-41 -3q-26 0 -41.5 3t-22.5 9t-7 18v90q-59 -63 -131.5 -98t-153.5 -35q-71 0 -128.5 18.5t-98 53.5t-63 86t-22.5 116q0 76 31 132t89 93t142 55.5t189 18.5h124v70q0 52 -11 92t-35.5 66.5t-63.5 40t-96 13.5q-61 0 -109.5 -14.5t-85 -32
t-61 -32t-36.5 -14.5q-8 0 -14 4t-10.5 12t-6.5 20.5t-2 27.5q0 25 3.5 39.5t17 27.5t46.5 30.5t76 32t94 24t103 9.5q97 0 165 -22t110 -64.5t61 -105.5t19 -147v-607zM667 435h-141q-68 0 -118 -11.5t-83 -34t-48.5 -54t-15.5 -72.5q0 -70 44.5 -111.5t124.5 -41.5
q65 0 120.5 33t116.5 101v191zM367 1121q-6 -10 -12 -15.5t-14.5 -8.5t-21 -4.5t-31.5 -1.5q-27 0 -41.5 3.5t-19.5 10t-1 17t16 25.5l165 229q5 8 12 12.5t17.5 7.5t26 4.5t37.5 1.5q21 0 35 -1.5t24 -5t16.5 -8t11.5 -11.5l165 -229q11 -15 15 -25.5t-0.5 -17t-19.5 -10
t-41 -3.5q-21 0 -33.5 1.5t-20.5 4.5t-13 9t-12 15l-130 180zM93 951z" />
    <glyph glyph-name="atilde" unicode="&#xe3;" horiz-adv-x="981" 
d="M831 24q0 -12 -8 -18t-22 -9t-41 -3q-26 0 -41.5 3t-22.5 9t-7 18v90q-59 -63 -131.5 -98t-153.5 -35q-71 0 -128.5 18.5t-98 53.5t-63 86t-22.5 116q0 76 31 132t89 93t142 55.5t189 18.5h124v70q0 52 -11 92t-35.5 66.5t-63.5 40t-96 13.5q-61 0 -109.5 -14.5t-85 -32
t-61 -32t-36.5 -14.5q-8 0 -14 4t-10.5 12t-6.5 20.5t-2 27.5q0 25 3.5 39.5t17 27.5t46.5 30.5t76 32t94 24t103 9.5q97 0 165 -22t110 -64.5t61 -105.5t19 -147v-607zM667 435h-141q-68 0 -118 -11.5t-83 -34t-48.5 -54t-15.5 -72.5q0 -70 44.5 -111.5t124.5 -41.5
q65 0 120.5 33t116.5 101v191zM824 1314q0 -106 -52 -162t-141 -56q-37 0 -66 9.5t-53 24.5t-44 32t-39.5 32t-38.5 24.5t-41 9.5q-40 0 -56 -29t-16 -77q0 -7 -2 -12.5t-8.5 -8.5t-19 -4t-31.5 -1q-16 0 -27 1.5t-17.5 6t-9.5 13t-3 21.5q0 99 50 158t143 59q54 0 93 -20.5
t70.5 -45t59 -45.5t59.5 -21q36 0 54.5 26.5t18.5 78.5q0 16 10.5 21.5t45.5 5.5q37 0 49 -7.5t12 -33.5zM30 951z" />
    <glyph glyph-name="adieresis" unicode="&#xe4;" horiz-adv-x="981" 
d="M831 24q0 -12 -8 -18t-22 -9t-41 -3q-26 0 -41.5 3t-22.5 9t-7 18v90q-59 -63 -131.5 -98t-153.5 -35q-71 0 -128.5 18.5t-98 53.5t-63 86t-22.5 116q0 76 31 132t89 93t142 55.5t189 18.5h124v70q0 52 -11 92t-35.5 66.5t-63.5 40t-96 13.5q-61 0 -109.5 -14.5t-85 -32
t-61 -32t-36.5 -14.5q-8 0 -14 4t-10.5 12t-6.5 20.5t-2 27.5q0 25 3.5 39.5t17 27.5t46.5 30.5t76 32t94 24t103 9.5q97 0 165 -22t110 -64.5t61 -105.5t19 -147v-607zM667 435h-141q-68 0 -118 -11.5t-83 -34t-48.5 -54t-15.5 -72.5q0 -70 44.5 -111.5t124.5 -41.5
q65 0 120.5 33t116.5 101v191zM411 1217q0 -55 -20 -75t-74 -20t-73 19.5t-19 72.5q0 56 19.5 76t73.5 20q55 0 74 -20t19 -73zM765 1217q0 -55 -20 -75t-74 -20t-73 19.5t-19 72.5q0 56 19.5 76t73.5 20q55 0 74 -20t19 -73zM93 951z" />
    <glyph glyph-name="aring" unicode="&#xe5;" horiz-adv-x="981" 
d="M831 24q0 -12 -8 -18t-22 -9t-41 -3q-26 0 -41.5 3t-22.5 9t-7 18v90q-59 -63 -131.5 -98t-153.5 -35q-71 0 -128.5 18.5t-98 53.5t-63 86t-22.5 116q0 76 31 132t89 93t142 55.5t189 18.5h124v70q0 52 -11 92t-35.5 66.5t-63.5 40t-96 13.5q-61 0 -109.5 -14.5t-85 -32
t-61 -32t-36.5 -14.5q-8 0 -14 4t-10.5 12t-6.5 20.5t-2 27.5q0 25 3.5 39.5t17 27.5t46.5 30.5t76 32t94 24t103 9.5q97 0 165 -22t110 -64.5t61 -105.5t19 -147v-607zM667 435h-141q-68 0 -118 -11.5t-83 -34t-48.5 -54t-15.5 -72.5q0 -70 44.5 -111.5t124.5 -41.5
q65 0 120.5 33t116.5 101v191zM691 1258q0 -41 -14 -74.5t-40 -58.5t-63 -38.5t-84 -13.5q-49 0 -85.5 13t-60 36.5t-35 56t-11.5 72.5t13 74t38.5 58.5t63 37.5t85.5 13q92 0 142.5 -47.5t50.5 -128.5zM585 1251q0 41 -21.5 69.5t-70.5 28.5q-44 0 -66.5 -25.5t-22.5 -66.5
q0 -44 20.5 -71.5t71.5 -27.5q44 0 66.5 26.5t22.5 66.5zM166 951z" />
    <glyph glyph-name="ae" unicode="&#xe6;" horiz-adv-x="1583" 
d="M1485 514q0 -39 -19.5 -55.5t-43.5 -16.5h-591q0 -75 15.5 -135t50.5 -103t91.5 -66t138.5 -23q63 0 112.5 10.5t86 23.5t60.5 23.5t35 10.5q7 0 12 -3.5t8.5 -10.5t5 -19.5t1.5 -30.5q0 -13 -1 -22.5t-2.5 -17t-5 -13.5t-9 -11.5t-32.5 -18t-70 -24.5t-99 -21.5
t-120 -9.5q-69 0 -124.5 11t-100 33t-79 53t-60.5 71q-33 -39 -71 -70t-81 -53.5t-90 -33.5t-99 -11q-71 0 -128.5 18.5t-98 53.5t-63 86t-22.5 115q0 77 31 133t89 93t142 55.5t189 18.5h124v70q0 52 -11 92t-35.5 66.5t-63.5 40t-96 13.5q-61 0 -109.5 -14.5t-85.5 -32
t-62 -32t-37 -14.5q-8 0 -13.5 4t-9.5 12t-6 20.5t-2 27.5q0 25 3.5 39.5t17 27.5t46.5 30.5t76 32t94 24t103 9.5q64 0 113 -11t85.5 -31t62 -48.5t41.5 -62.5q48 74 130 113.5t186 39.5q103 0 177 -34t121.5 -92t70 -135.5t22.5 -164.5v-30zM1320 563q1 65 -13.5 116
t-44.5 87t-75 55.5t-104 19.5q-61 0 -107 -23t-77.5 -61t-48 -88.5t-19.5 -105.5h489zM687 267q-11 34 -16.5 80t-5.5 88h-139q-68 0 -118 -11.5t-83 -34t-48.5 -54t-15.5 -72.5q0 -70 44.5 -111.5t124.5 -41.5q65 0 127 37t130 120z" />
    <glyph glyph-name="ccedilla" unicode="&#xe7;" horiz-adv-x="866" 
d="M800 162q0 -17 -1 -29.5t-3.5 -21t-6 -15t-16 -19t-44 -32t-78.5 -37t-106 -24.5l26 -58q21 -45 30.5 -74.5t9.5 -55.5q0 -38 -14 -68t-40 -50.5t-62 -31.5t-81 -11q-34 0 -65.5 4.5t-54 9.5t-31 9t-12 10t-5 15t-1.5 24q0 31 6.5 41.5t21.5 10.5h124q32 0 50 13.5
t18 40.5q0 13 -6 32.5t-16 41.5l-47 104q-102 19 -170 80.5t-102 160.5t-34 232t32.5 228.5t89 156.5t133 90.5t165.5 29.5q43 0 83.5 -8t74.5 -21t60.5 -30t38.5 -29t16.5 -19t7.5 -16.5t4 -21.5t1 -30q0 -39 -9 -54.5t-22 -15.5q-15 0 -34.5 16.5t-49.5 36.5t-72.5 36.5
t-100.5 16.5q-119 0 -182.5 -91.5t-63.5 -265.5q0 -87 16.5 -152.5t48.5 -109.5t78.5 -65.5t106.5 -21.5q57 0 100 18t74.5 39.5t53 39t33.5 17.5q7 0 12 -4t8.5 -13.5t5 -24t1.5 -34.5z" />
    <glyph glyph-name="egrave" unicode="&#xe8;" horiz-adv-x="1019" 
d="M921 514q0 -39 -19.5 -55.5t-44.5 -16.5h-590q0 -75 15 -135t50 -103t91 -66t137 -23q64 0 114 10.5t86.5 23.5t60 23.5t35.5 10.5q7 0 12.5 -3.5t8.5 -10.5t4.5 -19.5t1.5 -30.5q0 -13 -1 -22.5t-2.5 -17t-5 -13.5t-9 -11.5t-32.5 -18t-70 -24.5t-99.5 -21.5
t-120.5 -9.5q-111 0 -194.5 31t-140.5 92t-86 153t-29 214q0 116 30 208.5t86.5 157t136.5 99t179 34.5q106 0 180.5 -34t122.5 -91.5t70.5 -135t22.5 -165.5v-30zM755 563q3 130 -57.5 204t-179.5 74q-61 0 -107 -23t-77 -61t-48 -88.5t-19 -105.5h488zM591 1134
q7 -11 9 -19t-3.5 -13t-18 -8t-34.5 -3q-20 0 -33 1.5t-22.5 5t-16.5 9.5t-14 16l-181 233q-8 9 -9 17.5t6 15t24.5 10t45.5 3.5q24 0 40.5 -2t27.5 -6t19 -11t16 -18zM136 951z" />
    <glyph glyph-name="eacute" unicode="&#xe9;" horiz-adv-x="1019" 
d="M921 514q0 -39 -19.5 -55.5t-44.5 -16.5h-590q0 -75 15 -135t50 -103t91 -66t137 -23q64 0 114 10.5t86.5 23.5t60 23.5t35.5 10.5q7 0 12.5 -3.5t8.5 -10.5t4.5 -19.5t1.5 -30.5q0 -13 -1 -22.5t-2.5 -17t-5 -13.5t-9 -11.5t-32.5 -18t-70 -24.5t-99.5 -21.5
t-120.5 -9.5q-111 0 -194.5 31t-140.5 92t-86 153t-29 214q0 116 30 208.5t86.5 157t136.5 99t179 34.5q106 0 180.5 -34t122.5 -91.5t70.5 -135t22.5 -165.5v-30zM755 563q3 130 -57.5 204t-179.5 74q-61 0 -107 -23t-77 -61t-48 -88.5t-19 -105.5h488zM593 1365
q6 11 14 18t19.5 11t28.5 6t41 2q28 0 45.5 -3.5t24.5 -10t6 -15t-9 -17.5l-181 -233q-8 -10 -14.5 -16t-15 -9.5t-22 -5t-33.5 -1.5q-22 0 -35 3t-18.5 8t-4 13t8.5 19zM307 951z" />
    <glyph glyph-name="ecircumflex" unicode="&#xea;" horiz-adv-x="1019" 
d="M921 514q0 -39 -19.5 -55.5t-44.5 -16.5h-590q0 -75 15 -135t50 -103t91 -66t137 -23q64 0 114 10.5t86.5 23.5t60 23.5t35.5 10.5q7 0 12.5 -3.5t8.5 -10.5t4.5 -19.5t1.5 -30.5q0 -13 -1 -22.5t-2.5 -17t-5 -13.5t-9 -11.5t-32.5 -18t-70 -24.5t-99.5 -21.5
t-120.5 -9.5q-111 0 -194.5 31t-140.5 92t-86 153t-29 214q0 116 30 208.5t86.5 157t136.5 99t179 34.5q106 0 180.5 -34t122.5 -91.5t70.5 -135t22.5 -165.5v-30zM755 563q3 130 -57.5 204t-179.5 74q-61 0 -107 -23t-77 -61t-48 -88.5t-19 -105.5h488zM387 1121
q-6 -10 -12 -15.5t-14.5 -8.5t-21 -4.5t-31.5 -1.5q-27 0 -41.5 3.5t-19.5 10t-1 17t16 25.5l165 229q5 8 12 12.5t17.5 7.5t26 4.5t37.5 1.5q21 0 35 -1.5t24 -5t16.5 -8t11.5 -11.5l165 -229q11 -15 15 -25.5t-0.5 -17t-19.5 -10t-41 -3.5q-21 0 -33.5 1.5t-20.5 4.5
t-13 9t-12 15l-130 180zM113 951z" />
    <glyph glyph-name="edieresis" unicode="&#xeb;" horiz-adv-x="1019" 
d="M921 514q0 -39 -19.5 -55.5t-44.5 -16.5h-590q0 -75 15 -135t50 -103t91 -66t137 -23q64 0 114 10.5t86.5 23.5t60 23.5t35.5 10.5q7 0 12.5 -3.5t8.5 -10.5t4.5 -19.5t1.5 -30.5q0 -13 -1 -22.5t-2.5 -17t-5 -13.5t-9 -11.5t-32.5 -18t-70 -24.5t-99.5 -21.5
t-120.5 -9.5q-111 0 -194.5 31t-140.5 92t-86 153t-29 214q0 116 30 208.5t86.5 157t136.5 99t179 34.5q106 0 180.5 -34t122.5 -91.5t70.5 -135t22.5 -165.5v-30zM755 563q3 130 -57.5 204t-179.5 74q-61 0 -107 -23t-77 -61t-48 -88.5t-19 -105.5h488zM433 1217
q0 -55 -20 -75t-74 -20t-73 19.5t-19 72.5q0 56 19.5 76t73.5 20q55 0 74 -20t19 -73zM787 1217q0 -55 -20 -75t-74 -20t-73 19.5t-19 72.5q0 56 19.5 76t73.5 20q55 0 74 -20t19 -73zM115 951z" />
    <glyph glyph-name="igrave" unicode="&#xec;" horiz-adv-x="470" 
d="M318 25q0 -8 -4 -13.5t-13 -9.5t-25 -6t-41 -2q-24 0 -40 2t-25.5 6t-13 9.5t-3.5 13.5v900q0 8 3.5 13.5t13 10t25.5 6t40 1.5q25 0 41 -1.5t25 -6t13 -10t4 -13.5v-900zM309 1134q7 -11 9 -19t-3.5 -13t-18 -8t-34.5 -3q-20 0 -33 1.5t-22.5 5t-16.5 9.5t-14 16
l-181 233q-8 9 -9 17.5t6 15t24.5 10t45.5 3.5q24 0 40.5 -2t27.5 -6t19 -11t16 -18zM-146 951z" />
    <glyph glyph-name="iacute" unicode="&#xed;" horiz-adv-x="470" 
d="M318 25q0 -8 -4 -13.5t-13 -9.5t-25 -6t-41 -2q-24 0 -40 2t-25.5 6t-13 9.5t-3.5 13.5v900q0 8 3.5 13.5t13 10t25.5 6t40 1.5q25 0 41 -1.5t25 -6t13 -10t4 -13.5v-900zM301 1365q6 11 14 18t19.5 11t28.5 6t41 2q28 0 45.5 -3.5t24.5 -10t6 -15t-9 -17.5l-181 -233
q-8 -10 -14.5 -16t-15 -9.5t-22 -5t-33.5 -1.5q-22 0 -35 3t-18.5 8t-4 13t8.5 19zM15 951z" />
    <glyph glyph-name="icircumflex" unicode="&#xee;" horiz-adv-x="470" 
d="M318 25q0 -8 -4 -13.5t-13 -9.5t-25 -6t-41 -2q-24 0 -40 2t-25.5 6t-13 9.5t-3.5 13.5v900q0 8 3.5 13.5t13 10t25.5 6t40 1.5q25 0 41 -1.5t25 -6t13 -10t4 -13.5v-900zM108 1121q-6 -10 -12 -15.5t-14.5 -8.5t-21 -4.5t-31.5 -1.5q-27 0 -41.5 3.5t-19.5 10t-1 17
t16 25.5l165 229q5 8 12 12.5t17.5 7.5t26 4.5t37.5 1.5q21 0 35 -1.5t24 -5t16.5 -8t11.5 -11.5l165 -229q11 -15 15 -25.5t-0.5 -17t-19.5 -10t-41 -3.5q-21 0 -33.5 1.5t-20.5 4.5t-13 9t-12 15l-130 180zM-166 951z" />
    <glyph glyph-name="idieresis" unicode="&#xef;" horiz-adv-x="470" 
d="M318 25q0 -8 -4 -13.5t-13 -9.5t-25 -6t-41 -2q-24 0 -40 2t-25.5 6t-13 9.5t-3.5 13.5v900q0 8 3.5 13.5t13 10t25.5 6t40 1.5q25 0 41 -1.5t25 -6t13 -10t4 -13.5v-900zM172 1217q0 -54 -20 -74.5t-72 -20.5t-71 19.5t-19 72.5q0 55 19.5 75.5t71.5 20.5t71.5 -20
t19.5 -73zM483 1217q0 -54 -20 -74.5t-72 -20.5t-71 19.5t-19 72.5q0 55 19.5 75.5t70.5 20.5q53 0 72.5 -20t19.5 -73zM-142 951z" />
    <glyph glyph-name="eth" unicode="&#xf0;" 
d="M296 1072q-10 -2 -17 -1t-11.5 6.5t-6.5 17t-2 30.5q0 16 2 28t6.5 19.5t12 12t16.5 6.5l190 49q-11 12 -24.5 27t-28.5 30.5t-29.5 31t-26.5 28.5q-7 7 -8 13.5t6.5 10.5t27 7t54.5 3q31 0 52 -2t35 -5.5t23 -9t17 -12.5q27 -31 47.5 -53.5t23.5 -26.5l253 64
q10 3 17 1.5t11.5 -6.5t7 -16.5t2.5 -30.5q0 -16 -2.5 -28t-7 -20t-11.5 -12.5t-18 -6.5l-171 -44q54 -71 93 -139.5t63.5 -141.5t36 -153.5t11.5 -176.5q0 -141 -27 -251t-82.5 -185.5t-140.5 -115t-200 -39.5q-111 0 -186 38t-121 103.5t-66 153.5t-20 188q0 124 27 218
t77 158t122 97t161 33q35 0 67 -7.5t63.5 -21.5t61.5 -35.5t59 -50.5q-8 25 -21 57t-32 68.5t-46.5 77t-65.5 84.5zM770 551q0 34 -1 61t-3 46q-39 43 -75 75.5t-68.5 53.5t-63 31t-61.5 10q-58 0 -101.5 -27.5t-72.5 -74.5t-43 -110t-14 -134q0 -70 11 -135t37.5 -115
t70.5 -80t109 -30q68 0 119.5 25t86 77.5t52 133t17.5 193.5z" />
    <glyph glyph-name="ntilde" unicode="&#xf1;" 
d="M928 25q0 -8 -4 -13.5t-13 -9.5t-25 -6t-40 -2q-25 0 -41 2t-25 6t-13 9.5t-4 13.5v527q0 77 -12 124t-35 81t-59.5 52t-84.5 18q-62 0 -124 -44t-130 -129v-629q0 -8 -4 -13.5t-13 -9.5t-25 -6t-41 -2q-24 0 -40 2t-25.5 6t-13 9.5t-3.5 13.5v900q0 8 3 13.5t12 10t23 6
t37 1.5q22 0 36.5 -1.5t22.5 -6t11.5 -10t3.5 -13.5v-119q76 85 151.5 124.5t152.5 39.5q90 0 151.5 -30.5t99.5 -81.5t54.5 -119.5t16.5 -164.5v-549zM872 1314q0 -106 -52 -162t-141 -56q-37 0 -66 9.5t-53 24.5t-44 32t-39.5 32t-38.5 24.5t-41 9.5q-40 0 -56 -29
t-16 -77q0 -7 -2 -12.5t-8.5 -8.5t-19 -4t-31.5 -1q-16 0 -27 1.5t-17.5 6t-9.5 13t-3 21.5q0 99 50 158t143 59q54 0 93 -20.5t70.5 -45t59 -45.5t59.5 -21q36 0 54.5 26.5t18.5 78.5q0 16 10.5 21.5t45.5 5.5q37 0 49 -7.5t12 -33.5zM78 951z" />
    <glyph glyph-name="ograve" unicode="&#xf2;" horiz-adv-x="1080" 
d="M990 485q0 -110 -29 -202.5t-86.5 -159.5t-144 -104.5t-200.5 -37.5q-111 0 -193.5 33t-137.5 96t-82 153t-27 204q0 110 28.5 202.5t86 159.5t143.5 104t201 37q111 0 193.5 -33t137.5 -96t82.5 -153t27.5 -203zM816 474q0 73 -13.5 138t-44.5 114t-84 77.5t-132 28.5
q-73 0 -125.5 -26t-86.5 -73.5t-50.5 -112.5t-16.5 -142q0 -74 13.5 -139t45 -113.5t84.5 -77t132 -28.5q72 0 125 26t87 73t50 112t16 143zM607 1134q7 -11 9 -19t-3.5 -13t-18 -8t-34.5 -3q-20 0 -33 1.5t-22.5 5t-16.5 9.5t-14 16l-181 233q-8 9 -9 17.5t6 15t24.5 10
t45.5 3.5q24 0 40.5 -2t27.5 -6t19 -11t16 -18zM152 951z" />
    <glyph glyph-name="oacute" unicode="&#xf3;" horiz-adv-x="1080" 
d="M990 485q0 -110 -29 -202.5t-86.5 -159.5t-144 -104.5t-200.5 -37.5q-111 0 -193.5 33t-137.5 96t-82 153t-27 204q0 110 28.5 202.5t86 159.5t143.5 104t201 37q111 0 193.5 -33t137.5 -96t82.5 -153t27.5 -203zM816 474q0 73 -13.5 138t-44.5 114t-84 77.5t-132 28.5
q-73 0 -125.5 -26t-86.5 -73.5t-50.5 -112.5t-16.5 -142q0 -74 13.5 -139t45 -113.5t84.5 -77t132 -28.5q72 0 125 26t87 73t50 112t16 143zM622 1365q6 11 14 18t19.5 11t28.5 6t41 2q28 0 45.5 -3.5t24.5 -10t6 -15t-9 -17.5l-181 -233q-8 -10 -14.5 -16t-15 -9.5t-22 -5
t-33.5 -1.5q-22 0 -35 3t-18.5 8t-4 13t8.5 19zM336 951z" />
    <glyph glyph-name="ocircumflex" unicode="&#xf4;" horiz-adv-x="1080" 
d="M990 485q0 -110 -29 -202.5t-86.5 -159.5t-144 -104.5t-200.5 -37.5q-111 0 -193.5 33t-137.5 96t-82 153t-27 204q0 110 28.5 202.5t86 159.5t143.5 104t201 37q111 0 193.5 -33t137.5 -96t82.5 -153t27.5 -203zM816 474q0 73 -13.5 138t-44.5 114t-84 77.5t-132 28.5
q-73 0 -125.5 -26t-86.5 -73.5t-50.5 -112.5t-16.5 -142q0 -74 13.5 -139t45 -113.5t84.5 -77t132 -28.5q72 0 125 26t87 73t50 112t16 143zM410 1121q-6 -10 -12 -15.5t-14.5 -8.5t-21 -4.5t-31.5 -1.5q-27 0 -41.5 3.5t-19.5 10t-1 17t16 25.5l165 229q5 8 12 12.5
t17.5 7.5t26 4.5t37.5 1.5q21 0 35 -1.5t24 -5t16.5 -8t11.5 -11.5l165 -229q11 -15 15 -25.5t-0.5 -17t-19.5 -10t-41 -3.5q-21 0 -33.5 1.5t-20.5 4.5t-13 9t-12 15l-130 180zM136 951z" />
    <glyph glyph-name="otilde" unicode="&#xf5;" horiz-adv-x="1080" 
d="M990 485q0 -110 -29 -202.5t-86.5 -159.5t-144 -104.5t-200.5 -37.5q-111 0 -193.5 33t-137.5 96t-82 153t-27 204q0 110 28.5 202.5t86 159.5t143.5 104t201 37q111 0 193.5 -33t137.5 -96t82.5 -153t27.5 -203zM816 474q0 73 -13.5 138t-44.5 114t-84 77.5t-132 28.5
q-73 0 -125.5 -26t-86.5 -73.5t-50.5 -112.5t-16.5 -142q0 -74 13.5 -139t45 -113.5t84.5 -77t132 -28.5q72 0 125 26t87 73t50 112t16 143zM873 1314q0 -106 -52 -162t-141 -56q-37 0 -66 9.5t-53 24.5t-44 32t-39.5 32t-38.5 24.5t-41 9.5q-40 0 -56 -29t-16 -77
q0 -7 -2 -12.5t-8.5 -8.5t-19 -4t-31.5 -1q-16 0 -27 1.5t-17.5 6t-9.5 13t-3 21.5q0 99 50 158t143 59q54 0 93 -20.5t70.5 -45t59 -45.5t59.5 -21q36 0 54.5 26.5t18.5 78.5q0 16 10.5 21.5t45.5 5.5q37 0 49 -7.5t12 -33.5zM79 951z" />
    <glyph glyph-name="odieresis" unicode="&#xf6;" horiz-adv-x="1080" 
d="M990 485q0 -110 -29 -202.5t-86.5 -159.5t-144 -104.5t-200.5 -37.5q-111 0 -193.5 33t-137.5 96t-82 153t-27 204q0 110 28.5 202.5t86 159.5t143.5 104t201 37q111 0 193.5 -33t137.5 -96t82.5 -153t27.5 -203zM816 474q0 73 -13.5 138t-44.5 114t-84 77.5t-132 28.5
q-73 0 -125.5 -26t-86.5 -73.5t-50.5 -112.5t-16.5 -142q0 -74 13.5 -139t45 -113.5t84.5 -77t132 -28.5q72 0 125 26t87 73t50 112t16 143zM457 1217q0 -55 -20 -75t-74 -20t-73 19.5t-19 72.5q0 56 19.5 76t73.5 20q55 0 74 -20t19 -73zM811 1217q0 -55 -20 -75t-74 -20
t-73 19.5t-19 72.5q0 56 19.5 76t73.5 20q55 0 74 -20t19 -73zM139 951z" />
    <glyph glyph-name="divide" unicode="&#xf7;" horiz-adv-x="1020" 
d="M618 944q0 -34 -5.5 -56.5t-19 -37t-36 -21t-55.5 -6.5q-34 0 -56 6.5t-35.5 21t-19.5 37t-6 56.5q0 33 6 56.5t19.5 38t35.5 21t56 6.5q33 0 55.5 -6.5t36 -21t19 -38t5.5 -56.5zM960 577q0 -19 -2.5 -32.5t-7 -22t-11 -12.5t-14.5 -4h-849q-8 0 -14.5 4t-10.5 12.5
t-6 22t-2 32.5q0 18 2 31.5t6 21.5t10.5 12t14.5 4h849q8 0 14.5 -4t11 -12t7 -21.5t2.5 -31.5zM618 204q0 -33 -5.5 -55.5t-19 -36.5t-36 -20.5t-55.5 -6.5q-34 0 -56 6.5t-35.5 20.5t-19.5 36.5t-6 55.5q0 34 6 58t19.5 38.5t35.5 20.5t56 6q33 0 55.5 -6t36 -20.5
t19 -38.5t5.5 -58z" />
    <glyph glyph-name="oslash" unicode="&#xf8;" horiz-adv-x="1084" 
d="M994 485q0 -110 -29 -202.5t-87 -159.5t-144.5 -104.5t-201.5 -37.5q-43 0 -81 5.5t-66 15.5l-68 -141q-7 -16 -26.5 -21.5t-53.5 -5.5q-44 0 -54.5 10t0.5 33l84 174q-47 31 -80.5 75.5t-55 98.5t-31.5 115.5t-10 126.5q0 111 28.5 203t86.5 159t144.5 104t202.5 37
q37 0 75 -5t72 -15l65 137q8 15 26 21t53 6q46 0 56.5 -10t-1.5 -33l-81 -171q45 -29 78.5 -72t55.5 -97t32.5 -116t10.5 -130zM830 476q0 40 -4.5 79t-15 75.5t-26.5 67t-40 54.5l-299 -623q20 -9 46 -12.5t52 -3.5q74 0 128 26t89.5 74t52.5 115t17 148zM641 824
q-20 7 -46 11t-54 4q-74 0 -128 -26.5t-89.5 -74.5t-52.5 -115t-17 -147q0 -83 19 -156t67 -121z" />
    <glyph glyph-name="ugrave" unicode="&#xf9;" 
d="M924 25q0 -8 -3.5 -13.5t-12.5 -9.5t-23.5 -6t-35.5 -2q-23 0 -37.5 2t-23 6t-11.5 9.5t-3 13.5v119q-77 -85 -152 -124t-152 -39q-90 0 -151.5 30t-99.5 81.5t-54.5 120t-16.5 166.5v546q0 8 3.5 13.5t13.5 10t26 6t40 1.5t40 -1.5t25.5 -6t13.5 -10t4 -13.5v-524
q0 -79 11.5 -126.5t35 -81t59.5 -52t84 -18.5q62 0 123.5 44t130.5 129v629q0 8 3.5 13.5t13.5 10t25.5 6t40.5 1.5q24 0 40 -1.5t25 -6t13.5 -10t4.5 -13.5v-900zM597 1134q7 -11 9 -19t-3.5 -13t-18 -8t-34.5 -3q-20 0 -33 1.5t-22.5 5t-16.5 9.5t-14 16l-181 233
q-8 9 -9 17.5t6 15t24.5 10t45.5 3.5q24 0 40.5 -2t27.5 -6t19 -11t16 -18zM142 951z" />
    <glyph glyph-name="uacute" unicode="&#xfa;" 
d="M924 25q0 -8 -3.5 -13.5t-12.5 -9.5t-23.5 -6t-35.5 -2q-23 0 -37.5 2t-23 6t-11.5 9.5t-3 13.5v119q-77 -85 -152 -124t-152 -39q-90 0 -151.5 30t-99.5 81.5t-54.5 120t-16.5 166.5v546q0 8 3.5 13.5t13.5 10t26 6t40 1.5t40 -1.5t25.5 -6t13.5 -10t4 -13.5v-524
q0 -79 11.5 -126.5t35 -81t59.5 -52t84 -18.5q62 0 123.5 44t130.5 129v629q0 8 3.5 13.5t13.5 10t25.5 6t40.5 1.5q24 0 40 -1.5t25 -6t13.5 -10t4.5 -13.5v-900zM620 1365q6 11 14 18t19.5 11t28.5 6t41 2q28 0 45.5 -3.5t24.5 -10t6 -15t-9 -17.5l-181 -233
q-8 -10 -14.5 -16t-15 -9.5t-22 -5t-33.5 -1.5q-22 0 -35 3t-18.5 8t-4 13t8.5 19zM334 951z" />
    <glyph glyph-name="ucircumflex" unicode="&#xfb;" 
d="M924 25q0 -8 -3.5 -13.5t-12.5 -9.5t-23.5 -6t-35.5 -2q-23 0 -37.5 2t-23 6t-11.5 9.5t-3 13.5v119q-77 -85 -152 -124t-152 -39q-90 0 -151.5 30t-99.5 81.5t-54.5 120t-16.5 166.5v546q0 8 3.5 13.5t13.5 10t26 6t40 1.5t40 -1.5t25.5 -6t13.5 -10t4 -13.5v-524
q0 -79 11.5 -126.5t35 -81t59.5 -52t84 -18.5q62 0 123.5 44t130.5 129v629q0 8 3.5 13.5t13.5 10t25.5 6t40.5 1.5q24 0 40 -1.5t25 -6t13.5 -10t4.5 -13.5v-900zM408 1121q-6 -10 -12 -15.5t-14.5 -8.5t-21 -4.5t-31.5 -1.5q-27 0 -41.5 3.5t-19.5 10t-1 17t16 25.5
l165 229q5 8 12 12.5t17.5 7.5t26 4.5t37.5 1.5q21 0 35 -1.5t24 -5t16.5 -8t11.5 -11.5l165 -229q11 -15 15 -25.5t-0.5 -17t-19.5 -10t-41 -3.5q-21 0 -33.5 1.5t-20.5 4.5t-13 9t-12 15l-130 180zM134 951z" />
    <glyph glyph-name="udieresis" unicode="&#xfc;" 
d="M924 25q0 -8 -3.5 -13.5t-12.5 -9.5t-23.5 -6t-35.5 -2q-23 0 -37.5 2t-23 6t-11.5 9.5t-3 13.5v119q-77 -85 -152 -124t-152 -39q-90 0 -151.5 30t-99.5 81.5t-54.5 120t-16.5 166.5v546q0 8 3.5 13.5t13.5 10t26 6t40 1.5t40 -1.5t25.5 -6t13.5 -10t4 -13.5v-524
q0 -79 11.5 -126.5t35 -81t59.5 -52t84 -18.5q62 0 123.5 44t130.5 129v629q0 8 3.5 13.5t13.5 10t25.5 6t40.5 1.5q24 0 40 -1.5t25 -6t13.5 -10t4.5 -13.5v-900zM455 1217q0 -55 -20 -75t-74 -20t-73 19.5t-19 72.5q0 56 19.5 76t73.5 20q55 0 74 -20t19 -73zM809 1217
q0 -55 -20 -75t-74 -20t-73 19.5t-19 72.5q0 56 19.5 76t73.5 20q55 0 74 -20t19 -73zM137 951z" />
    <glyph glyph-name="yacute" unicode="&#xfd;" horiz-adv-x="927" 
d="M563 0l-120 -331q-6 -16 -30.5 -24.5t-74.5 -8.5q-26 0 -42 2.5t-24.5 8.5t-9.5 16t5 24l124 313q-9 4 -17 13t-11 19l-321 860q-8 21 -8 33t8 19t26 9.5t48 2.5t47 -1.5t27 -5.5t14.5 -11.5t9.5 -20.5l257 -722h3l248 726q6 19 14.5 24.5t25.5 8t49 2.5q28 0 46 -2.5
t26.5 -9.5t8.5 -19t-6 -30zM552 1365q6 11 14 18t19.5 11t28.5 6t41 2q28 0 45.5 -3.5t24.5 -10t6 -15t-9 -17.5l-181 -233q-8 -10 -14.5 -16t-15 -9.5t-22 -5t-33.5 -1.5q-22 0 -35 3t-18.5 8t-4 13t8.5 19zM266 951z" />
    <glyph glyph-name="thorn" unicode="&#xfe;" 
d="M981 487q0 -117 -25 -210.5t-74.5 -159.5t-122 -101t-166.5 -35q-40 0 -74.5 8t-67.5 25t-65 43t-68 61v-450q0 -8 -4 -14t-13 -10t-25 -6t-41 -2q-24 0 -40 2t-25.5 6t-13 10t-3.5 14v1693q0 8 3.5 14t13 10t25.5 6t40 2q25 0 41 -2t25 -6t13 -10t4 -14v-539
q38 38 73.5 65.5t71 46t73.5 27.5t81 9q98 0 167.5 -38.5t113 -104t63.5 -153.5t20 -187zM807 468q0 69 -10.5 134t-36.5 115t-69 80.5t-108 30.5q-31 0 -62 -9.5t-63 -30t-66.5 -54t-73.5 -82.5v-358q68 -83 130 -127t129 -44q62 0 105.5 30t71.5 79.5t40.5 111.5t12.5 124
z" />
    <glyph glyph-name="ydieresis" unicode="&#xff;" horiz-adv-x="927" 
d="M563 0l-120 -331q-6 -16 -30.5 -24.5t-74.5 -8.5q-26 0 -42 2.5t-24.5 8.5t-9.5 16t5 24l124 313q-9 4 -17 13t-11 19l-321 860q-8 21 -8 33t8 19t26 9.5t48 2.5t47 -1.5t27 -5.5t14.5 -11.5t9.5 -20.5l257 -722h3l248 726q6 19 14.5 24.5t25.5 8t49 2.5q28 0 46 -2.5
t26.5 -9.5t8.5 -19t-6 -30zM381 1217q0 -55 -20 -75t-74 -20t-73 19.5t-19 72.5q0 56 19.5 76t73.5 20q55 0 74 -20t19 -73zM735 1217q0 -55 -20 -75t-74 -20t-73 19.5t-19 72.5q0 56 19.5 76t73.5 20q55 0 74 -20t19 -73zM63 951z" />
    <glyph glyph-name="Amacron" unicode="&#x100;" horiz-adv-x="1185" 
d="M1141 61q8 -22 8.5 -35.5t-7.5 -20.5t-26.5 -9t-49.5 -2t-49.5 1.5t-28 5t-14 9.5t-8.5 15l-111 315h-538l-106 -311q-3 -9 -8 -15.5t-14.5 -11t-27 -6.5t-45.5 -2q-29 0 -47.5 2.5t-26 9.5t-7 20.5t8.5 35.5l434 1202q4 11 10.5 18t19 11t32 5.5t49.5 1.5q32 0 53 -1.5
t34 -5.5t20 -11.5t11 -18.5zM584 1122h-1l-223 -645h450zM872 1590q7 0 13 -4t10.5 -12t6 -20.5t1.5 -29.5t-1.5 -29.5t-6 -21t-10.5 -12.5t-13 -4h-546q-8 0 -14.5 4t-10.5 12.5t-6 21t-2 29.5q0 16 2 29t6 21t10.5 12t14.5 4h546zM161 1294z" />
    <glyph glyph-name="amacron" unicode="&#x101;" horiz-adv-x="981" 
d="M831 24q0 -12 -8 -18t-22 -9t-41 -3q-26 0 -41.5 3t-22.5 9t-7 18v90q-59 -63 -131.5 -98t-153.5 -35q-71 0 -128.5 18.5t-98 53.5t-63 86t-22.5 116q0 76 31 132t89 93t142 55.5t189 18.5h124v70q0 52 -11 92t-35.5 66.5t-63.5 40t-96 13.5q-61 0 -109.5 -14.5t-85 -32
t-61 -32t-36.5 -14.5q-8 0 -14 4t-10.5 12t-6.5 20.5t-2 27.5q0 25 3.5 39.5t17 27.5t46.5 30.5t76 32t94 24t103 9.5q97 0 165 -22t110 -64.5t61 -105.5t19 -147v-607zM667 435h-141q-68 0 -118 -11.5t-83 -34t-48.5 -54t-15.5 -72.5q0 -70 44.5 -111.5t124.5 -41.5
q65 0 120.5 33t116.5 101v191zM736 1293q8 0 14 -3.5t9.5 -11t6 -20t2.5 -30.5q0 -17 -2.5 -28.5t-6 -19.5t-9.5 -12t-14 -4h-479q-8 0 -14.5 4t-10.5 12t-6 19.5t-2 28.5q0 18 2 30.5t6 20t10.5 11t14.5 3.5h479zM92 951z" />
    <glyph glyph-name="Abreve" unicode="&#x102;" horiz-adv-x="1185" 
d="M1141 61q8 -22 8.5 -35.5t-7.5 -20.5t-26.5 -9t-49.5 -2t-49.5 1.5t-28 5t-14 9.5t-8.5 15l-111 315h-538l-106 -311q-3 -9 -8 -15.5t-14.5 -11t-27 -6.5t-45.5 -2q-29 0 -47.5 2.5t-26 9.5t-7 20.5t8.5 35.5l434 1202q4 11 10.5 18t19 11t32 5.5t49.5 1.5q32 0 53 -1.5
t34 -5.5t20 -11.5t11 -18.5zM584 1122h-1l-223 -645h450zM859 1664q0 -63 -17.5 -112.5t-51.5 -84.5t-83 -53.5t-111 -18.5q-67 0 -116 20.5t-81 56t-47 84.5t-15 108q0 15 11.5 21.5t46.5 6.5q36 0 50.5 -4.5t15 -20t9 -49.5t25.5 -56t42.5 -34t61.5 -12q51 0 81.5 24
t42 57t12.5 56.5t12 31t51 7.5q37 0 49 -6.5t12 -21.5zM205 1294z" />
    <glyph glyph-name="abreve" unicode="&#x103;" horiz-adv-x="981" 
d="M831 24q0 -12 -8 -18t-22 -9t-41 -3q-26 0 -41.5 3t-22.5 9t-7 18v90q-59 -63 -131.5 -98t-153.5 -35q-71 0 -128.5 18.5t-98 53.5t-63 86t-22.5 116q0 76 31 132t89 93t142 55.5t189 18.5h124v70q0 52 -11 92t-35.5 66.5t-63.5 40t-96 13.5q-61 0 -109.5 -14.5t-85 -32
t-61 -32t-36.5 -14.5q-8 0 -14 4t-10.5 12t-6.5 20.5t-2 27.5q0 25 3.5 39.5t17 27.5t46.5 30.5t76 32t94 24t103 9.5q97 0 165 -22t110 -64.5t61 -105.5t19 -147v-607zM667 435h-141q-68 0 -118 -11.5t-83 -34t-48.5 -54t-15.5 -72.5q0 -70 44.5 -111.5t124.5 -41.5
q65 0 120.5 33t116.5 101v191zM635 1365q0 15 12 22.5t46 7.5q19 0 30.5 -1.5t18 -5t9 -9t2.5 -12.5q0 -68 -16.5 -118.5t-49 -84.5t-81 -51t-112.5 -17q-68 0 -116.5 18t-80 52t-46 84t-14.5 114q0 16 12 23.5t46 7.5q18 0 29.5 -2t18 -5.5t9.5 -9t3 -13.5
q3 -34 11.5 -62.5t25 -48.5t42 -30.5t60.5 -10.5q30 0 55 8.5t43.5 27t29.5 47t13 69.5zM105 951z" />
    <glyph glyph-name="Aogonek" unicode="&#x104;" horiz-adv-x="1185" 
d="M1174 -291q0 -15 -2.5 -25t-6.5 -16.5t-11.5 -11t-27 -9.5t-37.5 -7t-36 -3.5t-37 -1.5q-47 0 -86 8t-66.5 26t-43 46.5t-15.5 68.5q0 16 4 33.5t14 38t27.5 43.5t44.5 50l72 72l-112 319h-538l-106 -311q-4 -9 -8.5 -15.5t-14 -11t-27 -6.5t-45.5 -2q-29 0 -47.5 2.5
t-26 9.5t-7 20.5t8.5 35.5l434 1202q4 11 10.5 18t19 11t32 5.5t49.5 1.5q32 0 53 -1.5t34 -5.5t19.5 -11t11.5 -19l420 -1163q8 -24 11.5 -39t0 -29.5t-15 -29.5t-33.5 -36l-77 -77q-24 -24 -33 -42.5t-9 -37.5q0 -25 19 -37.5t67 -12.5h89q15 0 21.5 -9.5t6.5 -40.5z
M584 1122h-1l-223 -645h450z" />
    <glyph glyph-name="aogonek" unicode="&#x105;" horiz-adv-x="981" 
d="M899 -291q0 -15 -1 -24.5t-5 -15.5t-10 -10t-15 -7q-26 -9 -57 -13t-71 -4q-91 0 -142.5 38t-51.5 111q0 18 3.5 35.5t13 37t25 40.5t40.5 46l62 62v111h-2q-58 -65 -130 -100t-154 -35q-71 0 -128.5 18.5t-98 53.5t-63 86t-22.5 116q0 76 31 132t89 93t142 55.5
t189 18.5h124v70q0 52 -11 92t-35.5 66.5t-63.5 40t-96 13.5q-61 0 -109.5 -14.5t-85 -32t-61 -32t-36.5 -14.5q-8 0 -14 4t-10.5 12t-6.5 20.5t-2 27.5q0 25 3.5 39.5t17 27.5t46.5 30.5t76 32t94 24t103 9.5q97 0 165 -22t110 -64.5t61 -105.5t19 -147v-598
q0 -27 -6 -48.5t-22 -38.5l-57 -56q-24 -25 -32 -44t-8 -35q0 -53 71 -53h94q16 0 22 -9.5t6 -39.5zM667 435h-141q-68 0 -118 -11.5t-83 -34t-48.5 -54t-15.5 -72.5q0 -70 44.5 -111.5t124.5 -41.5q65 0 120.5 33t116.5 101v191z" />
    <glyph glyph-name="Cacute" unicode="&#x106;" horiz-adv-x="1092" 
d="M1036 183q0 -16 -1 -28t-3.5 -21t-6.5 -16t-14 -17t-42 -30.5t-79.5 -40t-109 -33t-134.5 -13.5q-126 0 -227.5 42t-173 124t-110 202.5t-38.5 277.5q0 161 41.5 287t116.5 213.5t179.5 133.5t231.5 46q56 0 109 -10.5t98 -26.5t80 -37t48.5 -34.5t17.5 -20.5t6.5 -16.5
t4 -22.5t1.5 -31q0 -20 -2 -34t-6 -23.5t-9.5 -14t-13.5 -4.5q-14 0 -39 19.5t-64.5 43t-96 43t-135.5 19.5q-86 0 -156.5 -34.5t-120.5 -101.5t-77.5 -163.5t-27.5 -220.5q0 -123 26.5 -217.5t76 -158t121.5 -96t163 -32.5q77 0 134.5 19t98 42.5t66.5 42.5t41 19
q7 0 12 -3t8 -11.5t4.5 -23.5t1.5 -38zM722 1651q11 13 21.5 20t23.5 11t31 5.5t43 1.5q30 0 47 -4.5t24 -11.5t4.5 -16t-11.5 -19l-227 -212q-10 -10 -18.5 -15.5t-19.5 -9t-25.5 -5t-35.5 -1.5q-23 0 -36 2.5t-18 8t-3 13.5t11 19zM389 1294z" />
    <glyph glyph-name="cacute" unicode="&#x107;" horiz-adv-x="866" 
d="M800 162q0 -17 -1 -29.5t-3.5 -21t-6 -15t-16 -19t-42.5 -31t-67.5 -33t-81.5 -23.5t-91 -9q-97 0 -172 32t-125.5 93.5t-77 151t-26.5 206.5q0 133 32.5 228.5t89 156.5t133 90.5t165.5 29.5q43 0 83.5 -8t74.5 -21t60.5 -30t38.5 -29t16.5 -19t7.5 -16.5t4 -21.5t1 -30
q0 -39 -9 -54.5t-22 -15.5q-15 0 -34.5 16.5t-49.5 36.5t-72.5 36.5t-100.5 16.5q-119 0 -182.5 -91.5t-63.5 -265.5q0 -87 16.5 -152.5t48.5 -109.5t78.5 -65.5t106.5 -21.5q57 0 100 18t74.5 39.5t53 39t33.5 17.5q7 0 12 -4t8.5 -13.5t5 -24t1.5 -34.5zM551 1365
q6 11 14 18t19.5 11t28.5 6t41 2q28 0 45.5 -3.5t24.5 -10t6 -15t-9 -17.5l-181 -233q-8 -10 -14.5 -16t-15 -9.5t-22 -5t-33.5 -1.5q-22 0 -35 3t-18.5 8t-4 13t8.5 19zM265 951z" />
    <glyph glyph-name="Ccircumflex" unicode="&#x108;" horiz-adv-x="1092" 
d="M1036 183q0 -16 -1 -28t-3.5 -21t-6.5 -16t-14 -17t-42 -30.5t-79.5 -40t-109 -33t-134.5 -13.5q-126 0 -227.5 42t-173 124t-110 202.5t-38.5 277.5q0 161 41.5 287t116.5 213.5t179.5 133.5t231.5 46q56 0 109 -10.5t98 -26.5t80 -37t48.5 -34.5t17.5 -20.5t6.5 -16.5
t4 -22.5t1.5 -31q0 -20 -2 -34t-6 -23.5t-9.5 -14t-13.5 -4.5q-14 0 -39 19.5t-64.5 43t-96 43t-135.5 19.5q-86 0 -156.5 -34.5t-120.5 -101.5t-77.5 -163.5t-27.5 -220.5q0 -123 26.5 -217.5t76 -158t121.5 -96t163 -32.5q77 0 134.5 19t98 42.5t66.5 42.5t41 19
q7 0 12 -3t8 -11.5t4.5 -23.5t1.5 -38zM644 1689q21 0 35 -1t24.5 -4.5t18 -9t16.5 -14.5l214 -227q9 -10 11 -17.5t-4 -12t-20 -6.5t-36 -2q-30 0 -48 1.5t-29 4t-17.5 7t-11.5 9.5l-154 173l-159 -168q-8 -8 -16 -13.5t-20 -8.5t-30 -4t-45 -1q-25 0 -38.5 2.5t-19 7
t-3.5 11.5t11 17l224 227q8 9 16.5 14.5t19.5 9t25.5 4.5t35.5 1zM179 1294z" />
    <glyph glyph-name="ccircumflex" unicode="&#x109;" horiz-adv-x="866" 
d="M800 162q0 -17 -1 -29.5t-3.5 -21t-6 -15t-16 -19t-42.5 -31t-67.5 -33t-81.5 -23.5t-91 -9q-97 0 -172 32t-125.5 93.5t-77 151t-26.5 206.5q0 133 32.5 228.5t89 156.5t133 90.5t165.5 29.5q43 0 83.5 -8t74.5 -21t60.5 -30t38.5 -29t16.5 -19t7.5 -16.5t4 -21.5t1 -30
q0 -39 -9 -54.5t-22 -15.5q-15 0 -34.5 16.5t-49.5 36.5t-72.5 36.5t-100.5 16.5q-119 0 -182.5 -91.5t-63.5 -265.5q0 -87 16.5 -152.5t48.5 -109.5t78.5 -65.5t106.5 -21.5q57 0 100 18t74.5 39.5t53 39t33.5 17.5q7 0 12 -4t8.5 -13.5t5 -24t1.5 -34.5zM352 1121
q-6 -10 -12 -15.5t-14.5 -8.5t-21 -4.5t-31.5 -1.5q-27 0 -41.5 3.5t-19.5 10t-1 17t16 25.5l165 229q5 8 12 12.5t17.5 7.5t26 4.5t37.5 1.5q21 0 35 -1.5t24 -5t16.5 -8t11.5 -11.5l165 -229q11 -15 15 -25.5t-0.5 -17t-19.5 -10t-41 -3.5q-21 0 -33.5 1.5t-20.5 4.5
t-13 9t-12 15l-130 180zM78 951z" />
    <glyph glyph-name="Cdotaccent" unicode="&#x10a;" horiz-adv-x="1092" 
d="M1036 183q0 -16 -1 -28t-3.5 -21t-6.5 -16t-14 -17t-42 -30.5t-79.5 -40t-109 -33t-134.5 -13.5q-126 0 -227.5 42t-173 124t-110 202.5t-38.5 277.5q0 161 41.5 287t116.5 213.5t179.5 133.5t231.5 46q56 0 109 -10.5t98 -26.5t80 -37t48.5 -34.5t17.5 -20.5t6.5 -16.5
t4 -22.5t1.5 -31q0 -20 -2 -34t-6 -23.5t-9.5 -14t-13.5 -4.5q-14 0 -39 19.5t-64.5 43t-96 43t-135.5 19.5q-86 0 -156.5 -34.5t-120.5 -101.5t-77.5 -163.5t-27.5 -220.5q0 -123 26.5 -217.5t76 -158t121.5 -96t163 -32.5q77 0 134.5 19t98 42.5t66.5 42.5t41 19
q7 0 12 -3t8 -11.5t4.5 -23.5t1.5 -38zM754 1529q0 -56 -22 -77t-79 -21q-56 0 -77 20.5t-21 75.5t21.5 76.5t78.5 21.5q56 0 77.5 -21t21.5 -75zM423 1294z" />
    <glyph glyph-name="cdotaccent" unicode="&#x10b;" horiz-adv-x="866" 
d="M800 162q0 -17 -1 -29.5t-3.5 -21t-6 -15t-16 -19t-42.5 -31t-67.5 -33t-81.5 -23.5t-91 -9q-97 0 -172 32t-125.5 93.5t-77 151t-26.5 206.5q0 133 32.5 228.5t89 156.5t133 90.5t165.5 29.5q43 0 83.5 -8t74.5 -21t60.5 -30t38.5 -29t16.5 -19t7.5 -16.5t4 -21.5t1 -30
q0 -39 -9 -54.5t-22 -15.5q-15 0 -34.5 16.5t-49.5 36.5t-72.5 36.5t-100.5 16.5q-119 0 -182.5 -91.5t-63.5 -265.5q0 -87 16.5 -152.5t48.5 -109.5t78.5 -65.5t106.5 -21.5q57 0 100 18t74.5 39.5t53 39t33.5 17.5q7 0 12 -4t8.5 -13.5t5 -24t1.5 -34.5zM589 1232
q0 -56 -22 -77t-79 -21q-56 0 -77 20.5t-21 74.5q0 56 21.5 77t78.5 21q56 0 77.5 -20.5t21.5 -74.5zM258 951z" />
    <glyph glyph-name="Ccaron" unicode="&#x10c;" horiz-adv-x="1092" 
d="M1036 183q0 -16 -1 -28t-3.5 -21t-6.5 -16t-14 -17t-42 -30.5t-79.5 -40t-109 -33t-134.5 -13.5q-126 0 -227.5 42t-173 124t-110 202.5t-38.5 277.5q0 161 41.5 287t116.5 213.5t179.5 133.5t231.5 46q56 0 109 -10.5t98 -26.5t80 -37t48.5 -34.5t17.5 -20.5t6.5 -16.5
t4 -22.5t1.5 -31q0 -20 -2 -34t-6 -23.5t-9.5 -14t-13.5 -4.5q-14 0 -39 19.5t-64.5 43t-96 43t-135.5 19.5q-86 0 -156.5 -34.5t-120.5 -101.5t-77.5 -163.5t-27.5 -220.5q0 -123 26.5 -217.5t76 -158t121.5 -96t163 -32.5q77 0 134.5 19t98 42.5t66.5 42.5t41 19
q7 0 12 -3t8 -11.5t4.5 -23.5t1.5 -38zM639 1395q-21 0 -35 1t-24.5 4t-18 9t-16.5 15l-214 227q-9 10 -11 17.5t4 12t20 6.5t36 2q30 0 48 -1.5t29 -4t17 -7.5l12 -10l154 -172l160 168q7 8 15.5 13.5t20 8.5t29.5 4t45 1q24 0 38.5 -2.5t19.5 -7t2.5 -12t-10.5 -16.5
l-223 -227q-8 -9 -17 -14.5t-20 -9t-25.5 -4.5t-35.5 -1zM188 1294z" />
    <glyph glyph-name="ccaron" unicode="&#x10d;" horiz-adv-x="866" 
d="M800 162q0 -17 -1 -29.5t-3.5 -21t-6 -15t-16 -19t-42.5 -31t-67.5 -33t-81.5 -23.5t-91 -9q-97 0 -172 32t-125.5 93.5t-77 151t-26.5 206.5q0 133 32.5 228.5t89 156.5t133 90.5t165.5 29.5q43 0 83.5 -8t74.5 -21t60.5 -30t38.5 -29t16.5 -19t7.5 -16.5t4 -21.5t1 -30
q0 -39 -9 -54.5t-22 -15.5q-15 0 -34.5 16.5t-49.5 36.5t-72.5 36.5t-100.5 16.5q-119 0 -182.5 -91.5t-63.5 -265.5q0 -87 16.5 -152.5t48.5 -109.5t78.5 -65.5t106.5 -21.5q57 0 100 18t74.5 39.5t53 39t33.5 17.5q7 0 12 -4t8.5 -13.5t5 -24t1.5 -34.5zM621 1372
q7 9 12.5 14.5t14.5 9t21.5 5t31.5 1.5q26 0 41 -3.5t19.5 -10t0.5 -17t-15 -25.5l-165 -229q-6 -8 -13 -13t-17.5 -7.5t-25.5 -4t-37 -1.5q-21 0 -35 1.5t-24.5 4.5t-17 8t-11.5 12l-165 229q-11 14 -15 25t1 17.5t19.5 10t40.5 3.5q21 0 33.5 -1.5t20.5 -5t13.5 -9
t11.5 -14.5l130 -181zM87 951z" />
    <glyph glyph-name="Dcaron" unicode="&#x10e;" horiz-adv-x="1260" 
d="M1167 666q0 -168 -43 -293.5t-125.5 -208t-202.5 -123.5t-286 -41h-274q-23 0 -43.5 15.5t-20.5 54.5v1154q0 39 20.5 54.5t43.5 15.5h293q168 0 284 -43.5t194.5 -125t119 -197.5t40.5 -262zM986 659q0 105 -26 195.5t-81.5 156.5t-140.5 103t-219 37h-175v-1007h177
q124 0 209 31t142 95t85.5 160.5t28.5 228.5zM602 1395q-21 0 -35 1t-24.5 4t-18 9t-16.5 15l-214 227q-9 10 -11 17.5t4 12t20 6.5t36 2q30 0 48 -1.5t29 -4t17 -7.5l12 -10l154 -172l160 168q7 8 15.5 13.5t20 8.5t29.5 4t45 1q24 0 38.5 -2.5t19.5 -7t2.5 -12
t-10.5 -16.5l-223 -227q-8 -9 -17 -14.5t-20 -9t-25.5 -4.5t-35.5 -1zM151 1294z" />
    <glyph glyph-name="dcaron" unicode="&#x10f;" horiz-adv-x="1164" 
d="M924 25q0 -8 -3.5 -14t-12 -9.5t-22.5 -5.5t-34 -2q-21 0 -35 2t-23 5.5t-13 9.5t-4 14v119q-71 -77 -147.5 -120t-167.5 -43q-99 0 -169 38.5t-113.5 104t-63.5 154t-20 186.5q0 116 25 209.5t74 159.5t121.5 101.5t167.5 35.5q79 0 144.5 -34.5t129.5 -101.5v523
q0 7 3.5 13.5t13.5 10t25.5 6t39.5 2.5q25 0 41 -2.5t25 -6t13.5 -10t4.5 -13.5v-1332zM758 658q-67 83 -129.5 126.5t-130.5 43.5q-63 0 -107 -30t-71.5 -79t-40 -111t-12.5 -126q0 -68 10.5 -133t36.5 -115.5t69 -81t108 -30.5q33 0 63.5 9t62.5 30t67 54.5t74 82.5v360z
M1103 1361q3 10 9 17t16 11t26.5 6t39.5 2t35.5 -2t19 -6.5t7 -11.5t-2.5 -17l-125 -312q-2 -7 -6.5 -11.5t-13 -7t-22 -3.5t-34.5 -1q-15 0 -24 2t-13 6t-5 9.5t1 13.5zM877 997z" />
    <glyph glyph-name="Dcroat" unicode="&#x110;" horiz-adv-x="1279" 
d="M1186 666q0 -168 -43 -293.5t-126 -208t-203 -123.5t-286 -41h-274q-23 0 -43 15.5t-20 54.5v531h-130q-8 0 -14.5 4t-11 12.5t-6.5 22t-2 32.5t2 32.5t6.5 22.5t11 13t14.5 4h130v480q0 39 20 54.5t43 15.5h293q168 0 284.5 -43.5t195 -125t119 -197.5t40.5 -262z
M1004 659q0 105 -26 195.5t-81 156.5t-140.5 103t-219.5 37h-175v-407h236q7 0 13.5 -4t11 -13t6.5 -22.5t2 -32.5t-2 -32t-6.5 -22t-11 -13t-13.5 -4h-236v-457h178q124 0 209 31t141.5 95t85 160.5t28.5 228.5z" />
    <glyph glyph-name="dcroat" unicode="&#x111;" horiz-adv-x="1130" 
d="M1091 1168q0 -17 -2 -29.5t-6.5 -20.5t-10 -11.5t-13.5 -3.5h-135v-1078q0 -8 -3.5 -14t-12 -9.5t-22.5 -5.5t-34 -2q-21 0 -35 2t-23 5.5t-13 9.5t-4 14v119q-71 -77 -147.5 -120t-167.5 -43q-99 0 -169 38.5t-113.5 104t-63.5 153.5t-20 187q0 116 25 209t74 158.5
t121.5 101t167.5 35.5q79 0 144.5 -34.5t129.5 -100.5v270h-245q-8 0 -14 3.5t-10.5 11.5t-6.5 20.5t-2 29.5q0 18 2 30.5t6.5 20.5t10.5 11t14 3h245v124q0 7 3.5 13.5t13.5 10t25.5 6t40.5 2.5q24 0 40 -2.5t25 -6t13.5 -10t4.5 -13.5v-124h134q8 0 14 -3t10.5 -11
t6.5 -20.5t2 -30.5zM758 656q-67 83 -129.5 127t-131.5 44q-62 0 -106 -30t-71.5 -78.5t-40 -110.5t-12.5 -127q0 -68 10.5 -132.5t36.5 -115t69 -81t108 -30.5q33 0 63.5 9t62.5 30t67 54.5t74 82.5v358z" />
    <glyph glyph-name="Emacron" unicode="&#x112;" horiz-adv-x="1000" 
d="M892 71q0 -18 -2 -31.5t-7 -22.5t-11.5 -13t-14.5 -4h-621q-23 0 -43.5 15.5t-20.5 54.5v1154q0 39 20.5 54.5t43.5 15.5h614q8 0 14.5 -4t10.5 -13t6.5 -22.5t2.5 -33.5q0 -18 -2.5 -31.5t-6.5 -22t-10.5 -12.5t-14.5 -4h-506v-406h434q8 0 14.5 -4.5t11 -12.5t6.5 -22
t2 -33q0 -18 -2 -31t-6.5 -21t-11 -11.5t-14.5 -3.5h-434v-463h513q8 0 14.5 -4t11.5 -12.5t7 -22t2 -33.5zM806 1590q7 0 13 -4t10.5 -12t6 -20.5t1.5 -29.5t-1.5 -29.5t-6 -21t-10.5 -12.5t-13 -4h-546q-8 0 -14.5 4t-10.5 12.5t-6 21t-2 29.5q0 16 2 29t6 21t10.5 12
t14.5 4h546zM95 1294z" />
    <glyph glyph-name="emacron" unicode="&#x113;" horiz-adv-x="1019" 
d="M921 514q0 -39 -19.5 -55.5t-44.5 -16.5h-590q0 -75 15 -135t50 -103t91 -66t137 -23q64 0 114 10.5t86.5 23.5t60 23.5t35.5 10.5q7 0 12.5 -3.5t8.5 -10.5t4.5 -19.5t1.5 -30.5q0 -13 -1 -22.5t-2.5 -17t-5 -13.5t-9 -11.5t-32.5 -18t-70 -24.5t-99.5 -21.5
t-120.5 -9.5q-111 0 -194.5 31t-140.5 92t-86 153t-29 214q0 116 30 208.5t86.5 157t136.5 99t179 34.5q106 0 180.5 -34t122.5 -91.5t70.5 -135t22.5 -165.5v-30zM755 563q3 130 -57.5 204t-179.5 74q-61 0 -107 -23t-77 -61t-48 -88.5t-19 -105.5h488zM758 1293
q8 0 14 -3.5t9.5 -11t6 -20t2.5 -30.5q0 -17 -2.5 -28.5t-6 -19.5t-9.5 -12t-14 -4h-479q-8 0 -14.5 4t-10.5 12t-6 19.5t-2 28.5q0 18 2 30.5t6 20t10.5 11t14.5 3.5h479zM114 951z" />
    <glyph glyph-name="Ebreve" unicode="&#x114;" horiz-adv-x="1000" 
d="M892 71q0 -18 -2 -31.5t-7 -22.5t-11.5 -13t-14.5 -4h-621q-23 0 -43.5 15.5t-20.5 54.5v1154q0 39 20.5 54.5t43.5 15.5h614q8 0 14.5 -4t10.5 -13t6.5 -22.5t2.5 -33.5q0 -18 -2.5 -31.5t-6.5 -22t-10.5 -12.5t-14.5 -4h-506v-406h434q8 0 14.5 -4.5t11 -12.5t6.5 -22
t2 -33q0 -18 -2 -31t-6.5 -21t-11 -11.5t-14.5 -3.5h-434v-463h513q8 0 14.5 -4t11.5 -12.5t7 -22t2 -33.5zM783 1664q0 -63 -17.5 -112.5t-51.5 -84.5t-83 -53.5t-111 -18.5q-67 0 -116 20.5t-81 56t-47 84.5t-15 108q0 15 11.5 21.5t46.5 6.5q36 0 50.5 -4.5t15 -20
t9 -49.5t25.5 -56t42.5 -34t61.5 -12q51 0 81.5 24t42 57t12.5 56.5t12 31t51 7.5q37 0 49 -6.5t12 -21.5zM129 1294z" />
    <glyph glyph-name="ebreve" unicode="&#x115;" horiz-adv-x="1019" 
d="M921 514q0 -39 -19.5 -55.5t-44.5 -16.5h-590q0 -75 15 -135t50 -103t91 -66t137 -23q64 0 114 10.5t86.5 23.5t60 23.5t35.5 10.5q7 0 12.5 -3.5t8.5 -10.5t4.5 -19.5t1.5 -30.5q0 -13 -1 -22.5t-2.5 -17t-5 -13.5t-9 -11.5t-32.5 -18t-70 -24.5t-99.5 -21.5
t-120.5 -9.5q-111 0 -194.5 31t-140.5 92t-86 153t-29 214q0 116 30 208.5t86.5 157t136.5 99t179 34.5q106 0 180.5 -34t122.5 -91.5t70.5 -135t22.5 -165.5v-30zM755 563q3 130 -57.5 204t-179.5 74q-61 0 -107 -23t-77 -61t-48 -88.5t-19 -105.5h488zM650 1365
q0 15 12 22.5t46 7.5q19 0 30.5 -1.5t18 -5t9 -9t2.5 -12.5q0 -68 -16.5 -118.5t-49 -84.5t-81 -51t-112.5 -17q-68 0 -116.5 18t-80 52t-46 84t-14.5 114q0 16 12 23.5t46 7.5q18 0 29.5 -2t18 -5.5t9.5 -9t3 -13.5q3 -34 11.5 -62.5t25 -48.5t42 -30.5t60.5 -10.5
q30 0 55 8.5t43.5 27t29.5 47t13 69.5zM120 951z" />
    <glyph glyph-name="Edotaccent" unicode="&#x116;" horiz-adv-x="1000" 
d="M892 71q0 -18 -2 -31.5t-7 -22.5t-11.5 -13t-14.5 -4h-621q-23 0 -43.5 15.5t-20.5 54.5v1154q0 39 20.5 54.5t43.5 15.5h614q8 0 14.5 -4t10.5 -13t6.5 -22.5t2.5 -33.5q0 -18 -2.5 -31.5t-6.5 -22t-10.5 -12.5t-14.5 -4h-506v-406h434q8 0 14.5 -4.5t11 -12.5t6.5 -22
t2 -33q0 -18 -2 -31t-6.5 -21t-11 -11.5t-14.5 -3.5h-434v-463h513q8 0 14.5 -4t11.5 -12.5t7 -22t2 -33.5zM635 1529q0 -56 -22 -77t-79 -21q-56 0 -77 20.5t-21 75.5t21.5 76.5t78.5 21.5q56 0 77.5 -21t21.5 -75zM304 1294z" />
    <glyph glyph-name="edotaccent" unicode="&#x117;" horiz-adv-x="1019" 
d="M921 514q0 -39 -19.5 -55.5t-44.5 -16.5h-590q0 -75 15 -135t50 -103t91 -66t137 -23q64 0 114 10.5t86.5 23.5t60 23.5t35.5 10.5q7 0 12.5 -3.5t8.5 -10.5t4.5 -19.5t1.5 -30.5q0 -13 -1 -22.5t-2.5 -17t-5 -13.5t-9 -11.5t-32.5 -18t-70 -24.5t-99.5 -21.5
t-120.5 -9.5q-111 0 -194.5 31t-140.5 92t-86 153t-29 214q0 116 30 208.5t86.5 157t136.5 99t179 34.5q106 0 180.5 -34t122.5 -91.5t70.5 -135t22.5 -165.5v-30zM755 563q3 130 -57.5 204t-179.5 74q-61 0 -107 -23t-77 -61t-48 -88.5t-19 -105.5h488zM621 1232
q0 -56 -22 -77t-79 -21q-56 0 -77 20.5t-21 74.5q0 56 21.5 77t78.5 21q56 0 77.5 -20.5t21.5 -74.5zM290 951z" />
    <glyph glyph-name="Eogonek" unicode="&#x118;" horiz-adv-x="1000" 
d="M932 -291q0 -15 -2 -24t-5.5 -15.5t-10 -10t-27.5 -9t-54.5 -10.5t-75.5 -5q-47 0 -83.5 9.5t-62.5 28.5t-39 47t-13 66q0 35 16 72t58 80l62 62h-459q-23 0 -43.5 15.5t-20.5 54.5v1154q0 39 20.5 54.5t43.5 15.5h614q8 0 14.5 -4t10.5 -13t6.5 -22.5t2.5 -33.5
q0 -18 -2.5 -31.5t-6.5 -22t-10.5 -12.5t-14.5 -4h-506v-406h434q8 0 14.5 -4t11 -11.5t6.5 -20.5t2 -32q0 -20 -2 -33t-6.5 -21.5t-11 -12.5t-14.5 -4h-434v-463h513q17 0 26 -16t9 -52q0 -14 -1 -26t-3.5 -21t-7 -17t-11.5 -15l-109 -108q-21 -23 -29.5 -40.5t-8.5 -35.5
q0 -27 18 -40t57 -13h107q7 0 12.5 -2t8.5 -7.5t5 -15t2 -25.5z" />
    <glyph glyph-name="eogonek" unicode="&#x119;" horiz-adv-x="1019" 
d="M921 514q0 -39 -19.5 -55.5t-44.5 -16.5h-590q0 -75 15 -135t50 -103t91 -66t137 -23q64 0 114 10.5t86.5 23.5t60 23.5t35.5 10.5q7 0 12.5 -3.5t8.5 -10.5t4.5 -19.5t1.5 -30.5q0 -20 -0.5 -33.5t-3 -23.5t-7 -17.5t-13.5 -16.5l-136 -137q-26 -26 -34 -45.5t-8 -32.5
q0 -28 17 -41.5t57 -13.5h109q14 0 20.5 -8.5t6.5 -35.5q0 -17 -1.5 -27.5t-5 -17t-10 -10t-16.5 -6.5q-33 -9 -66.5 -13.5t-73.5 -4.5q-93 0 -145 38t-52 112q0 19 4 37t13 36.5t24 38.5t38 43l54 55q-25 -6 -54 -9.5t-68 -3.5q-106 0 -188 31t-137.5 92.5t-84.5 152.5
t-29 213q0 116 30 208.5t86.5 157t136.5 99t179 34.5q106 0 180.5 -34t122.5 -91.5t70.5 -135t22.5 -165.5v-30zM755 563q3 130 -57.5 204t-179.5 74q-61 0 -107 -23t-77 -61t-48 -88.5t-19 -105.5h488z" />
    <glyph glyph-name="Ecaron" unicode="&#x11a;" horiz-adv-x="1000" 
d="M892 71q0 -18 -2 -31.5t-7 -22.5t-11.5 -13t-14.5 -4h-621q-23 0 -43.5 15.5t-20.5 54.5v1154q0 39 20.5 54.5t43.5 15.5h614q8 0 14.5 -4t10.5 -13t6.5 -22.5t2.5 -33.5q0 -18 -2.5 -31.5t-6.5 -22t-10.5 -12.5t-14.5 -4h-506v-406h434q8 0 14.5 -4.5t11 -12.5t6.5 -22
t2 -33q0 -18 -2 -31t-6.5 -21t-11 -11.5t-14.5 -3.5h-434v-463h513q8 0 14.5 -4t11.5 -12.5t7 -22t2 -33.5zM521 1395q-21 0 -35 1t-24.5 4t-18 9t-16.5 15l-214 227q-9 10 -11 17.5t4 12t20 6.5t36 2q30 0 48 -1.5t29 -4t17 -7.5l12 -10l154 -172l160 168q7 8 15.5 13.5
t20 8.5t29.5 4t45 1q24 0 38.5 -2.5t19.5 -7t2.5 -12t-10.5 -16.5l-223 -227q-8 -9 -17 -14.5t-20 -9t-25.5 -4.5t-35.5 -1zM70 1294z" />
    <glyph glyph-name="ecaron" unicode="&#x11b;" horiz-adv-x="1019" 
d="M921 514q0 -39 -19.5 -55.5t-44.5 -16.5h-590q0 -75 15 -135t50 -103t91 -66t137 -23q64 0 114 10.5t86.5 23.5t60 23.5t35.5 10.5q7 0 12.5 -3.5t8.5 -10.5t4.5 -19.5t1.5 -30.5q0 -13 -1 -22.5t-2.5 -17t-5 -13.5t-9 -11.5t-32.5 -18t-70 -24.5t-99.5 -21.5
t-120.5 -9.5q-111 0 -194.5 31t-140.5 92t-86 153t-29 214q0 116 30 208.5t86.5 157t136.5 99t179 34.5q106 0 180.5 -34t122.5 -91.5t70.5 -135t22.5 -165.5v-30zM755 563q3 130 -57.5 204t-179.5 74q-61 0 -107 -23t-77 -61t-48 -88.5t-19 -105.5h488zM645 1372
q7 9 12.5 14.5t14.5 9t21.5 5t31.5 1.5q26 0 41 -3.5t19.5 -10t0.5 -17t-15 -25.5l-165 -229q-6 -8 -13 -13t-17.5 -7.5t-25.5 -4t-37 -1.5q-21 0 -35 1.5t-24.5 4.5t-17 8t-11.5 12l-165 229q-11 14 -15 25t1 17.5t19.5 10t40.5 3.5q21 0 33.5 -1.5t20.5 -5t13.5 -9
t11.5 -14.5l130 -181zM111 951z" />
    <glyph glyph-name="Gcircumflex" unicode="&#x11c;" horiz-adv-x="1292" 
d="M1144 1118q0 -19 -2 -33.5t-6 -24t-10 -13.5t-13 -4q-12 0 -40 19t-75 42t-112.5 42t-155.5 19q-107 0 -192 -39t-144 -108t-90.5 -164t-31.5 -206q0 -124 34.5 -220t95.5 -162t145.5 -100t185.5 -34q60 0 121.5 14.5t114.5 43.5v377h-300q-17 0 -25.5 17t-8.5 53
q0 19 2 32.5t6.5 22t10.5 12.5t15 4h411q11 0 22 -4t20 -12t14 -22t5 -32v-493q0 -26 -9 -45t-38 -33.5t-75 -31.5t-95 -29t-99 -18t-99 -6q-150 0 -268 46.5t-199.5 132.5t-124.5 206t-43 268q0 154 46.5 279t131 213t203 136.5t262.5 48.5q74 0 139 -13t115.5 -30.5
t85 -38t47.5 -33.5t18 -30t5 -49zM694 1689q21 0 35 -1t24.5 -4.5t18 -9t16.5 -14.5l214 -227q9 -10 11 -17.5t-4 -12t-20 -6.5t-36 -2q-30 0 -48 1.5t-29 4t-17.5 7t-11.5 9.5l-154 173l-159 -168q-8 -8 -16 -13.5t-20 -8.5t-30 -4t-45 -1q-25 0 -38.5 2.5t-19 7t-3.5 11.5
t11 17l224 227q8 9 16.5 14.5t19.5 9t25.5 4.5t35.5 1zM229 1294z" />
    <glyph glyph-name="gcircumflex" unicode="&#x11d;" horiz-adv-x="964" 
d="M905 884q0 -35 -9.5 -50.5t-24.5 -15.5h-129q35 -36 49 -79.5t14 -90.5q0 -78 -25 -138t-71.5 -101.5t-110.5 -63.5t-142 -22q-55 0 -104.5 14.5t-76.5 36.5q-18 -18 -29.5 -41t-11.5 -53q0 -35 32.5 -58t86.5 -25l235 -10q67 -2 123 -18.5t97 -47t64 -75t23 -103.5
q0 -62 -26 -118t-79.5 -98.5t-136.5 -67t-196 -24.5q-109 0 -185.5 18.5t-125.5 50.5t-71 76.5t-22 96.5q0 33 8 64t24.5 59t41 53.5t56.5 50.5q-49 25 -72.5 63t-23.5 82q0 61 25 109t62 86q-31 37 -49 83.5t-18 112.5q0 77 26 138t72 103t110.5 64.5t140.5 22.5
q41 0 76.5 -4.5t66.5 -12.5h272q17 0 25.5 -16.5t8.5 -50.5zM647 647q0 92 -50.5 143.5t-143.5 51.5q-48 0 -83.5 -16t-59 -44t-35 -64.5t-11.5 -76.5q0 -89 50.5 -140t141.5 -51q49 0 85 15.5t59.5 43t35 63.5t11.5 75zM730 -66q0 58 -47.5 89.5t-128.5 33.5l-233 8
q-32 -25 -52.5 -47.5t-32.5 -43t-16.5 -40.5t-4.5 -41q0 -65 66 -98.5t184 -33.5q75 0 125.5 14.5t81.5 38.5t44.5 55t13.5 65zM352 1121q-6 -10 -12 -15.5t-14.5 -8.5t-21 -4.5t-31.5 -1.5q-27 0 -41.5 3.5t-19.5 10t-1 17t16 25.5l165 229q5 8 12 12.5t17.5 7.5t26 4.5
t37.5 1.5q21 0 35 -1.5t24 -5t16.5 -8t11.5 -11.5l165 -229q11 -15 15 -25.5t-0.5 -17t-19.5 -10t-41 -3.5q-21 0 -33.5 1.5t-20.5 4.5t-13 9t-12 15l-130 180zM78 951z" />
    <glyph glyph-name="Gbreve" unicode="&#x11e;" horiz-adv-x="1292" 
d="M1144 1118q0 -19 -2 -33.5t-6 -24t-10 -13.5t-13 -4q-12 0 -40 19t-75 42t-112.5 42t-155.5 19q-107 0 -192 -39t-144 -108t-90.5 -164t-31.5 -206q0 -124 34.5 -220t95.5 -162t145.5 -100t185.5 -34q60 0 121.5 14.5t114.5 43.5v377h-300q-17 0 -25.5 17t-8.5 53
q0 19 2 32.5t6.5 22t10.5 12.5t15 4h411q11 0 22 -4t20 -12t14 -22t5 -32v-493q0 -26 -9 -45t-38 -33.5t-75 -31.5t-95 -29t-99 -18t-99 -6q-150 0 -268 46.5t-199.5 132.5t-124.5 206t-43 268q0 154 46.5 279t131 213t203 136.5t262.5 48.5q74 0 139 -13t115.5 -30.5
t85 -38t47.5 -33.5t18 -30t5 -49zM947 1664q0 -63 -17.5 -112.5t-51.5 -84.5t-83 -53.5t-111 -18.5q-67 0 -116 20.5t-81 56t-47 84.5t-15 108q0 15 11.5 21.5t46.5 6.5q36 0 50.5 -4.5t15 -20t9 -49.5t25.5 -56t42.5 -34t61.5 -12q51 0 81.5 24t42 57t12.5 56.5t12 31
t51 7.5q37 0 49 -6.5t12 -21.5zM293 1294z" />
    <glyph glyph-name="gbreve" unicode="&#x11f;" horiz-adv-x="964" 
d="M905 884q0 -35 -9.5 -50.5t-24.5 -15.5h-129q35 -36 49 -79.5t14 -90.5q0 -78 -25 -138t-71.5 -101.5t-110.5 -63.5t-142 -22q-55 0 -104.5 14.5t-76.5 36.5q-18 -18 -29.5 -41t-11.5 -53q0 -35 32.5 -58t86.5 -25l235 -10q67 -2 123 -18.5t97 -47t64 -75t23 -103.5
q0 -62 -26 -118t-79.5 -98.5t-136.5 -67t-196 -24.5q-109 0 -185.5 18.5t-125.5 50.5t-71 76.5t-22 96.5q0 33 8 64t24.5 59t41 53.5t56.5 50.5q-49 25 -72.5 63t-23.5 82q0 61 25 109t62 86q-31 37 -49 83.5t-18 112.5q0 77 26 138t72 103t110.5 64.5t140.5 22.5
q41 0 76.5 -4.5t66.5 -12.5h272q17 0 25.5 -16.5t8.5 -50.5zM647 647q0 92 -50.5 143.5t-143.5 51.5q-48 0 -83.5 -16t-59 -44t-35 -64.5t-11.5 -76.5q0 -89 50.5 -140t141.5 -51q49 0 85 15.5t59.5 43t35 63.5t11.5 75zM730 -66q0 58 -47.5 89.5t-128.5 33.5l-233 8
q-32 -25 -52.5 -47.5t-32.5 -43t-16.5 -40.5t-4.5 -41q0 -65 66 -98.5t184 -33.5q75 0 125.5 14.5t81.5 38.5t44.5 55t13.5 65zM623 1365q0 15 12 22.5t46 7.5q19 0 30.5 -1.5t18 -5t9 -9t2.5 -12.5q0 -68 -16.5 -118.5t-49 -84.5t-81 -51t-112.5 -17q-68 0 -116.5 18
t-80 52t-46 84t-14.5 114q0 16 12 23.5t46 7.5q18 0 29.5 -2t18 -5.5t9.5 -9t3 -13.5q3 -34 11.5 -62.5t25 -48.5t42 -30.5t60.5 -10.5q30 0 55 8.5t43.5 27t29.5 47t13 69.5zM93 951z" />
    <glyph glyph-name="Gdotaccent" unicode="&#x120;" horiz-adv-x="1292" 
d="M1144 1118q0 -19 -2 -33.5t-6 -24t-10 -13.5t-13 -4q-12 0 -40 19t-75 42t-112.5 42t-155.5 19q-107 0 -192 -39t-144 -108t-90.5 -164t-31.5 -206q0 -124 34.5 -220t95.5 -162t145.5 -100t185.5 -34q60 0 121.5 14.5t114.5 43.5v377h-300q-17 0 -25.5 17t-8.5 53
q0 19 2 32.5t6.5 22t10.5 12.5t15 4h411q11 0 22 -4t20 -12t14 -22t5 -32v-493q0 -26 -9 -45t-38 -33.5t-75 -31.5t-95 -29t-99 -18t-99 -6q-150 0 -268 46.5t-199.5 132.5t-124.5 206t-43 268q0 154 46.5 279t131 213t203 136.5t262.5 48.5q74 0 139 -13t115.5 -30.5
t85 -38t47.5 -33.5t18 -30t5 -49zM819 1529q0 -56 -22 -77t-79 -21q-56 0 -77 20.5t-21 75.5t21.5 76.5t78.5 21.5q56 0 77.5 -21t21.5 -75zM488 1294z" />
    <glyph glyph-name="gdotaccent" unicode="&#x121;" horiz-adv-x="964" 
d="M905 884q0 -35 -9.5 -50.5t-24.5 -15.5h-129q35 -36 49 -79.5t14 -90.5q0 -78 -25 -138t-71.5 -101.5t-110.5 -63.5t-142 -22q-55 0 -104.5 14.5t-76.5 36.5q-18 -18 -29.5 -41t-11.5 -53q0 -35 32.5 -58t86.5 -25l235 -10q67 -2 123 -18.5t97 -47t64 -75t23 -103.5
q0 -62 -26 -118t-79.5 -98.5t-136.5 -67t-196 -24.5q-109 0 -185.5 18.5t-125.5 50.5t-71 76.5t-22 96.5q0 33 8 64t24.5 59t41 53.5t56.5 50.5q-49 25 -72.5 63t-23.5 82q0 61 25 109t62 86q-31 37 -49 83.5t-18 112.5q0 77 26 138t72 103t110.5 64.5t140.5 22.5
q41 0 76.5 -4.5t66.5 -12.5h272q17 0 25.5 -16.5t8.5 -50.5zM647 647q0 92 -50.5 143.5t-143.5 51.5q-48 0 -83.5 -16t-59 -44t-35 -64.5t-11.5 -76.5q0 -89 50.5 -140t141.5 -51q49 0 85 15.5t59.5 43t35 63.5t11.5 75zM730 -66q0 58 -47.5 89.5t-128.5 33.5l-233 8
q-32 -25 -52.5 -47.5t-32.5 -43t-16.5 -40.5t-4.5 -41q0 -65 66 -98.5t184 -33.5q75 0 125.5 14.5t81.5 38.5t44.5 55t13.5 65zM585 1232q0 -56 -22 -77t-79 -21q-56 0 -77 20.5t-21 74.5q0 56 21.5 77t78.5 21q56 0 77.5 -20.5t21.5 -74.5zM254 951z" />
    <glyph glyph-name="uni0122" unicode="&#x122;" horiz-adv-x="1292" 
d="M1144 1118q0 -19 -2 -33.5t-6 -24t-10 -13.5t-13 -4q-12 0 -40 19t-75 42t-112.5 42t-155.5 19q-107 0 -192 -39t-144 -108t-90.5 -164t-31.5 -206q0 -124 34.5 -220t95.5 -162t145.5 -100t185.5 -34q60 0 121.5 14.5t114.5 43.5v377h-300q-17 0 -25.5 17t-8.5 53
q0 19 2 32.5t6.5 22t10.5 12.5t15 4h411q11 0 22 -4t20 -12t14 -22t5 -32v-493q0 -26 -9 -45t-38 -33.5t-75 -31.5t-95 -29t-99 -18t-99 -6q-150 0 -268 46.5t-199.5 132.5t-124.5 206t-43 268q0 154 46.5 279t131 213t203 136.5t262.5 48.5q74 0 139 -13t115.5 -30.5
t85 -38t47.5 -33.5t18 -30t5 -49zM601 -121q3 11 9 18.5t17 11.5t28.5 6t44.5 2q26 0 41 -3.5t21.5 -10t6 -15t-5.5 -19.5l-97 -203q-4 -10 -10 -16t-15.5 -9t-23.5 -4.5t-34 -1.5q-21 0 -32 2.5t-16 7.5t-4 13t4 19z" />
    <glyph glyph-name="uni0123" unicode="&#x123;" horiz-adv-x="964" 
d="M905 884q0 -35 -9.5 -50.5t-24.5 -15.5h-129q35 -36 49 -79.5t14 -90.5q0 -78 -25 -138t-71.5 -101.5t-110.5 -63.5t-142 -22q-55 0 -104.5 14.5t-76.5 36.5q-18 -18 -29.5 -41t-11.5 -53q0 -35 32.5 -58t86.5 -25l235 -10q67 -2 123 -18.5t97 -47t64 -75t23 -103.5
q0 -62 -26 -118t-79.5 -98.5t-136.5 -67t-196 -24.5q-109 0 -185.5 18.5t-125.5 50.5t-71 76.5t-22 96.5q0 33 8 64t24.5 59t41 53.5t56.5 50.5q-49 25 -72.5 63t-23.5 82q0 61 25 109t62 86q-31 37 -49 83.5t-18 112.5q0 77 26 138t72 103t110.5 64.5t140.5 22.5
q41 0 76.5 -4.5t66.5 -12.5h272q17 0 25.5 -16.5t8.5 -50.5zM647 647q0 92 -50.5 143.5t-143.5 51.5q-48 0 -83.5 -16t-59 -44t-35 -64.5t-11.5 -76.5q0 -89 50.5 -140t141.5 -51q49 0 85 15.5t59.5 43t35 63.5t11.5 75zM730 -66q0 58 -47.5 89.5t-128.5 33.5l-233 8
q-32 -25 -52.5 -47.5t-32.5 -43t-16.5 -40.5t-4.5 -41q0 -65 66 -98.5t184 -33.5q75 0 125.5 14.5t81.5 38.5t44.5 55t13.5 65zM554 1102q-6 -10 -12 -17t-17 -11t-28 -5.5t-42 -1.5q-28 0 -44 3t-23.5 9t-6.5 14.5t8 18.5l143 241q6 10 13.5 16t18 9.5t26 4.5t37.5 1
q18 0 29 -2.5t16.5 -8t5.5 -13.5t-5 -18zM249 951z" />
    <glyph glyph-name="Hcircumflex" unicode="&#x124;" horiz-adv-x="1276" 
d="M1104 26q0 -8 -4 -14t-14 -9.5t-26.5 -6t-40.5 -2.5q-26 0 -42 2.5t-26 6t-14 9.5t-4 14v574h-589v-574q0 -8 -4 -14t-14 -9.5t-26.5 -6t-41.5 -2.5q-24 0 -41 2.5t-27 6t-14 9.5t-4 14v1242q0 8 4 14t14 9.5t27 6t41 2.5q25 0 41.5 -2.5t26.5 -6t14 -9.5t4 -14v-518h589
v518q0 8 4 14t14 9.5t26 6t42 2.5q24 0 40.5 -2.5t26.5 -6t14 -9.5t4 -14v-1242zM643 1689q21 0 35 -1t24.5 -4.5t18 -9t16.5 -14.5l214 -227q9 -10 11 -17.5t-4 -12t-20 -6.5t-36 -2q-30 0 -48 1.5t-29 4t-17.5 7t-11.5 9.5l-154 173l-159 -168q-8 -8 -16 -13.5t-20 -8.5
t-30 -4t-45 -1q-25 0 -38.5 2.5t-19 7t-3.5 11.5t11 17l224 227q8 9 16.5 14.5t19.5 9t25.5 4.5t35.5 1zM178 1294z" />
    <glyph glyph-name="hcircumflex" unicode="&#x125;" 
d="M928 25q0 -8 -4 -13.5t-13 -9.5t-25 -6t-40 -2q-25 0 -41 2t-25 6t-13 9.5t-4 13.5v527q0 77 -12 124t-35 81t-59.5 52t-84.5 18q-62 0 -124 -44t-130 -129v-629q0 -8 -4 -13.5t-13 -9.5t-25 -6t-41 -2q-24 0 -40 2t-25.5 6t-13 9.5t-3.5 13.5v1240q0 7 3.5 13.5t13 10.5
t25.5 6t40 2q25 0 41 -2t25 -6t13 -10.5t4 -13.5v-443q71 75 143 111.5t145 36.5q90 0 151.5 -30.5t99.5 -81.5t54.5 -119.5t16.5 -165.5v-548zM251 1689q22 0 36 -1t24 -4.5t18 -9t16 -14.5l215 -227q9 -10 10.5 -17.5t-4.5 -12t-19.5 -6.5t-35.5 -2q-30 0 -48 1.5t-29 4
t-17.5 7t-12.5 9.5l-153 173l-159 -168q-8 -8 -16 -13.5t-20.5 -8.5t-30 -4t-45.5 -1q-24 0 -38 2.5t-19.5 7t-3.5 11.5t12 17l224 227q8 9 16 14.5t19 9t26 4.5t35 1z" />
    <glyph glyph-name="Hbar" unicode="&#x126;" horiz-adv-x="1344" 
d="M378 916v-203h588v203h-588zM1138 1050h140q8 0 14.5 -3t11 -11.5t7 -21t2.5 -32.5q0 -18 -2.5 -31t-7 -21t-11 -11t-14.5 -3h-140v-891q0 -8 -4 -13.5t-14 -9.5t-26.5 -6t-41.5 -2q-24 0 -41 2t-26.5 6t-14 9.5t-4.5 13.5v545h-588v-545q0 -8 -4.5 -13.5t-14.5 -9.5
t-26 -6t-41 -2t-41.5 2t-26.5 6t-14 9.5t-4 13.5v891h-140q-9 0 -15 3t-10 11.5t-6.5 21t-2.5 31.5t2.5 32t6.5 20.5t10 11t15 3.5h140v219q0 7 4 13t14 10t26.5 6t41.5 2t41 -2t26 -6t14.5 -10t4.5 -13v-219h588v219q0 7 4.5 13t14 10t26.5 6t41 2q25 0 41.5 -2t26.5 -6
t14 -10t4 -13v-219z" />
    <glyph glyph-name="hbar" unicode="&#x127;" horiz-adv-x="1091" 
d="M943 25q0 -8 -4 -13.5t-13 -9.5t-25 -6t-40 -2q-26 0 -41.5 2t-25 6t-13 9.5t-3.5 13.5v515q0 78 -11.5 125t-35 81t-60 52t-84.5 18q-62 0 -123.5 -44t-130.5 -129v-618q0 -8 -4 -13.5t-13 -9.5t-25 -6t-41 -2q-24 0 -40 2t-25.5 6t-13 9.5t-3.5 13.5v1078h-141
q-8 0 -14 3.5t-10.5 11.5t-7 20.5t-2.5 29.5q0 18 2.5 30.5t7 20.5t10.5 11t14 3h141v129q0 8 3.5 14t13 10t25.5 6t40 2q25 0 41 -2t25 -6t13 -10t4 -14v-129h239q8 0 14 -3t10.5 -11t6.5 -20.5t2 -30.5q0 -17 -2 -29.5t-6.5 -20.5t-10.5 -11.5t-14 -3.5h-239v-293
q72 77 144 112.5t144 35.5q90 0 151.5 -30t99.5 -81.5t54.5 -119.5t16.5 -165v-537z" />
    <glyph glyph-name="Itilde" unicode="&#x128;" horiz-adv-x="516" 
d="M344 26q0 -8 -4 -14t-14 -9.5t-26.5 -6t-41.5 -2.5q-24 0 -41 2.5t-27 6t-14 9.5t-4 14v1242q0 8 4.5 14t15 9.5t27 6t39.5 2.5q25 0 41.5 -2.5t26.5 -6t14 -9.5t4 -14v-1242zM480 1614q0 13 14 17.5t48 4.5q36 0 47 -7.5t11 -32.5q0 -93 -51.5 -146.5t-145.5 -53.5
q-53 0 -92 18t-71.5 39.5t-61 39t-60.5 17.5q-42 0 -59 -25t-17 -67q0 -7 -4.5 -11.5t-12.5 -7t-19.5 -3t-25.5 -0.5q-36 0 -47 8t-11 32q0 48 14 85.5t40 62.5t62.5 38.5t80.5 13.5q53 0 92 -18t71 -39t60.5 -39t61.5 -18q35 0 55.5 20.5t20.5 71.5zM-207 1294z" />
    <glyph glyph-name="itilde" unicode="&#x129;" horiz-adv-x="470" 
d="M318 25q0 -8 -4 -13.5t-13 -9.5t-25 -6t-41 -2q-24 0 -40 2t-25.5 6t-13 9.5t-3.5 13.5v900q0 8 3.5 13.5t13 10t25.5 6t40 1.5q25 0 41 -1.5t25 -6t13 -10t4 -13.5v-900zM570 1314q0 -106 -52 -162t-141 -56q-37 0 -66 9.5t-53 24.5t-44 32t-39.5 32t-38.5 24.5t-41 9.5
q-40 0 -56 -29t-16 -77q0 -7 -2 -12.5t-8.5 -8.5t-19 -4t-31.5 -1q-16 0 -27 1.5t-17.5 6t-9.5 13t-3 21.5q0 99 50 158t143 59q54 0 93 -20.5t70.5 -45t59 -45.5t59.5 -21q36 0 54.5 26.5t18.5 78.5q0 16 10.5 21.5t45.5 5.5q37 0 49 -7.5t12 -33.5zM-224 951z" />
    <glyph glyph-name="Imacron" unicode="&#x12a;" horiz-adv-x="516" 
d="M344 26q0 -8 -4 -14t-14 -9.5t-26.5 -6t-41.5 -2.5q-24 0 -41 2.5t-27 6t-14 9.5t-4 14v1242q0 8 4.5 14t15 9.5t27 6t39.5 2.5q25 0 41.5 -2.5t26.5 -6t14 -9.5t4 -14v-1242zM534 1590q7 0 13 -4t10.5 -12t6 -20.5t1.5 -29.5t-1.5 -29.5t-6 -21t-10.5 -12.5t-13 -4h-546
q-8 0 -14.5 4t-10.5 12.5t-6 21t-2 29.5q0 16 2 29t6 21t10.5 12t14.5 4h546zM-177 1294z" />
    <glyph glyph-name="imacron" unicode="&#x12b;" horiz-adv-x="470" 
d="M318 25q0 -8 -4 -13.5t-13 -9.5t-25 -6t-41 -2q-24 0 -40 2t-25.5 6t-13 9.5t-3.5 13.5v900q0 8 3.5 13.5t13 10t25.5 6t40 1.5q25 0 41 -1.5t25 -6t13 -10t4 -13.5v-900zM476 1293q8 0 14 -3.5t9.5 -11t6 -20t2.5 -30.5q0 -17 -2.5 -28.5t-6 -19.5t-9.5 -12t-14 -4h-479
q-8 0 -14.5 4t-10.5 12t-6 19.5t-2 28.5q0 18 2 30.5t6 20t10.5 11t14.5 3.5h479zM-168 951z" />
    <glyph glyph-name="Ibreve" unicode="&#x12c;" horiz-adv-x="516" 
d="M344 26q0 -8 -4 -14t-14 -9.5t-26.5 -6t-41.5 -2.5q-24 0 -41 2.5t-27 6t-14 9.5t-4 14v1242q0 8 4.5 14t15 9.5t27 6t39.5 2.5q25 0 41.5 -2.5t26.5 -6t14 -9.5t4 -14v-1242zM521 1664q0 -63 -17.5 -112.5t-51.5 -84.5t-83 -53.5t-111 -18.5q-67 0 -116 20.5t-81 56
t-47 84.5t-15 108q0 15 11.5 21.5t46.5 6.5q36 0 50.5 -4.5t15 -20t9 -49.5t25.5 -56t42.5 -34t61.5 -12q51 0 81.5 24t42 57t12.5 56.5t12 31t51 7.5q37 0 49 -6.5t12 -21.5zM-133 1294z" />
    </font>
</defs>
</svg>
