<?xml version="1.0" standalone="no"?>
<!DOCTYPE svg PUBLIC "-//W3C//DTD SVG 1.1//EN" "http://www.w3.org/Graphics/SVG/1.1/DTD/svg11.dtd" >
<svg xmlns="http://www.w3.org/2000/svg" xmlns:xlink="http://www.w3.org/1999/xlink" version="1.1">
<metadata>
Created by FontForge 20170731 at Fri Aug  4 18:38:55 2006
 By Aleksey,,,
(c) 2005 Microsoft Corporation. All Rights Reserved.
</metadata>
<defs>
<font id="Constantia" horiz-adv-x="1130" >
  <font-face 
    font-family="Constantia"
    font-weight="400"
    font-stretch="normal"
    units-per-em="2048"
    panose-1="2 3 6 2 5 3 6 3 3 3"
    ascent="1638"
    descent="-410"
    x-height="927"
    cap-height="1400"
    bbox="-760 -513 2395 2088"
    underline-thickness="102"
    underline-position="-409"
    unicode-range="U+000D-FB04"
  />
<missing-glyph horiz-adv-x="995" 
d="M995 1396v-1396h-995v1396h995zM898 98v1201h-800v-1201h800zM437 455l-2 33q0 133 41 187t73 84q61 62 78.5 94t17.5 73q0 75 -44.5 118.5t-102.5 43.5q-62 0 -105.5 -42.5t-55.5 -141.5l-96 15q15 136 87 201.5t175 65.5q104 0 173 -66t69 -185q0 -66 -24 -115
t-97 -120q-73 -65 -85.5 -106t-12.5 -134zM416 291q0 29 20 49.5t49 20.5t49.5 -20.5t20.5 -49.5q0 -30 -20.5 -49.5t-49.5 -19.5t-49 19.5t-20 49.5z" />
    <glyph glyph-name="uniFB00" unicode="ff" horiz-adv-x="1250" 
d="M385 821v-546q0 -98 2 -168q2 -27 26 -35l117 -34l2 -41q-140 3 -237 3q-99 0 -233 -3l-5 41l112 32q28 9 29 33q2 62 2 131v589l-136 34l-7 42l144 12q0 275 122.5 430t328.5 155q101 0 193 -25q-34 -122 -57 -251l-40 -7l-61 198q-28 4 -63 4q-115 0 -177 -102.5
t-62 -376.5v-23h432v2q0 282 122.5 437t328.5 155q100 0 195 -25q-34 -122 -58 -251l-42 -8l-65 200q-23 3 -58 3q-115 0 -177 -103t-62 -377v-33h249v-92h-249v-546q0 -94 2 -165q2 -27 26 -34l127 -38l2 -41q-150 3 -247 3q-99 0 -223 -3l-4 41l101 29q28 9 29 33
q2 62 2 134v587h-431z" />
    <glyph glyph-name="uniFB01" unicode="fi" horiz-adv-x="1196" 
d="M385 821v-546q0 -98 2 -168q2 -27 26 -35l117 -34l2 -41q-140 3 -237 3q-99 0 -233 -3l-5 41l112 32q28 9 29 33q2 62 2 131v589l-136 34l-7 42l144 12v4q0 282 145.5 437t388.5 155q121 0 230 -25q-33 -122 -57 -251l-39 -8l-80 199q-38 4 -84 4q-154 0 -237 -103
t-83 -377v-33h455q82 18 158 37l9 -7q-6 -130 -6 -286v-384q0 -120 2 -166q2 -27 25 -35l116 -34l2 -41q-138 3 -235 3q-99 0 -223 -3l-4 41l105 31q23 8 25 31q2 39 2 134v587h-431z" />
    <glyph glyph-name="uniFB02" unicode="fl" horiz-adv-x="1201" 
d="M385 818v-543q0 -98 2 -168q2 -27 26 -35l117 -34l2 -41q-140 3 -237 3q-99 0 -233 -3l-5 41l112 32q28 9 29 33q2 62 2 131v589l-136 34l-7 42l144 12v4q0 282 141 437t372 155q106 0 187 -24q52 11 102 24l9 -8q-6 -163 -6 -453v-651q0 -179 2 -288q3 -29 28 -36
l110 -33l2 -41q-135 3 -232 3q-99 0 -223 -3l-4 41l103 30q25 8 27 32q2 113 2 255v1044q-46 23 -124 23q-154 0 -233 -101t-79 -375v-33h264v-95h-264z" />
    <glyph glyph-name="uniFB03" unicode="ffi" horiz-adv-x="1812" 
d="M1001 821v-546q0 -98 2 -168q2 -27 26 -35l117 -34l2 -41q-140 3 -237 3q-99 0 -234 -3l-4 41l112 32q28 9 29 33q2 62 2 131v587h-431v-546q0 -98 2 -168q2 -27 26 -35l117 -34l2 -41q-140 3 -237 3q-99 0 -233 -3l-5 41l112 32q28 9 29 33q2 62 2 131v589l-136 34
l-7 42l144 12q0 275 122.5 430t328.5 155q101 0 193 -25q-34 -122 -57 -251l-40 -7l-61 198q-28 4 -63 4q-115 0 -177 -102.5t-62 -376.5v-23h432v2q0 282 145.5 437t388.5 155q121 0 230 -25q-34 -122 -57 -251l-40 -8l-79 199q-38 4 -84 4q-154 0 -237 -103t-83 -377v-33
h455q82 18 158 37l9 -7q-6 -130 -6 -286v-384q0 -120 2 -166q2 -27 25 -35l116 -34l2 -41q-138 3 -236 3t-222 -3l-4 41l105 31q23 8 25 31q2 39 2 134v587h-431z" />
    <glyph glyph-name="uniFB04" unicode="ffl" horiz-adv-x="1816" 
d="M1001 821v-546q0 -98 2 -168q2 -27 26 -35l117 -34l2 -41q-140 3 -237 3q-99 0 -234 -3l-4 41l112 32q28 9 29 33q2 62 2 131v587h-428v-546q0 -98 2 -168q2 -27 27 -35l118 -34l2 -41q-142 3 -240 3q-101 0 -235 -3l-5 41l112 32q28 9 29 33q2 62 2 131v589l-136 34
l-7 42l144 12q0 275 122.5 430t328.5 155q101 0 193 -25q-34 -122 -57 -251l-40 -7l-61 198q-28 4 -63 4q-115 0 -177 -102.5t-62 -376.5v-23h432v2q0 282 141 436.5t372 154.5q106 0 187 -24q52 11 102 24l9 -8q-6 -162 -6 -452v-651q0 -179 2 -288q3 -29 28 -36l109 -33
l2 -41q-134 3 -232 3t-222 -3l-4 41l103 30q25 8 27 32q2 113 2 255v1044q-46 23 -124 23q-154 0 -233 -101t-79 -375v-33h264v-92h-264z" />
    <glyph glyph-name="f_b.liga" unicode="fb" horiz-adv-x="1787" 
d="M821 357v1042q-46 23 -124 23q-154 0 -233 -101t-79 -375v-33h264v-95h-264v-543q0 -98 2 -168q2 -27 26 -35l117 -34l2 -41q-140 3 -237 3q-99 0 -233 -3l-5 41l112 32q28 9 29 33q2 62 2 131v589l-136 34l-7 42l144 12v4q0 282 141 437t372 155q106 0 187 -24
q52 11 102 24l9 -8q-6 -163 -6 -453v-201q162 105 295 105q188 0 297 -126t109 -329q0 -247 -140.5 -384.5t-389.5 -137.5q-166 0 -358 57q2 127 2 327zM1006 85q82 -26 165 -26q168 0 252.5 103t84.5 295q0 176 -78.5 274t-231.5 98q-98 0 -192 -44v-700z" />
    <glyph glyph-name="f_f_b.liga" unicode="ffb" horiz-adv-x="2403" 
d="M1437 357v1042q-46 23 -124 23q-154 0 -233 -101t-79 -375v-33h264v-92h-264v-546q0 -98 2 -168q2 -27 26 -35l117 -34l2 -41q-140 3 -237 3q-99 0 -234 -3l-4 41l112 32q28 9 29 33q2 62 2 131v587h-431v-546q0 -98 2 -168q2 -27 26 -35l117 -34l2 -41q-140 3 -237 3
q-99 0 -233 -3l-5 41l112 32q28 9 29 33q2 62 2 131v589l-136 34l-7 42l144 12q0 275 122.5 430t328.5 155q101 0 193 -25q-34 -122 -57 -251l-40 -7l-61 198q-28 4 -63 4q-115 0 -177 -102.5t-62 -376.5v-23h432v23q0 261 141 416t372 155q106 0 187 -24q52 11 102 24l9 -8
q-6 -163 -6 -453v-201q161 105 295 105q188 0 297 -126t109 -329q0 -247 -140.5 -384.5t-389.5 -137.5q-166 0 -358 57q2 127 2 327zM1622 85q82 -26 165 -26q168 0 252.5 103t84.5 295q0 176 -78.5 274t-231.5 98q-98 0 -192 -44v-700z" />
    <glyph glyph-name="f_h.liga" unicode="fh" horiz-adv-x="1813" 
d="M821 348v1051q-46 23 -124 23q-154 0 -233 -101t-79 -375v-33h264v-95h-264v-543q0 -98 2 -168q2 -27 26 -35l117 -34l2 -41q-140 3 -237 3q-99 0 -233 -3l-5 41l112 32q28 9 29 33q2 62 2 131v589l-136 34l-7 42l144 12v4q0 282 140.5 437t371.5 155q106 0 186 -24
q53 11 104 24l9 -8q-6 -163 -6 -453v-208q174 112 324 112q139 0 221 -77.5t82 -227.5v-353q0 -115 2 -185q1 -26 25 -35l112 -34l2 -41q-132 3 -229 3q-99 0 -219 -3l-4 41l99 29q24 8 26 31q1 14 1 63v436q0 123 -59 176.5t-174 53.5q-99 0 -209 -48v-449q0 -124 2 -227
q1 -28 25 -35l104 -30l2 -41q-126 3 -223 3q-99 0 -232 -3l-5 41l113 33q26 8 27 32q2 96 2 245z" />
    <glyph glyph-name="f_f_h.liga" unicode="ffh" horiz-adv-x="2429" 
d="M1437 1399q-46 23 -124 23q-154 0 -233 -101t-79 -375v-33h264v-92h-264v-546q0 -98 2 -168q2 -27 26 -35l117 -34l2 -41q-140 3 -237 3q-99 0 -234 -3l-4 41l112 32q28 9 29 33q2 62 2 131v587h-431v-546q0 -98 2 -168q2 -27 26 -35l117 -34l2 -41q-140 3 -237 3
q-99 0 -233 -3l-5 41l112 32q28 9 29 33q2 62 2 131v589l-136 34l-7 42l144 12q0 275 122.5 430t328.5 155q101 0 193 -25q-34 -122 -57 -251l-40 -7l-61 198q-28 4 -63 4q-115 0 -177 -102.5t-62 -376.5v-23h432v2q0 282 140.5 437t371.5 155q106 0 186 -24q53 11 104 24
l9 -8q-6 -163 -6 -453v-208q174 112 324 112q139 0 221 -77.5t82 -227.5v-353q0 -115 2 -185q1 -26 25 -35l112 -34l2 -41q-132 3 -230 3t-218 -3l-4 41l98 29q25 8 27 31q1 14 1 63v436q0 123 -59 176.5t-174 53.5q-99 0 -209 -48v-449q0 -124 2 -227q1 -28 25 -35l104 -30
l2 -41q-126 3 -224 3t-232 -3l-4 41l113 33q26 8 27 32q2 96 2 245v1051z" />
    <glyph glyph-name="f_j.liga" unicode="fj" horiz-adv-x="1174" 
d="M999 551v-472q0 -198 -75.5 -311t-265.5 -281l-47 40q148 196 176.5 289t28.5 236v769h-431v-546q0 -94 2 -165q2 -27 26 -34l130 -38l3 -41q-154 3 -251 3q-99 0 -233 -3l-5 41l112 32q28 9 29 33q2 62 2 131v589l-136 34l-7 42l144 12v4q0 282 144.5 437t388.5 155
q121 0 231 -25q-33 -122 -57 -251l-39 -8l-80 199q-38 4 -84 4q-154 0 -237 -103t-83 -377v-33h455q80 18 156 37l9 -7q-6 -130 -6 -392z" />
    <glyph glyph-name="f_f_j.liga" unicode="ffj" horiz-adv-x="1790" 
d="M1432 821h-431v-546q0 -98 2 -168q2 -27 26 -35l117 -34l2 -41q-140 3 -237 3q-99 0 -234 -3l-4 41l112 32q28 9 29 33q2 62 2 131v587h-431v-546q0 -98 2 -168q2 -27 26 -35l117 -34l2 -41q-140 3 -237 3q-99 0 -233 -3l-5 41l112 32q28 9 29 33q2 62 2 131v589l-136 34
l-7 42l144 12q0 275 122.5 430t328.5 155q101 0 193 -25q-34 -122 -57 -251l-40 -7l-61 198q-28 4 -63 4q-115 0 -177 -102.5t-62 -376.5v-23h432v23q0 261 145.5 416t388.5 155q121 0 230 -25q-34 -122 -57 -251l-40 -8l-79 199q-38 4 -84 4q-154 0 -237 -103t-83 -377v-33
h455q80 18 155 37l10 -7q-6 -130 -6 -392v-472q0 -198 -76 -311t-266 -281l-46 40q148 196 176.5 289t28.5 236v769z" />
    <glyph glyph-name="f_k.liga" unicode="fk" horiz-adv-x="1721" 
d="M821 1399q-46 23 -124 23q-154 0 -233 -101t-79 -375v-33h264v-95h-264v-543q0 -98 2 -168q2 -27 26 -35l117 -34l2 -41q-140 3 -237 3q-99 0 -233 -3l-5 41l112 32q28 9 29 33q2 62 2 131v589l-136 34l-7 42l144 12v4q0 282 141 437t372 155q106 0 187 -24q52 11 102 24
l9 -8q-6 -163 -6 -453v-654q0 -148 2 -290q2 -29 26 -35l97 -29l2 -41q-120 3 -217 3q-99 0 -232 -3l-5 41l118 35q20 7 22 30q2 113 2 252v1044zM1731 -3q-134 3 -199 3q-43 0 -113 -2q-38 61 -89 131q-138 193 -297 377l361 350l-111 31l-4 40q129 -3 190 -3q56 0 209 3
l4 -41q-101 -26 -145 -45.5t-103 -74.5l-214 -198l322 -402q54 -67 84.5 -89t102.5 -39z" />
    <glyph glyph-name="f_f_k.liga" unicode="ffk" horiz-adv-x="2337" 
d="M2347 -3q-134 3 -199 3q-43 0 -114 -2q-37 61 -88 131q-138 193 -297 377l361 350l-111 31l-4 40q129 -3 190 -3q55 0 209 3l4 -41q-101 -26 -145 -45.5t-103 -74.5l-214 -198l322 -402q54 -67 84.5 -89t102.5 -39zM1437 1399q-46 23 -124 23q-154 0 -233 -101t-79 -375
v-33h264v-92h-264v-546q0 -98 2 -168q2 -27 26 -35l117 -34l2 -41q-140 3 -237 3q-99 0 -234 -3l-4 41l112 32q28 9 29 33q2 62 2 131v587h-431v-546q0 -98 2 -168q2 -27 26 -35l117 -34l2 -41q-140 3 -237 3q-99 0 -233 -3l-5 41l112 32q28 9 29 33q2 62 2 131v589l-136 34
l-7 42l144 12q0 275 122.5 430t328.5 155q101 0 193 -25q-34 -122 -57 -251l-40 -7l-61 198q-18 4 -63 4q-115 0 -177 -102.5t-62 -376.5v-23h432v2q0 282 141 437t372 155q106 0 187 -24q52 11 102 24l9 -8q-6 -163 -6 -453v-654q0 -148 2 -290q2 -29 26 -35l97 -29l2 -41
q-120 3 -218 3t-232 -3l-4 41l118 35q20 7 22 30q2 113 2 252v1044z" />
    <glyph glyph-name=".notdef" horiz-adv-x="995" 
d="M995 1396v-1396h-995v1396h995zM898 98v1201h-800v-1201h800zM437 455l-2 33q0 133 41 187t73 84q61 62 78.5 94t17.5 73q0 75 -44.5 118.5t-102.5 43.5q-62 0 -105.5 -42.5t-55.5 -141.5l-96 15q15 136 87 201.5t175 65.5q104 0 173 -66t69 -185q0 -66 -24 -115
t-97 -120q-73 -65 -85.5 -106t-12.5 -134zM416 291q0 29 20 49.5t49 20.5t49.5 -20.5t20.5 -49.5q0 -30 -20.5 -49.5t-49.5 -19.5t-49 19.5t-20 49.5z" />
    <glyph glyph-name="glyph1" horiz-adv-x="0" 
 />
    <glyph glyph-name="glyph1" horiz-adv-x="0" 
 />
    <glyph glyph-name="uni000D" unicode="&#xd;" horiz-adv-x="0" 
 />
    <glyph glyph-name="space" unicode=" " horiz-adv-x="514" 
 />
    <glyph glyph-name="space" unicode="&#xa0;" horiz-adv-x="514" 
 />
    <glyph glyph-name="exclam" unicode="!" horiz-adv-x="564" 
d="M319 396l-78 957l224 10l9 -8l-93 -956zM350 210q52 0 85.5 -32.5t33.5 -85.5t-33.5 -86.5t-85.5 -33.5q-55 0 -88 33.5t-33 86.5t33 85.5t88 32.5z" />
    <glyph glyph-name="quotedbl" unicode="&#x22;" horiz-adv-x="736" 
d="M100 1487h196l-90 -485h-65zM430 1487h196l-90 -485h-65z" />
    <glyph glyph-name="numbersign" unicode="#" 
d="M314 -10h-117l59 391h-201v115h219l44 291h-201v115h218l60 392h117l-60 -392h289l60 392h116l-59 -392h202v-115h-220l-43 -291h201v-115h-219l-59 -391h-117l59 391h-289zM391 496h289l44 291h-289z" />
    <glyph glyph-name="dollar" unicode="$" horiz-adv-x="901" 
d="M429 1174l78 8l-3 -117q142 -2 272 -36l7 -6l-49 -261l-38 -6l-56 205q-66 25 -137 28l-9 -368q89 -38 143.5 -63.5t97.5 -60.5t69.5 -82t26.5 -112q0 -136 -92.5 -224t-258.5 -102l-3 -128l-78 -8l3 133q-156 5 -306 53l-6 8l41 287l43 7l57 -238q80 -32 173 -37l9 403
q-70 30 -124 56t-97.5 63t-70 87.5t-26.5 121.5q0 118 89.5 192t241.5 85zM482 57q177 26 177 186q0 113 -169 184zM425 985q-163 -20 -163 -148q0 -114 155 -184z" />
    <glyph glyph-name="percent" unicode="%" horiz-adv-x="1682" 
d="M213 1066q0 -182 44 -278.5t131 -96.5q81 0 124 83t43 280q0 186 -45 275t-130 89q-81 0 -124 -78.5t-43 -273.5zM708 1073q0 -213 -93.5 -326.5t-238.5 -113.5q-142 0 -229 106t-87 306q0 207 91 319t241 112q143 0 229.5 -101.5t86.5 -301.5zM343 0l946 1477l75 -47
l-947 -1477zM1142 408q0 -182 44 -278.5t131 -96.5q81 0 124 83t43 280q0 186 -45 275t-130 89q-81 0 -124 -78.5t-43 -273.5zM1637 415q0 -213 -93.5 -326.5t-238.5 -113.5q-142 0 -229 106t-87 306q0 207 91 319t241 112q143 0 229.5 -101.5t86.5 -301.5z" />
    <glyph glyph-name="ampersand" unicode="&#x26;" horiz-adv-x="1386" 
d="M877 779q57 -2 113.5 -3t115.5 -1q51 0 95.5 1t84.5 3l3 -44l-125 -31q-20 -5 -17 -23q6 -51 6 -94q0 -208 -102 -358q66 -92 120 -135t126 -43q28 0 61 6l8 -44q-88 -45 -183 -45q-158 0 -269 134q-171 -130 -377 -130q-193 0 -325 100t-132 271q0 232 290 384
q-109 128 -139.5 202t-30.5 152q0 143 101 229t251 86q132 0 222 -73t90 -201q0 -207 -287 -350l407 -467q66 117 66 266q0 61 -6 99q-3 19 -12.5 27t-28.5 12l-124 25zM418 670q-142 -117 -142 -293q0 -138 83.5 -219t232.5 -81q143 0 262 94zM532 824q166 126 166 292
q0 90 -46.5 144.5t-117.5 54.5q-74 0 -119.5 -47.5t-45.5 -126.5q0 -131 116 -263z" />
    <glyph glyph-name="quotesingle" unicode="'" horiz-adv-x="406" 
d="M100 1487h196l-90 -485h-65z" />
    <glyph glyph-name="parenleft" unicode="(" horiz-adv-x="755" 
d="M612 -377q-452 383 -452 972q0 593 452 976l43 -38q-319 -355 -319 -934q0 -583 319 -938z" />
    <glyph glyph-name="parenright" unicode=")" horiz-adv-x="755" 
d="M143 1571q452 -383 452 -972q0 -593 -452 -976l-43 38q319 355 319 934q0 583 -319 938z" />
    <glyph glyph-name="asterisk" unicode="*" horiz-adv-x="887" 
d="M541 1433l-67 -314l287 124l46 -140l-319 -34l205 -232l-119 -87l-130 290l-158 -268l-119 86l236 215l-303 68l45 141l278 -160l-30 311h148z" />
    <glyph glyph-name="plus" unicode="+" 
d="M93 522h412v412h121v-412h411v-121h-411v-411h-121v411h-412v121z" />
    <glyph glyph-name="comma" unicode="," horiz-adv-x="524" 
d="M91 -279q142 116 142 227q0 97 -102 156q0 57 33.5 90.5t87.5 33.5q59 0 95.5 -45.5t36.5 -115.5q0 -108 -63.5 -204t-191.5 -186z" />
    <glyph glyph-name="hyphen" unicode="-" horiz-adv-x="736" 
d="M90 562h556v-130h-556v130z" />
    <glyph glyph-name="hyphen" unicode="&#x2010;" horiz-adv-x="736" 
d="M90 562h556v-130h-556v130z" />
    <glyph glyph-name="hyphen" unicode="&#xad;" horiz-adv-x="736" 
d="M90 562h556v-130h-556v130z" />
    <glyph glyph-name="period" unicode="." horiz-adv-x="524" 
d="M268 210q52 0 85.5 -32.5t33.5 -85.5t-33.5 -86.5t-85.5 -33.5q-55 0 -88 33.5t-33 86.5t33 85.5t88 32.5z" />
    <glyph glyph-name="slash" unicode="/" horiz-adv-x="825" 
d="M110 -226l505 1652h120l-505 -1652h-120z" />
    <glyph glyph-name="zero" unicode="0" horiz-adv-x="1103" 
d="M280 477q0 -198 71.5 -311t205.5 -113q136 0 201 101t65 309q0 204 -71 307.5t-206 103.5q-138 0 -202 -99t-64 -298zM1023 485q0 -234 -133.5 -372.5t-348.5 -138.5q-207 0 -334 127t-127 350q0 229 133 364t350 135q211 0 335.5 -123t124.5 -342z" />
    <glyph glyph-name="one" unicode="1" horiz-adv-x="641" 
d="M35 832l-5 42q201 30 402 66l9 -8q-12 -175 -12 -361v-244q0 -132 2 -213q1 -29 28 -36l159 -41l3 -40q-185 3 -283 3t-282 -3l-4 40l163 41q26 7 27 32q2 81 2 180v166q0 201 -4 356z" />
    <glyph glyph-name="two" unicode="2" horiz-adv-x="992" 
d="M868 317l44 8l-20 -321l-7 -7q-204 3 -427 3q-207 0 -381 -3l-7 82q94 61 169 113t130 97q55 44 97 84t70.5 79.5t43.5 80.5t15 86q0 92 -67 146t-164 54q-114 0 -230 -62l-38 66q187 127 375 127q141 0 234.5 -68.5t93.5 -190.5q0 -76 -34 -141.5t-99 -128.5
t-159 -127.5t-215 -136.5l1 -5h497z" />
    <glyph glyph-name="three" unicode="3" horiz-adv-x="935" 
d="M210 332q179 19 287 93t108 192q0 94 -70.5 153t-178.5 59q-141 0 -285 -75l-41 66q198 130 407 130q155 0 261 -74.5t106 -195.5q0 -222 -328 -332v-4q188 -7 293.5 -95t105.5 -216q0 -207 -220 -343t-634 -150l-11 74q329 22 492.5 127.5t163.5 263.5q0 124 -85 195
t-236 71q-59 0 -128 -12z" />
    <glyph glyph-name="four" unicode="4" horiz-adv-x="1087" 
d="M634 717q-113 -127 -226.5 -271t-223.5 -297h450v568zM819 -117q0 -140 5 -283q-96 -10 -182 -26l-10 8q2 140 2 285v183h-249q-137 0 -333 -3l-7 73q158 209 325.5 417.5t337.5 405.5l117 7q-6 -224 -6 -418v-383h229l4 -102q-110 3 -233 3v-167z" />
    <glyph glyph-name="five" unicode="5" horiz-adv-x="974" 
d="M132 344l58 584q125 -4 299 -4q201 0 377 4l6 -8l-25 -165l-577 14l-28 -282q85 14 160 14q229 0 365.5 -111t136.5 -305q0 -248 -228.5 -395.5t-575.5 -149.5l-10 74q273 10 444.5 124t171.5 307q0 149 -100.5 231t-282.5 82q-91 0 -185 -21z" />
    <glyph glyph-name="six" unicode="6" horiz-adv-x="1108" 
d="M965 1322q-309 -62 -463 -217.5t-199 -382.5l2 -1q121 132 314 132q179 0 301.5 -120t122.5 -305q0 -196 -134 -325t-333 -129q-220 0 -356 159t-136 410q0 308 212 545t655 305zM842 370q0 175 -81 284.5t-207 109.5q-115 0 -187 -81.5t-72 -221.5q0 -171 84 -293
t214 -122q113 0 181 93.5t68 230.5z" />
    <glyph glyph-name="seven" unicode="7" horiz-adv-x="990" 
d="M224 -403l585 1172h-639l-58 -198l-40 -7l-17 356l7 8q118 -2 230 -3t220 -1h56q108 0 207 1t191 3l4 -43q-52 -107 -104.5 -220t-103 -228.5t-98.5 -229t-90 -221t-77.5 -205.5t-61.5 -181l-206 -10z" />
    <glyph glyph-name="eight" unicode="8" horiz-adv-x="1099" 
d="M391 701q-144 75 -196.5 150t-52.5 175q0 150 123.5 247.5t307.5 97.5q166 0 274.5 -78t108.5 -202q0 -185 -263 -338q200 -97 271.5 -184.5t71.5 -208.5q0 -167 -147 -276.5t-351 -109.5q-205 0 -335 93.5t-130 248.5q0 233 318 385zM462 664q-205 -117 -205 -324
q0 -131 78.5 -208.5t215.5 -77.5q125 0 209.5 69.5t84.5 180.5q0 106 -77 182.5t-306 177.5zM619 791q159 115 159 270q0 111 -64 171.5t-169 60.5q-106 0 -173.5 -55t-67.5 -150t73 -158t242 -139z" />
    <glyph glyph-name="nine" unicode="9" horiz-adv-x="1119" 
d="M177 -389q251 45 416.5 191t233.5 405l-2 1q-117 -133 -304 -133t-311.5 119.5t-124.5 303.5q0 192 136 322t333 130q215 0 352.5 -156.5t137.5 -400.5q0 -335 -233.5 -569t-619.5 -284zM288 558q0 -178 81 -286t207 -108q125 0 191 80.5t66 224.5q0 175 -87 292
t-209 117q-108 0 -178.5 -86.5t-70.5 -233.5z" />
    <glyph glyph-name="colon" unicode=":" horiz-adv-x="524" 
d="M310 210q52 0 85.5 -32.5t33.5 -85.5t-33.5 -86.5t-85.5 -33.5q-55 0 -88 33.5t-33 86.5t33 85.5t88 32.5zM310 921q52 0 85.5 -32.5t33.5 -85.5t-33.5 -86.5t-85.5 -33.5q-55 0 -88 33.5t-33 86.5t33 85.5t88 32.5z" />
    <glyph glyph-name="semicolon" unicode=";" horiz-adv-x="524" 
d="M141 -279q142 116 142 227q0 97 -102 156q0 57 33.5 90.5t87.5 33.5q59 0 95.5 -45.5t36.5 -115.5q0 -108 -63.5 -204t-191.5 -186zM310 921q52 0 85.5 -32.5t33.5 -85.5t-33.5 -86.5t-85.5 -33.5q-55 0 -88 33.5t-33 86.5t33 85.5t88 32.5z" />
    <glyph glyph-name="less" unicode="&#x3c;" 
d="M93 522l944 400v-127l-799 -334l799 -333v-127l-944 400v121z" />
    <glyph glyph-name="equal" unicode="=" 
d="M93 692h944v-121h-944v121zM93 352h944v-121h-944v121z" />
    <glyph glyph-name="greater" unicode="&#x3e;" 
d="M1037 401l-944 -400v127l799 333l-799 334v127l944 -400v-121z" />
    <glyph glyph-name="question" unicode="?" horiz-adv-x="890" 
d="M452 210q52 0 85.5 -32t33.5 -86t-33.5 -87t-85.5 -33q-55 0 -88 33t-33 87t33 86t88 32zM456 388q-59 53 -110 121.5t-51 99.5q0 28 14.5 57t38 59t53.5 60.5t62 62.5q34 33 66.5 67t58 68.5t41 68.5t15.5 69q0 85 -56.5 135t-151.5 50q-66 0 -132 -28l-66 -229l-39 -6
l-59 280q168 65 320 65q166 0 263 -74t97 -213q0 -54 -17.5 -100.5t-46 -87.5t-63.5 -77.5t-71 -70.5q-31 -29 -59.5 -57t-51 -55.5t-35.5 -57t-13 -59.5q0 -55 37 -120z" />
    <glyph glyph-name="at" unicode="@" horiz-adv-x="1727" 
d="M1263 859q-30 -100 -70 -297l-63 -309q-6 -29 -6 -48q0 -36 17 -51.5t50 -15.5q120 0 218 139.5t98 312.5q0 247 -159.5 398t-398.5 151q-309 0 -499.5 -205t-190.5 -528q0 -296 181.5 -480.5t478.5 -184.5q346 0 611 249l43 -48q-302 -303 -705 -303q-340 0 -549 206
t-209 533q0 361 236.5 597.5t605.5 236.5q280 0 470 -171t190 -441q0 -215 -149 -387t-335 -172q-74 0 -117 37t-46 108q-92 -74 -149.5 -108.5t-92.5 -34.5q-111 0 -176.5 82.5t-65.5 209.5q0 225 138 380t348 155q79 0 184 -32q47 9 100 28zM1077 766q-63 33 -124 33
q-127 0 -215 -131.5t-88 -291.5q0 -92 33.5 -153t96.5 -61q56 0 192 95z" />
    <glyph glyph-name="A" unicode="A" horiz-adv-x="1381" 
d="M754 1421l444 -1223q25 -69 45.5 -93.5t58.5 -36.5l94 -28l2 -43q-131 3 -243 3q-114 0 -269 -3l-4 43l95 28q20 7 28.5 15.5t8.5 26.5q0 20 -10.5 52.5t-29.5 86.5l-94 268h-482l-105 -267q-21 -56 -33 -89t-12 -52q0 -17 9.5 -25.5t28.5 -14.5l93 -27l2 -45
q-142 3 -232 3t-201 -3l-5 43l101 31q38 12 56 37t40 78l511 1220zM435 608h412l-195 551z" />
    <glyph glyph-name="B" unicode="B" horiz-adv-x="1223" 
d="M98 1400q129 -4 251 -4q46 2 149 6t139 4q216 0 326.5 -81.5t110.5 -234.5q0 -246 -265 -335q155 -26 243.5 -115t88.5 -227q0 -200 -145 -309.5t-402 -109.5q-51 0 -110.5 3t-133.5 3q-121 0 -248 -3l-4 43l123 37q25 7 27 31q1 40 1.5 89.5t0.5 109.5v811q0 51 -0.5 92
t-1.5 74q-1 26 -24 34l-124 39zM444 696v-607q30 -11 69.5 -14t72.5 -3q166 0 252.5 82t86.5 238t-87.5 231.5t-282.5 75.5q-57 0 -111 -3zM444 776q62 -1 126 -1q148 0 223.5 71.5t75.5 207.5q0 143 -77.5 205.5t-223.5 62.5q-26 0 -57 -1.5t-67 -5.5v-539z" />
    <glyph glyph-name="C" unicode="C" horiz-adv-x="1334" 
d="M1178 1051l-40 -6l-73 263q-124 31 -225 31q-245 0 -385 -171t-140 -444q0 -292 160 -466t443 -174q159 0 335 61l11 -45q-197 -136 -446 -136q-323 0 -521 197t-198 519q0 343 218 543t570 200q169 0 346 -41l7 -8z" />
    <glyph glyph-name="D" unicode="D" horiz-adv-x="1538" 
d="M350 0q-121 0 -248 -3l-4 43l123 37q26 8 27 31q1 40 1.5 89.5t0.5 109.5v811q0 51 -0.5 92t-1.5 74q-1 26 -24 34l-124 39l-2 43q129 -4 251 -4q100 0 193 5t191 5q350 0 526 -159.5t176 -473.5q0 -370 -195.5 -574.5t-548.5 -204.5q-97 0 -173 3t-168 3zM446 89
q59 -8 115.5 -10.5t113.5 -2.5q264 0 402 155.5t138 476.5q0 312 -131 462.5t-415 150.5q-45 0 -99.5 -2t-123.5 -7v-1223z" />
    <glyph glyph-name="E" unicode="E" horiz-adv-x="1189" 
d="M346 1396h243q224 0 473 4l6 -8l-58 -309l-40 -7l-62 231h-462v-550h91q104 0 232 2q26 1 34 26l35 135l54 2q-3 -140 -3 -207q0 -65 3 -204l-54 -4l-36 137q-8 26 -31 27q-130 2 -235 2h-90v-364q0 -111 2 -219h480l122 254l45 8l-22 -348l-7 -7q-259 3 -478 3h-238
q-121 0 -248 -3l-4 43l123 37q25 7 27 31q1 40 1.5 89.5t0.5 109.5v811q0 51 -0.5 92t-1.5 74q-1 26 -24 34l-124 39l-2 43q129 -4 248 -4z" />
    <glyph glyph-name="F" unicode="F" horiz-adv-x="1104" 
d="M446 307q0 -118 2 -194q1 -24 26 -31l138 -42l2 -43q-145 3 -264 3t-248 -3l-4 43l123 37q26 8 27 31q2 81 2 199v811q0 51 -0.5 92t-1.5 74q-1 26 -24 34l-124 39l-2 43q129 -4 248 -4h243q224 0 473 4l6 -8l-58 -309l-40 -7l-62 231h-462v-571h96q104 0 232 2
q27 1 34 26l41 135l48 2q-3 -140 -3 -207q0 -65 3 -204l-48 -4l-42 137q-8 26 -30 27q-131 2 -236 2h-95v-345z" />
    <glyph glyph-name="G" unicode="G" horiz-adv-x="1435" 
d="M1183 1051l-40 -6l-69 262q-122 32 -229 32q-250 0 -390 -169.5t-140 -467.5q0 -301 153 -478.5t412 -177.5q87 0 171 22v267q0 50 -0.5 91t-1.5 75q-1 26 -24 33l-124 39l-2 43q129 -3 247 -3q120 0 232 3l5 -43l-109 -32q-24 -8 -26 -31q-1 -40 -1.5 -81.5t-0.5 -89.5
v-320l-6 -7q-204 -49 -375 -49q-351 0 -558.5 186t-207.5 519q0 354 214.5 554.5t587.5 200.5q161 0 338 -41l6 -8z" />
    <glyph glyph-name="H" unicode="H" horiz-adv-x="1620" 
d="M446 692v-385q0 -118 2 -198q1 -27 26 -34l111 -35l3 -43q-119 3 -238 3t-248 -3l-4 43l123 37q26 8 27 31q2 81 2 199v811q0 100 -2 166q-1 26 -24 34l-124 39l-2 43q129 -4 248 -4q120 0 237 4l5 -43l-114 -35q-25 -6 -26 -31q-2 -72 -2 -169v-339h728v339q0 97 -2 169
q-1 25 -26 31l-111 35l-2 43q122 -4 241 -4t244 4l4 -43l-126 -39q-23 -8 -24 -34q-2 -66 -2 -166v-811q0 -118 2 -199q1 -23 27 -31l121 -37l2 -43q-132 3 -252 3q-119 0 -233 -3l-4 43l113 35q25 7 26 34q2 80 2 198v385h-728z" />
    <glyph glyph-name="I" unicode="I" horiz-adv-x="696" 
d="M446 307q0 -60 0.5 -109t1.5 -89q1 -25 35 -34l113 -35l2 -43q-129 3 -248 3q-121 0 -248 -3l-4 43l123 37q25 7 27 31q1 40 1.5 89.5t0.5 109.5v811q0 51 -0.5 92t-1.5 74q-1 26 -24 34l-124 39l-2 43q129 -4 248 -4q120 0 248 4l4 -43l-124 -37q-24 -6 -26 -31
q-1 -35 -1.5 -76.5t-0.5 -90.5v-815z" />
    <glyph glyph-name="J" unicode="J" horiz-adv-x="640" 
d="M83 1400q129 -4 248 -4t247 4l5 -43l-124 -37q-25 -6 -27 -31q-1 -35 -1.5 -76.5t-0.5 -90.5v-906q0 -98 -7.5 -178.5t-26.5 -143.5t-53.5 -112.5t-87.5 -88t-128 -67.5t-178 -53l-15 50q104 44 163.5 97t90 121t39 153t8.5 192v932q0 51 -0.5 92t-1.5 74q-1 26 -24 34
l-124 39z" />
    <glyph glyph-name="K" unicode="K" horiz-adv-x="1350" 
d="M446 1122v-815q0 -60 0.5 -109t1.5 -89q1 -26 26 -34l111 -35l3 -43q-119 3 -238 3q-121 0 -248 -3l-4 43l123 37q26 8 27 31q1 40 1.5 89.5t0.5 109.5v811q0 51 -0.5 92t-1.5 74q-1 26 -24 34l-124 39l-2 43q129 -4 248 -4t237 4l5 -43l-114 -35q-24 -6 -26 -31
q-1 -36 -1.5 -78t-0.5 -91zM472 708l403 449q47 53 76 89.5t29 58.5q0 20 -27 27l-82 22l-2 46q99 -4 221 -4q117 0 220 4l4 -43l-101 -32q-46 -15 -79.5 -46t-71.5 -73l-400 -440l455 -600q29 -38 57 -61.5t73 -36.5l91 -28l2 -43q-84 3 -213 3q-34 0 -69 -0.5t-70 -1.5
q-35 72 -185 271z" />
    <glyph glyph-name="L" unicode="L" horiz-adv-x="1138" 
d="M446 1122v-813q0 -111 2 -219h487l128 265l45 7l-22 -358l-6 -7q-259 3 -479 3h-251q-121 0 -248 -3l-4 43l123 37q25 7 27 31q1 40 1.5 89.5t0.5 109.5v811q0 51 -0.5 92t-1.5 74q-1 26 -24 34l-124 39l-2 43q129 -4 248 -4q120 0 248 4l4 -43l-124 -37q-24 -6 -26 -31
q-1 -35 -1.5 -102t-0.5 -65z" />
    <glyph glyph-name="M" unicode="M" horiz-adv-x="1854" 
d="M1383 1400q94 -4 170 -4q74 0 199 4l4 -43l-126 -39q-23 -8 -24 -34q-2 -66 -2 -166v-811q0 -118 2 -199q1 -23 28 -31l120 -37l2 -43q-132 3 -252 3q-118 0 -233 -3l-4 43l115 35q24 7 25 35q2 79 2 197v866l-496 -1173l-73 -8l-499 1181v-866q0 -118 2 -197
q1 -28 26 -35l112 -35l2 -43q-119 3 -199 3q-78 0 -207 -3l-4 43l123 37q26 8 27 31q2 81 2 199v811q0 100 -2 166q-1 26 -24 34l-124 39l-2 43q129 -4 204 -4q86 0 179 4l464 -1097z" />
    <glyph glyph-name="N" unicode="N" horiz-adv-x="1534" 
d="M341 1115v-808q0 -118 2 -196q1 -28 25 -34l119 -35l2 -45q-125 3 -205 3q-78 0 -207 -3l-4 43l123 37q26 8 27 31q2 81 2 199v811q0 100 -2 166q-1 26 -24 34l-124 39l-2 43q129 -4 204 -4q45 0 91 4l840 -1049v771q0 97 -2 167q-1 23 -26 31l-118 34l-2 46
q128 -4 207 -4q80 0 205 4l4 -43l-126 -39q-23 -8 -24 -34q-2 -66 -2 -166v-1118l-84 -8z" />
    <glyph glyph-name="O" unicode="O" horiz-adv-x="1647" 
d="M319 717q0 -326 132 -499.5t387 -173.5q251 0 370.5 157.5t119.5 494.5q0 316 -127 486t-392 170q-257 0 -373.5 -157.5t-116.5 -477.5zM1548 730q0 -346 -196.5 -556.5t-549.5 -210.5q-335 0 -518.5 194.5t-183.5 526.5q0 346 197.5 547.5t547.5 201.5
q336 0 519.5 -188.5t183.5 -514.5z" />
    <glyph glyph-name="P" unicode="P" horiz-adv-x="1191" 
d="M446 676q70 -12 138 -12q160 0 243.5 82.5t83.5 252.5q0 163 -79.5 243t-250.5 80q-67 0 -135 -8v-638zM446 307q0 -60 0.5 -108t1.5 -86q1 -23 26 -31l138 -42l2 -43q-145 3 -264 3q-121 0 -248 -3l-4 43l123 37q26 8 27 31q1 40 1.5 89.5t0.5 109.5v811q0 51 -0.5 92
t-1.5 74q-1 26 -24 34l-124 39l-2 43q129 -4 251 -4q82 0 158.5 4t139.5 4q235 0 355.5 -92.5t120.5 -275.5q0 -215 -139 -334t-390 -119q-69 0 -148 9v-285z" />
    <glyph glyph-name="Q" unicode="Q" horiz-adv-x="1647" 
d="M1548 730q0 -326 -170 -526.5t-446 -231.5q82 -232 418 -232q137 0 244 42l11 -45q-207 -165 -326 -165q-378 0 -483 391q-330 1 -513 194.5t-183 526.5q0 345 197.5 547t547.5 202q336 0 519.5 -188t183.5 -515zM319 717q0 -326 132 -499.5t387 -173.5
q251 0 370.5 157.5t119.5 494.5q0 316 -127 486t-392 170q-257 0 -373.5 -157.5t-116.5 -477.5z" />
    <glyph glyph-name="R" unicode="R" horiz-adv-x="1293" 
d="M446 307q0 -60 0.5 -108t1.5 -87q1 -31 26 -39l111 -33l3 -43q-119 3 -238 3q-121 0 -248 -3l-4 43l123 37q25 7 27 31q1 40 1.5 89.5t0.5 109.5v811q0 51 -0.5 92t-1.5 74q-1 26 -24 34l-124 39l-2 43q129 -4 251 -4q24 0 61 1.5t90 3.5q54 2 90 3t57 1q228 0 342 -86
t114 -251q0 -149 -78 -241.5t-238 -142.5q63 -96 116 -185.5t98.5 -164t83.5 -131.5t71 -90q17 -17 34 -29.5t35.5 -20.5t39 -14t45.5 -12l3 -44q-72 -9 -121 -9q-41 0 -72 2t-55 8t-43.5 15.5t-38.5 24.5q-41 31 -80.5 89.5t-82 132.5t-88.5 157.5t-97 163.5
q-15 24 -25.5 38t-23 22t-29 11t-42.5 4l-69 2v-347zM446 729q61 -3 113 -3q173 0 253.5 73.5t80.5 230.5q0 152 -77 222t-241 70q-28 0 -60 -2t-69 -6v-585z" />
    <glyph glyph-name="S" unicode="S" horiz-adv-x="1044" 
d="M760 1309q-105 35 -193 35q-132 0 -210.5 -64t-78.5 -178q0 -65 27.5 -114t74 -86t105.5 -66t122 -57q69 -30 134 -63.5t117.5 -78.5t84 -108t31.5 -147q0 -199 -139.5 -304t-386.5 -105q-159 0 -352 54l-6 8l49 340l45 7l70 -284q106 -42 217 -42q149 0 232.5 66
t83.5 188q0 64 -27 112.5t-72.5 83.5t-103.5 63.5t-120 56.5q-70 30 -136 65t-119.5 81.5t-85.5 114t-32 157.5q0 181 135.5 280t359.5 99q158 0 331 -37l7 -7l-59 -312l-40 -7z" />
    <glyph glyph-name="T" unicode="T" horiz-adv-x="1256" 
d="M630 0q-123 0 -272 -3l-4 43l148 44q25 7 26 31q2 76 2 194v998h-353l-89 -266l-40 -7l-26 358l7 8q246 -4 471 -4h267q224 0 473 4l6 -8l-63 -351l-40 -7l-64 273h-353v-998q0 -118 2 -194q1 -24 26 -31l148 -44l2 -43q-155 3 -274 3z" />
    <glyph glyph-name="U" unicode="U" horiz-adv-x="1523" 
d="M63 1400q129 -4 248 -4q120 0 248 4l4 -43l-124 -37q-24 -6 -26 -31q-1 -35 -1.5 -76.5t-0.5 -90.5v-547q0 -286 91 -396.5t293 -110.5q205 0 297 114t92 381v559q0 49 -0.5 90.5t-2.5 76.5q-1 23 -26 31l-117 34l-2 46q127 -4 218 -4q87 0 212 4l4 -43l-126 -39
q-23 -8 -24 -34q-1 -33 -1.5 -74t-0.5 -92v-513q0 -328 -133.5 -485t-420.5 -157q-281 0 -415 141.5t-134 439.5v574q0 51 -0.5 92t-1.5 74q-1 26 -24 34l-124 39z" />
    <glyph glyph-name="V" unicode="V" horiz-adv-x="1374" 
d="M627 -8l-446 1206q-24 66 -44.5 92.5t-61.5 38.5l-91 28l-2 43q99 -4 232 -4q135 0 279 4l4 -43l-94 -27q-20 -5 -29 -14.5t-9 -27.5q0 -20 10.5 -53.5t29.5 -86.5l323 -900l351 899q21 55 33 88.5t12 53.5q0 18 -9.5 26.5t-28.5 13.5l-93 25l-2 46q109 -4 220 -4t213 4
l4 -43l-101 -32q-35 -10 -53 -33.5t-48 -93.5l-499 -1198z" />
    <glyph glyph-name="W" unicode="W" horiz-adv-x="2088" 
d="M1400 -8l-351 1065l-367 -1057l-101 -8l-400 1228q-16 47 -36.5 72.5t-57.5 36.5l-91 28l-2 43q98 -4 232 -4q121 0 274 4l4 -43l-94 -27q-21 -5 -30 -15t-9 -29q0 -20 9.5 -52.5t25.5 -85.5l271 -859l371 1109l90 7l361 -1126l282 868q18 57 28 91t10 52t-9 26t-29 13
l-94 25l-2 46q108 -4 219 -4q108 0 210 4l4 -43l-101 -32q-30 -9 -47.5 -28t-34.5 -66l-434 -1231z" />
    <glyph glyph-name="X" unicode="X" horiz-adv-x="1346" 
d="M19 1400q110 -4 261 -4q131 0 274 4l4 -43l-90 -25q-21 -5 -30 -15t-9 -24q0 -25 19 -57t42 -65l217 -325l182 289q15 23 48 75.5t33 79.5q0 30 -40 40l-89 24l-2 46q109 -4 228 -4q118 0 220 4l4 -43l-101 -32q-36 -11 -61.5 -36t-63.5 -83l-299 -447l389 -578
q45 -68 66.5 -86t53.5 -28l92 -27l2 -43q-108 3 -249 3q-131 0 -287 -3l-4 43l90 24q21 5 30 15t9 25q0 24 -19 56t-42 66l-271 403l-231 -368q-29 -46 -53.5 -87t-24.5 -68q0 -15 8.5 -25t29.5 -15l89 -24l2 -45q-109 3 -229 3q-107 0 -219 -3l-5 43l101 31q38 12 61.5 36
t56.5 71l357 536l-345 514q-32 49 -52.5 69.5t-59.5 31.5l-91 28z" />
    <glyph glyph-name="Y" unicode="Y" horiz-adv-x="1215" 
d="M668 712l231 437q25 48 42 82t17 56q0 31 -44 43l-90 24l-2 46q108 -4 221 -4q109 0 212 4l4 -43l-101 -32q-36 -11 -55.5 -35t-39.5 -59l-346 -617v-304q0 -60 0.5 -109t1.5 -89q1 -25 35 -34l124 -38l2 -43q-140 3 -258 3q-121 0 -259 -3l-4 43l134 40q25 7 27 31
q1 40 1.5 89.5t0.5 109.5v283l-352 610q-37 61 -60.5 88t-62.5 38l-91 28l-2 43q91 -4 246 -4q135 0 279 4l4 -43l-94 -26q-21 -5 -30 -14.5t-9 -23.5q0 -21 15.5 -51.5t38.5 -70.5z" />
    <glyph glyph-name="Z" unicode="Z" horiz-adv-x="1182" 
d="M72 -3l-4 43l771 1267h-590l-74 -240l-40 -7l-52 332l7 8q249 -4 473 -4h236q142 0 286 4l4 -43l-769 -1267h609l134 270l45 7l-27 -363l-6 -7q-281 3 -500 3h-241q-140 0 -262 -3z" />
    <glyph glyph-name="bracketleft" unicode="[" horiz-adv-x="707" 
d="M368 -256l247 -57l2 -43h-397v1905h395l2 -43l-249 -57v-1705z" />
    <glyph glyph-name="backslash" unicode="\" horiz-adv-x="825" 
d="M595 -226l-505 1652h120l505 -1652h-120z" />
    <glyph glyph-name="bracketright" unicode="]" horiz-adv-x="707" 
d="M339 1449l-247 57l-2 43h397v-1905h-395l-2 43l249 57v1705z" />
    <glyph glyph-name="asciicircum" unicode="^" 
d="M626 1396l390 -814h-129l-324 679l-323 -679h-125l390 814h121z" />
    <glyph glyph-name="underscore" unicode="_" horiz-adv-x="1024" 
d="M1024 -268h-1024v90h1024v-90z" />
    <glyph glyph-name="grave" unicode="`" horiz-adv-x="840" 
d="M478 1044h-69l-237 373h200zM0 927z" />
    <glyph glyph-name="a" unicode="a" horiz-adv-x="983" 
d="M617 453q-219 0 -299 -43t-80 -145q0 -95 53 -134.5t144 -39.5q103 0 180 35zM132 865q195 85 345 85q153 0 238.5 -80t84.5 -231l-5 -416q-1 -51 2.5 -82t18 -47.5t43.5 -23t78 -7.5l5 -39q-43 -17 -105 -34t-84 -17q-97 0 -133 100q-140 -101 -264 -101
q-139 0 -223.5 68.5t-84.5 193.5q0 154 137.5 227t431.5 73l1 78q1 112 -57 166t-178 54q-91 0 -228 -34z" />
    <glyph glyph-name="b" unicode="b" horiz-adv-x="1141" 
d="M360 85q81 -26 164 -26q168 0 252.5 103t84.5 295q0 176 -78 274t-231 98q-98 0 -192 -44v-700zM366 1499q-6 -150 -6 -451v-203q161 105 295 105q188 0 297 -126t109 -329q0 -247 -140.5 -384.5t-389.5 -137.5q-166 0 -358 57q2 127 2 327v593q0 221 -4 413l-135 40
l-5 33q164 31 325 71z" />
    <glyph glyph-name="c" unicode="c" horiz-adv-x="945" 
d="M880 71q-62 -42 -153.5 -70.5t-181.5 -28.5q-216 0 -342 126.5t-126 337.5q0 229 143 371.5t370 142.5q147 0 285 -60q-33 -134 -59 -274l-39 -6l-81 240q-46 16 -104 16q-149 0 -233 -104t-84 -275q0 -201 95 -297t301 -96q95 0 203 19z" />
    <glyph glyph-name="d" unicode="d" horiz-adv-x="1162" 
d="M777 840q-67 21 -150 21q-172 0 -262 -97.5t-90 -295.5q0 -171 80 -273.5t226 -102.5q94 0 196 52v696zM633 1436q178 34 326 71l9 -8q-6 -214 -6 -460v-544q0 -138 1 -273q0 -51 3.5 -82t17.5 -47.5t41.5 -22.5t77.5 -7l5 -39q-44 -17 -105.5 -34t-83.5 -17
q-101 0 -136 114q-155 -115 -301 -115q-185 0 -295.5 131.5t-110.5 323.5q0 248 147 384t411 136q64 0 143 -14q0 221 -4 430l-135 40z" />
    <glyph glyph-name="e" unicode="e" horiz-adv-x="981" 
d="M902 71q-85 -53 -175 -76t-167 -23q-220 0 -351 125.5t-131 348.5q0 222 125.5 363t335.5 141q176 0 274 -105.5t98 -291.5q0 -28 -3 -57h-634q0 -215 101 -307.5t316 -92.5q96 0 205 18zM712 579v30q0 142 -45.5 203t-135.5 61q-119 0 -182 -86t-71 -208h434z" />
    <glyph glyph-name="f" unicode="f" horiz-adv-x="634" 
d="M385 818v-543q0 -94 2 -165q2 -27 26 -34l127 -38l3 -41q-151 3 -248 3q-99 0 -233 -3l-5 41l112 32q28 9 29 33q2 62 2 131v589l-136 34l-7 42l144 12v4q0 282 122.5 437t328.5 155q101 0 195 -25q-34 -122 -58 -251l-42 -8l-65 200q-23 3 -58 3q-115 0 -177 -103
t-62 -377v-33h249v-95h-249z" />
    <glyph glyph-name="g" unicode="g" horiz-adv-x="1040" 
d="M287 621q0 -130 52.5 -201t152.5 -71q96 0 144.5 66.5t48.5 194.5q0 123 -51.5 194t-153.5 71q-96 0 -144.5 -65t-48.5 -189zM275 -44q-68 -98 -68 -184q0 -88 70.5 -137t192.5 -49q145 0 252.5 64.5t107.5 180.5q0 59 -53 93.5t-201 34.5q-53 0 -114.5 -3t-119.5 -3
q-32 0 -67 3zM796 824q75 -83 75 -198q0 -161 -112 -256.5t-281 -95.5q-96 0 -172 30q-54 -87 -54 -137q0 -27 27.5 -36.5t101.5 -9.5q56 0 131 3t140 3q159 0 251.5 -60.5t92.5 -179.5q0 -180 -169.5 -284t-385.5 -104q-177 0 -282.5 59.5t-105.5 154.5q0 125 163 254
q-103 40 -103 108q0 91 143 254q-156 95 -156 275q0 156 110.5 251t285.5 95q46 0 125 -12q75 -14 117 -14q151 0 278 3l5 -41z" />
    <glyph glyph-name="h" unicode="h" horiz-adv-x="1187" 
d="M51 1436q163 32 326 71l9 -8q-5 -94 -5.5 -268t-0.5 -393q174 112 324 112q139 0 221 -77.5t82 -227.5v-353q0 -115 2 -185q1 -26 25 -35l112 -34l2 -41q-132 3 -230 3t-218 -3l-4 41l99 29q24 8 26 31q1 14 1 63v436q0 123 -59 176.5t-174 53.5q-99 0 -209 -48v-449
q0 -124 2 -227q1 -28 25 -35l104 -30l2 -41q-126 3 -224 3t-232 -3l-4 41l113 33q26 8 27 32q2 96 2 245v418q0 204 -0.5 361t-3.5 236l-135 40z" />
    <glyph glyph-name="i" unicode="i" horiz-adv-x="580" 
d="M396 1304q0 -53 -33 -86.5t-85 -33.5q-50 0 -81.5 31t-31.5 82q0 54 33 85.5t87 31.5q49 0 80 -28.5t31 -81.5zM58 880q175 33 324 70l9 -7q-6 -130 -6 -286v-384q0 -120 2 -166q2 -27 25 -35l116 -34l2 -41q-138 3 -236 3t-233 -3l-4 41l116 34q23 8 25 31q2 39 2 131
v334q0 131 -4 242l-133 36z" />
    <glyph glyph-name="j" unicode="j" horiz-adv-x="543" 
d="M44 880q172 33 321 70l9 -7q-6 -130 -6 -286v-568q0 -197 -75.5 -310.5t-265.5 -281.5l-46 41q148 195 176 288t28 237v505q0 121 -4 242l-132 36zM374 1304q0 -53 -33 -86.5t-85 -33.5q-50 0 -81.5 31t-31.5 82q0 54 33.5 85.5t86.5 31.5q50 0 80.5 -28.5t30.5 -81.5z
" />
    <glyph glyph-name="k" unicode="k" horiz-adv-x="1095" 
d="M1105 -3q-134 3 -199 3q-43 0 -114 -2q-37 61 -88 131q-138 193 -297 377l361 350l-111 31l-4 40q129 -3 190 -3q55 0 209 3l4 -41q-101 -26 -145 -45.5t-103 -74.5l-214 -198l322 -402q54 -67 84.5 -89t102.5 -39zM56 1403l-5 33q177 34 326 71l9 -8q-6 -146 -6 -453
v-654q0 -148 2 -290q2 -29 26 -35l97 -29l2 -41q-120 3 -218 3t-232 -3l-4 41l118 35q20 7 22 30q2 113 2 252v411q0 519 -4 597z" />
    <glyph glyph-name="l" unicode="l" horiz-adv-x="575" 
d="M56 1403l-5 33q177 34 326 71l9 -8q-6 -163 -6 -453v-651q0 -179 2 -288q3 -29 28 -36l109 -33l3 -41q-135 3 -233 3t-232 -3l-4 41l113 33q25 8 27 32q2 113 2 252v411q0 372 -4 597z" />
    <glyph glyph-name="m" unicode="m" horiz-adv-x="1774" 
d="M976 755q14 -48 14 -108v-357q0 -117 2 -188q2 -27 26 -35l101 -29l2 -41q-122 3 -220 3t-218 -3l-4 41l95 28q29 10 30 32q1 14 1 63v436q0 123 -56 176.5t-166 53.5q-97 0 -198 -58v-437q0 -125 2 -229q1 -30 21 -34l106 -31l2 -41q-124 3 -222 3t-232 -3l-4 41l115 34
q25 7 26 31q1 53 1 123v341q0 131 -4 243l-133 36l-5 34q165 32 316 70l10 -7v-116q164 123 311 123q180 0 260 -139q158 139 343 139q139 0 217.5 -78.5t78.5 -224.5v-354q0 -126 2 -186q2 -27 27 -35l111 -34l2 -41q-132 3 -230 3q-99 0 -218 -3l-4 41l99 29q23 8 26 31
q1 14 1 63v436q0 123 -57 176.5t-168 53.5q-112 0 -209 -72z" />
    <glyph glyph-name="n" unicode="n" horiz-adv-x="1192" 
d="M58 880q168 32 317 70l10 -7v-116q174 123 324 123q142 0 222.5 -79.5t80.5 -225.5v-353q0 -125 2 -185q1 -27 26 -35l111 -34l2 -41q-132 3 -230 3t-218 -3l-4 41l100 29q23 8 25 31q1 14 1 63v436q0 123 -59 176.5t-174 53.5q-101 0 -209 -58v-437q0 -125 2 -229
q1 -27 23 -34l104 -31l2 -41q-124 3 -222 3t-232 -3l-4 41l118 34q22 9 23 31q1 64 1 123v341q0 131 -4 243l-133 36z" />
    <glyph glyph-name="o" unicode="o" horiz-adv-x="1107" 
d="M281 472q0 -187 70 -304.5t208 -117.5q129 0 196.5 103.5t67.5 306.5q0 191 -71 301t-206 110q-128 0 -196.5 -99t-68.5 -300zM1027 481q0 -228 -137.5 -368.5t-349.5 -140.5q-207 0 -334.5 132.5t-127.5 346.5q0 220 133.5 359.5t353.5 139.5q208 0 335 -128.5
t127 -340.5z" />
    <glyph glyph-name="p" unicode="p" horiz-adv-x="1146" 
d="M43 846l-5 34q168 32 317 70l10 -7v-98q153 105 296 105q186 0 295.5 -124.5t109.5 -323.5q0 -245 -141 -387.5t-400 -142.5q-77 0 -160 15v-219q0 -100 2 -140q2 -30 27 -36l131 -37l3 -41q-156 3 -254 3t-232 -3l-4 41l115 34q24 7 25 31q2 73 2 221v407q0 443 -4 560z
M365 77q87 -19 168 -19q166 0 250 104t84 298q0 183 -80 276t-230 93q-108 0 -192 -44v-708z" />
    <glyph glyph-name="q" unicode="q" horiz-adv-x="1133" 
d="M778 844q-80 20 -155 20q-176 0 -262 -104.5t-86 -292.5q0 -173 78.5 -274t228.5 -101q104 0 196 35v717zM969 943q-6 -191 -6 -456v-658q0 -165 1 -205q1 -27 23 -34l115 -35l2 -41q-135 3 -232 3q-99 0 -232 -3l-5 41l115 34q25 8 26 31q2 121 2 303v143
q-152 -94 -296 -94q-184 0 -295 129.5t-111 325.5q0 241 142.5 382t395.5 141q104 0 245 -24q48 11 101 24z" />
    <glyph glyph-name="r" unicode="r" horiz-adv-x="785" 
d="M58 880q167 32 317 70l10 -7v-117q185 124 363 124l5 -6q-29 -149 -57 -309l-40 -7q-28 85 -54 136.5t-82 51.5q-54 0 -135 -50v-433q0 -156 2 -223q1 -27 25 -34l133 -38l3 -41q-156 3 -254 3t-232 -3l-4 41l116 34q24 8 25 31q1 43 1 123v341q0 163 -4 243l-133 36z
" />
    <glyph glyph-name="s" unicode="s" horiz-adv-x="829" 
d="M571 849q-58 16 -126 16q-92 0 -149 -36.5t-57 -99.5q0 -61 36.5 -95t137.5 -68l84 -28q137 -47 202 -108t65 -159q0 -139 -109 -219t-274 -80q-152 0 -311 62q34 130 55 254l39 6l72 -215q57 -22 145 -22q91 0 146 38t55 107q0 65 -36.5 100.5t-117.5 62.5l-104 35
q-135 45 -187.5 108.5t-52.5 158.5q0 131 100.5 207t263.5 76q152 0 276 -44q-28 -114 -51 -241l-38 -7z" />
    <glyph glyph-name="t" unicode="t" horiz-adv-x="723" 
d="M358 818q-6 -338 -6 -545q0 -104 31 -143.5t118 -39.5q69 0 180 18l6 -45q-173 -87 -309 -87q-109 0 -162 58.5t-53 176.5q0 194 7 613l-138 34l-6 41l154 13l69 242q56 15 102 29l10 -7q-3 -121 -3 -226v-37h301v-95h-301z" />
    <glyph glyph-name="u" unicode="u" horiz-adv-x="1166" 
d="M796 88q-156 -116 -312 -116q-157 0 -235.5 80t-78.5 225v212q0 214 -4 321l-133 36l-5 34q175 32 324 70l9 -7q-6 -117 -6 -301v-318q0 -121 57 -175.5t161 -54.5t213 55v426q0 140 -4 235l-132 36l-5 34q174 32 323 70l9 -7q-6 -120 -6 -307q0 -363 2 -443q1 -41 6 -66
t19 -38.5t41.5 -19t73.5 -6.5l5 -39q-46 -18 -106 -34.5t-82 -16.5q-101 0 -134 115z" />
    <glyph glyph-name="v" unicode="v" horiz-adv-x="989" 
d="M-31 927q126 -3 224 -3q90 0 216 3l4 -41l-116 -32q82 -233 190 -495q28 -69 50 -132q22 63 51 131q91 224 191 496l-114 32l-4 41q81 -3 169 -3q90 0 174 3l4 -41l-100 -29q-23 -8 -39 -39q-79 -183 -183.5 -435.5t-157.5 -389.5l-85 -9q-55 145 -158.5 397t-177.5 432
q-16 35 -44 45l-92 28z" />
    <glyph glyph-name="w" unicode="w" horiz-adv-x="1499" 
d="M-17 927q143 -3 212 -3q99 0 224 3l4 -41l-118 -32q67 -223 169 -502q22 -59 41 -121q19 61 41 120q80 214 121 334t79 235l73 8q38 -121 78 -242t115 -334q24 -64 40 -121q19 58 43 120q111 281 184 504l-113 32l-4 41q80 -3 170 -3q89 0 162 3l5 -41l-80 -22
q-34 -10 -50 -48q-94 -227 -167 -409.5t-158 -409.5l-90 -9q-61 176 -101.5 286.5t-87.5 240.5q-20 53 -34 102q-16 -48 -36 -99q-51 -133 -94.5 -245t-101.5 -276l-88 -9q-85 236 -155 418t-158 411q-14 37 -51 47l-72 21z" />
    <glyph glyph-name="x" unicode="x" horiz-adv-x="984" 
d="M27 927q127 -3 227 -3q75 0 189 3l4 -41l-89 -23q64 -109 172 -283q107 158 187 281l-85 25l-5 41q84 -3 149 -3q89 0 165 3l5 -41l-95 -26q-26 -7 -48 -37q-105 -139 -227 -318q131 -211 256 -400q19 -29 52 -40l87 -27l4 -41q-126 3 -226 3q-75 0 -189 -3l-4 41l87 23
q-79 125 -190 304q-110 -161 -201 -302l85 -25l4 -41q-82 3 -146 3q-89 0 -178 -3l-4 41l97 26q32 9 59 44q110 147 237 334q-127 206 -234 374q-20 31 -54 43l-87 27z" />
    <glyph glyph-name="y" unicode="y" horiz-adv-x="986" 
d="M-35 927q126 -3 224 -3q67 0 214 3l4 -41l-117 -32q37 -105 86 -231.5t104 -263.5q23 -57 50 -131q28 75 60 153q47 116 91 228.5t91 244.5l-114 32l-4 41q74 -3 173 -3q89 0 173 3l5 -41l-93 -26q-31 -10 -45 -41q-37 -85 -80 -186q-132 -310 -200 -508
q-46 -134 -83 -274.5t-57 -241.5q-9 -49 -36.5 -74.5t-128.5 -25.5q-103 0 -200 7l-5 39q110 17 163 71q64 69 198 367l8 19l-14 4q-183 456 -331 802q-13 30 -46 41l-88 27z" />
    <glyph glyph-name="z" unicode="z" horiz-adv-x="983" 
d="M69 9q170 245 283 412t284 425h-391l-65 -201l-40 -7q-23 156 -50 280l3 9q204 -3 394 -3q192 0 400 3l7 -11q-145 -214 -278 -412t-280 -424h398l125 208l41 6q-16 -141 -24 -290l-6 -7q-173 3 -406 3q-212 0 -388 -3z" />
    <glyph glyph-name="braceleft" unicode="{" horiz-adv-x="720" 
d="M80 614q89 16 131 56.5t42 156.5v446q0 151 74 219t276 67l2 -46q-70 -15 -108 -35.5t-55.5 -50t-20.5 -70.5t-3 -98v-332q0 -151 -40 -223t-144 -104v-6q104 -32 144 -104t40 -223v-332q0 -57 3 -98t20.5 -70.5t55.5 -50t106 -35.5l2 -46q-204 -1 -278 67t-74 219v446
q0 116 -42 156.5t-129 56.5z" />
    <glyph glyph-name="bar" unicode="|" horiz-adv-x="712" 
d="M412 1525v-2033h-112v2033h112z" />
    <glyph glyph-name="braceright" unicode="}" horiz-adv-x="720" 
d="M638 580q-87 -16 -129 -56.5t-42 -156.5v-446q0 -151 -74 -219t-276 -67l-2 46q70 15 108 35.5t55.5 50t20.5 70.5t3 98v332q0 151 40 223t144 104v6q-104 32 -144 104t-40 223v332q0 57 -3 98t-20.5 70.5t-55.5 50t-106 35.5l-2 46q204 1 278 -67t74 -219v-446
q0 -116 42 -156.5t131 -56.5z" />
    <glyph glyph-name="asciitilde" unicode="~" 
d="M93 497q135 88 254 88q64 0 124.5 -20t119.5 -44q56 -23 109 -42t110 -19q96 0 227 87v-121q-127 -83 -246 -83q-64 0 -125.5 20t-121.5 44q-56 22 -109 40t-109 18q-98 0 -233 -89v121z" />
    <glyph glyph-name="exclamdown" unicode="&#xa1;" horiz-adv-x="524" 
d="M249 526l78 -967l-224 -10l-9 8l93 966zM218 712q-52 0 -85.5 32.5t-33.5 85.5t33.5 86.5t85.5 33.5q55 0 88 -33.5t33 -86.5t-33 -85.5t-88 -32.5z" />
    <glyph glyph-name="cent" unicode="&#xa2;" horiz-adv-x="929" 
d="M869 67q-143 -83 -310 -92l-3 -136l-78 -8l4 145q-189 14 -295.5 137.5t-106.5 323.5q0 204 114.5 339.5t309.5 159.5l4 138l78 8l-4 -142q146 -2 278 -45q-14 -61 -27 -125.5t-26 -134.5l-37 -6l-60 215q-70 17 -129 17l-19 -772q27 -4 77 -4q105 0 224 22zM502 854
q-113 -20 -179 -117t-66 -251q0 -319 228 -383z" />
    <glyph glyph-name="sterling" unicode="&#xa3;" horiz-adv-x="991" 
d="M100 559h152q-2 42 -3 76.5t-1 56.5q0 177 114.5 275t298.5 98q116 0 229 -35l5 -5l-50 -270l-37 -6l-59 224q-54 16 -105 16q-108 0 -163 -73t-55 -214q0 -28 0.5 -65t2.5 -78h276v-81h-277q-6 -222 -128 -340l2 -9h486l87 183l41 8l-20 -316l-7 -7q-215 3 -414 3
q-277 0 -441 -3l-4 40q151 39 188.5 96.5t37.5 214.5q0 91 -1 130h-155v81z" />
    <glyph glyph-name="currency" unicode="&#xa4;" 
d="M148 1190l154 -154q112 82 262 82q155 0 264 -83l155 155l79 -79l-155 -155q84 -115 84 -262q0 -144 -85 -263l156 -155l-79 -79l-156 156q-118 -82 -263 -82q-151 0 -261 81l-155 -155l-79 79l154 154q-85 112 -85 264q0 154 84 263l-153 154zM256 694q0 -141 85 -232
t223 -91t223.5 91.5t85.5 231.5q0 142 -86.5 233t-222.5 91q-134 0 -221 -89t-87 -235z" />
    <glyph glyph-name="yen" unicode="&#xa5;" horiz-adv-x="1076" 
d="M949 277h-300v-79q1 -25 1 -47t1 -42q1 -25 35 -34l124 -38l2 -40q-140 3 -258 3q-111 0 -249 -3l-4 40l134 40q27 8 28 31q1 20 1 42v47v80h-300v81h300v124h-300v81h270l-193 286q-30 45 -57 78.5t-75 47.5l-97 28l-2 40q46 -2 106.5 -3t138.5 -1q61 0 123.5 1t134.5 3
l4 -40l-84 -24q-40 -11 -40 -36q0 -20 20 -50.5t52 -77.5l135 -200l105 178q31 53 52 87.5t21 56.5q0 15 -11 24.5t-37 16.5l-80 22l-2 43q54 -2 101.5 -3t101.5 -1q55 0 107 1t104 3l4 -40l-102 -32q-38 -11 -60 -36t-43 -58l-197 -314h285v-81h-300v-124h300v-81z" />
    <glyph glyph-name="brokenbar" unicode="&#xa6;" horiz-adv-x="742" 
d="M300 854v671h142v-671h-142zM300 -68v671h142v-671h-142z" />
    <glyph glyph-name="section" unicode="&#xa7;" horiz-adv-x="1106" 
d="M281 -228q107 -35 193 -35q114 0 176.5 56.5t62.5 150.5q0 48 -26.5 85t-70.5 67t-100.5 56t-116.5 53q-64 28 -126.5 58.5t-112 67.5t-80 84t-30.5 109q0 160 249 318q-188 107 -188 260q0 156 118.5 238.5t321.5 82.5q153 0 331 -37l7 -7l-59 -312l-40 -7l-65 249
q-107 35 -193 35q-114 0 -176.5 -55.5t-62.5 -147.5q0 -47 26.5 -82.5t70.5 -65.5t100.5 -55.5t116.5 -51.5q64 -28 126.5 -58t112 -67t80 -84.5t30.5 -109.5q0 -161 -249 -318q188 -107 188 -264q0 -159 -118.5 -243t-321.5 -84q-153 0 -331 37l-7 7l59 312l40 7zM778 502
q0 47 -26.5 83.5t-70 66.5t-99.5 56.5t-116 52.5q-53 23 -106 49q-132 -112 -132 -221q0 -47 26.5 -83.5t70 -66.5t99.5 -56.5t116 -52.5q53 -24 105 -49q133 111 133 221z" />
    <glyph glyph-name="dieresis" unicode="&#xa8;" horiz-adv-x="840" 
d="M338 1304q0 -51 -31.5 -82.5t-81.5 -31.5q-48 0 -77.5 29t-29.5 78q0 52 31.5 82t82.5 30q47 0 76.5 -27.5t29.5 -77.5zM722 1304q0 -51 -31.5 -82.5t-81.5 -31.5q-47 0 -77 29t-30 78q0 52 31.5 82t82.5 30q48 0 77 -27.5t29 -77.5zM0 928z" />
    <glyph glyph-name="copyright" unicode="&#xa9;" horiz-adv-x="1631" 
d="M818 1386q306 0 509 -201t203 -510q0 -296 -203 -494.5t-512 -198.5t-512.5 198.5t-203.5 499.5q0 308 206 507t513 199zM816 1308q-276 0 -447 -176t-171 -448q0 -273 172.5 -448.5t448.5 -175.5q271 0 442 174t171 450t-173.5 450t-442.5 174zM1056 772l-31 -5l-59 218
q-53 20 -112 20q-119 0 -188.5 -80t-69.5 -208q0 -142 90 -229t241 -87q95 0 201 46l8 -37q-129 -105 -295 -105q-181 0 -299 103.5t-118 270.5q0 183 128.5 289t326.5 106q111 0 222 -34l5 -6z" />
    <glyph glyph-name="ordfeminine" unicode="&#xaa;" horiz-adv-x="611" 
d="M363 917q-108 0 -148 -23.5t-40 -77.5q0 -51 26.5 -71.5t72.5 -20.5q49 0 88 13zM86 1152q120 55 230 55q87 0 136 -46t48 -133l-3 -235q0 -31 2 -48.5t11 -28t27 -14t49 -4.5l4 -27q-26 -8 -66.5 -17.5t-58.5 -9.5q-80 0 -101 58q-79 -59 -152 -59q-80 0 -128.5 39.5
t-48.5 113.5q0 86 79.5 131t248.5 45v41q1 59 -27 88t-88 29q-71 0 -147 -22zM45 413v75h528v-75h-528z" />
    <glyph glyph-name="guillemotleft" unicode="&#xab;" horiz-adv-x="1048" 
d="M460 71q-186 223 -366 375l-4 36q185 152 370 375l48 -25q-90 -180 -215 -363q125 -189 215 -373zM880 71q-186 223 -366 375l-4 36q185 152 370 375l48 -25q-90 -180 -215 -363q125 -189 215 -373z" />
    <glyph glyph-name="logicalnot" unicode="&#xac;" 
d="M93 522h944v-532h-121v411h-823v121z" />
    <glyph glyph-name="registered" unicode="&#xae;" horiz-adv-x="844" 
d="M434 1406q159 0 256 -92t97 -251q0 -162 -98.5 -257.5t-260.5 -95.5q-158 0 -254.5 95.5t-96.5 254.5q0 157 101.5 251.5t255.5 94.5zM429 1357q-125 0 -203.5 -79t-78.5 -217q0 -140 78 -221t206 -81q130 0 207.5 77.5t77.5 224.5q0 136 -79 216t-208 80zM385 1019v-44
t1 -36q1 -15 9 -17l40 -11l1 -17q-25 1 -46.5 1h-44.5h-51t-51 -1l-2 17l49 14q10 4 11 13q1 16 1 37v45v106v39t-1 31q-1 12 -12 15l-47 13l-1 19q26 -1 50.5 -1.5t49.5 -0.5q14 0 45.5 2t52.5 2q142 0 142 -88q0 -61 -79 -91q29 -44 47.5 -76.5t41.5 -55.5
q12 -12 21 -16.5t30 -8.5l2 -16q-26 -6 -54 -6t-44.5 4.5t-31.5 16.5q-13 11 -32 43.5t-37 62.5q-12 22 -19 27t-22 5h-19v-27zM385 1078q10 -1 26 -1q85 0 85 67q0 35 -19 51t-61 16q-12 0 -31 -2v-131z" />
    <glyph glyph-name="macron" unicode="&#xaf;" horiz-adv-x="840" 
d="M149 1190v109h541v-109h-541zM0 928z" />
    <glyph glyph-name="macron" unicode="&#x2c9;" horiz-adv-x="840" 
d="M149 1190v109h541v-109h-541zM0 928z" />
    <glyph glyph-name="degree" unicode="&#xb0;" horiz-adv-x="702" 
d="M155 1095q0 -95 56.5 -153t149.5 -58q91 0 148.5 57.5t57.5 153.5q0 94 -57.5 153.5t-148.5 59.5q-93 0 -149.5 -59.5t-56.5 -153.5zM60 1094q0 131 86.5 216.5t214.5 85.5t214.5 -85t86.5 -215t-87 -215t-214 -85q-128 0 -214.5 84t-86.5 214z" />
    <glyph glyph-name="plusminus" unicode="&#xb1;" 
d="M93 683h412v332h121v-332h411v-121h-411v-331h-121v331h-412v121zM93 131h944v-121h-944v121z" />
    <glyph glyph-name="uni00B2" unicode="&#xb2;" horiz-adv-x="738" 
d="M626 916l34 6l-17 -261l-5 -5q-112 1 -287 2q-160 0 -304 -2l-6 63q272 191 349.5 292t77.5 193q0 76 -53 123.5t-136 47.5q-79 0 -175 -38l-30 51q139 87 274 87q118 0 196.5 -57.5t78.5 -153.5q0 -116 -102 -232t-309 -250l1 -4h347z" />
    <glyph glyph-name="uni00B3" unicode="&#xb3;" horiz-adv-x="738" 
d="M199 1109q114 10 180.5 51.5t66.5 106.5q0 52 -43 85t-108 33q-87 0 -178 -36l-25 50q133 76 267 76q99 0 167.5 -43.5t68.5 -119.5q0 -124 -187 -187v-2q115 -12 179.5 -63.5t64.5 -129.5q0 -127 -144.5 -209t-416.5 -90l-7 55q207 12 309 73t102 151q0 72 -54.5 112.5
t-153.5 40.5q-38 0 -83 -9z" />
    <glyph glyph-name="acute" unicode="&#xb4;" horiz-adv-x="840" 
d="M468 1417h200l-238 -373h-68zM0 928z" />
    <glyph glyph-name="mu" unicode="&#xb5;" horiz-adv-x="1131" 
d="M162 -494v1136q0 75 -3 140.5t-8 123.5q102 22 189 44l9 -7q-6 -131 -6 -286v-344q0 -107 47.5 -159t152.5 -52q63 0 123 24t102 78v438q0 75 -3 140.5t-8 123.5q102 22 189 44l9 -7q-6 -131 -6 -286v-175q0 -209 3 -305q1 -55 20 -77q19 -20 56 -27.5t102 -8.5l5 -40
q-161 -49 -238 -49q-59 0 -91.5 34.5t-37.5 113.5q-23 -38 -53.5 -66.5t-64 -47t-70 -28t-71.5 -9.5q-106 0 -186 80q14 -327 38 -526q-47 -5 -94.5 -11.5t-94.5 -15.5z" />
    <glyph glyph-name="paragraph" unicode="&#xb6;" horiz-adv-x="1172" 
d="M888 -308l-178 -10l-9 8l59 1622l-90 3l-29 -752q-42 -4 -76 -4q-258 0 -401.5 116t-143.5 328q0 194 126 297.5t364 103.5q65 0 144 -4t163 -4q122 0 243 4l4 -43l-165 -40q-24 -6 -26 -32q-1 -31 -1 -72.5v-93.5z" />
    <glyph glyph-name="periodcentered" unicode="&#xb7;" horiz-adv-x="524" 
d="M263 625q55 0 90.5 -34.5t35.5 -90.5t-35.5 -91.5t-90.5 -35.5q-58 0 -93 35.5t-35 91.5t35 90.5t93 34.5z" />
    <glyph glyph-name="periodcentered" unicode="&#x2219;" horiz-adv-x="524" 
d="M263 625q55 0 90.5 -34.5t35.5 -90.5t-35.5 -91.5t-90.5 -35.5q-58 0 -93 35.5t-35 91.5t35 90.5t93 34.5z" />
    <glyph glyph-name="cedilla" unicode="&#xb8;" horiz-adv-x="840" 
d="M243 -190l147 190h86l-82 -109q120 -44 120 -126q0 -110 -209 -251l-35 38q98 80 98 147q0 73 -121 104z" />
    <glyph glyph-name="uni00B9" unicode="&#xb9;" horiz-adv-x="738" 
d="M129 1389l-3 31q173 25 324 52l6 -6q-9 -170 -9 -338v-160q0 -135 2 -216q1 -22 21 -27l149 -39l2 -30q-168 2 -242 2q-73 0 -241 -2l-3 30l152 39q19 5 20 24q2 84 2 189v93q0 183 -3 341z" />
    <glyph glyph-name="ordmasculine" unicode="&#xba;" horiz-adv-x="678" 
d="M199 932q0 -105 36.5 -169.5t106.5 -64.5q65 0 100 57.5t35 168.5q0 105 -37 166.5t-106 61.5q-64 0 -99.5 -54.5t-35.5 -165.5zM630 937q0 -132 -84.5 -213t-215.5 -81q-126 0 -204.5 76.5t-78.5 200.5q0 126 82 206.5t217 80.5q127 0 205.5 -74.5t78.5 -195.5zM68 413
v75h541v-75h-541z" />
    <glyph glyph-name="guillemotright" unicode="&#xbb;" horiz-adv-x="1048" 
d="M168 857q186 -223 366 -375l4 -36q-185 -152 -370 -375l-48 25q90 180 215 363q-125 189 -215 373zM588 857q186 -223 366 -375l4 -36q-185 -152 -370 -375l-48 25q90 180 215 363q-125 189 -215 373z" />
    <glyph glyph-name="onequarter" unicode="&#xbc;" horiz-adv-x="1687" 
d="M129 1389l-3 31q173 25 324 52l6 -6q-9 -170 -9 -338v-160q0 -135 2 -216q1 -22 21 -27l149 -39l2 -30q-168 2 -242 2q-73 0 -241 -2l-3 30l152 39q19 5 20 24q2 84 2 189v93q0 183 -3 341zM398 0l946 1477l75 -47l-947 -1477zM1516 198q0 -59 2 -111q1 -23 21 -27
l119 -32l2 -30q-138 2 -212 2q-73 0 -226 -2l-3 30l137 35q20 5 21 25q1 56 1 110h-165q-95 0 -227 -2l-4 64q221 272 459 547l80 5q-5 -110 -5 -228v-306h157l3 -82q-77 2 -160 2zM1378 636q-155 -176 -299 -358h299v358z" />
    <glyph glyph-name="onehalf" unicode="&#xbd;" horiz-adv-x="1687" 
d="M129 1389l-3 31q173 25 324 52l6 -6q-9 -170 -9 -338v-160q0 -135 2 -216q1 -22 21 -27l149 -39l2 -30q-168 2 -242 2q-73 0 -241 -2l-3 30l152 39q19 5 20 24q2 84 2 189v93q0 183 -3 341zM348 0l946 1477l75 -47l-947 -1477zM1575 258l34 6l-17 -261l-5 -5
q-112 1 -287 2q-160 0 -304 -2l-6 63q272 191 349.5 292t77.5 193q0 76 -53 123.5t-136 47.5q-79 0 -175 -38l-30 51q139 87 274 87q118 0 196.5 -57.5t78.5 -153.5q0 -116 -102 -232t-309 -250l1 -4h347z" />
    <glyph glyph-name="threequarters" unicode="&#xbe;" horiz-adv-x="1687" 
d="M199 1109q114 10 180.5 51.5t66.5 106.5q0 52 -43 85t-108 33q-87 0 -178 -36l-25 50q133 76 267 76q99 0 167.5 -43.5t68.5 -119.5q0 -124 -187 -187v-2q115 -12 179.5 -63.5t64.5 -129.5q0 -127 -144.5 -209t-416.5 -90l-7 55q207 12 309 73t102 151q0 72 -54.5 112.5
t-153.5 40.5q-38 0 -83 -9zM378 0l946 1477l75 -47l-947 -1477zM1516 198q0 -59 2 -111q1 -23 21 -27l119 -32l2 -30q-138 2 -212 2q-73 0 -226 -2l-3 30l137 35q20 5 21 25q1 56 1 110h-165q-95 0 -227 -2l-4 64q221 272 459 547l80 5q-5 -110 -5 -228v-306h157l3 -82
q-77 2 -160 2zM1378 636q-155 -176 -299 -358h299v358z" />
    <glyph glyph-name="questiondown" unicode="&#xbf;" horiz-adv-x="880" 
d="M438 712q-52 0 -85.5 32t-33.5 86t33.5 87t85.5 33q55 0 88 -33t33 -87t-33 -86t-88 -32zM434 534q59 -53 110 -121.5t51 -99.5q0 -28 -14.5 -57t-38 -59t-53.5 -60.5t-62 -62.5q-34 -33 -66.5 -67t-58 -68.5t-41 -68.5t-15.5 -69q0 -85 56.5 -135t151.5 -50q66 0 132 28
l66 229l39 6l59 -280q-168 -65 -320 -65q-166 0 -263 74t-97 213q0 54 17.5 100.5t46 87.5t63.5 77.5t71 70.5q31 29 59.5 57t51 55.5t35.5 57t13 59.5q0 55 -37 120z" />
    <glyph glyph-name="Agrave" unicode="&#xc0;" horiz-adv-x="1381" 
d="M754 1421l444 -1223q25 -69 45.5 -93.5t58.5 -36.5l94 -28l2 -43q-131 3 -243 3q-114 0 -269 -3l-4 43l95 28q20 7 28.5 15.5t8.5 26.5q0 20 -10.5 52.5t-29.5 86.5l-94 268h-482l-105 -267q-21 -56 -33 -89t-12 -52q0 -17 9.5 -25.5t28.5 -14.5l93 -27l2 -45
q-142 3 -232 3t-201 -3l-5 43l101 31q38 12 56 37t40 78l511 1220zM435 608h412l-195 551zM447 1668l137 118l326 -244l-26 -46l-437 157v15zM280 1400z" />
    <glyph glyph-name="Aacute" unicode="&#xc1;" horiz-adv-x="1381" 
d="M754 1421l444 -1223q25 -69 45.5 -93.5t58.5 -36.5l94 -28l2 -43q-131 3 -243 3q-114 0 -269 -3l-4 43l95 28q20 7 28.5 15.5t8.5 26.5q0 20 -10.5 52.5t-29.5 86.5l-94 268h-482l-105 -267q-21 -56 -33 -89t-12 -52q0 -17 9.5 -25.5t28.5 -14.5l93 -27l2 -45
q-142 3 -232 3t-201 -3l-5 43l101 31q38 12 56 37t40 78l511 1220zM435 608h412l-195 551zM941 1653l-436 -157l-27 46l326 244l137 -118v-15zM280 1400z" />
    <glyph glyph-name="Acircumflex" unicode="&#xc2;" horiz-adv-x="1381" 
d="M754 1421l444 -1223q25 -69 45.5 -93.5t58.5 -36.5l94 -28l2 -43q-131 3 -243 3q-114 0 -269 -3l-4 43l95 28q20 7 28.5 15.5t8.5 26.5q0 20 -10.5 52.5t-29.5 86.5l-94 268h-482l-105 -267q-21 -56 -33 -89t-12 -52q0 -17 9.5 -25.5t28.5 -14.5l93 -27l2 -45
q-142 3 -232 3t-201 -3l-5 43l101 31q38 12 56 37t40 78l511 1220zM435 608h412l-195 551zM745 1770l286 -239l-27 -46l-304 135l-305 -135l-26 46l286 239h90zM280 1400z" />
    <glyph glyph-name="Atilde" unicode="&#xc3;" horiz-adv-x="1381" 
d="M754 1421l444 -1223q25 -69 45.5 -93.5t58.5 -36.5l94 -28l2 -43q-131 3 -243 3q-114 0 -269 -3l-4 43l95 28q20 7 28.5 15.5t8.5 26.5q0 20 -10.5 52.5t-29.5 86.5l-94 268h-482l-105 -267q-21 -56 -33 -89t-12 -52q0 -17 9.5 -25.5t28.5 -14.5l93 -27l2 -45
q-142 3 -232 3t-201 -3l-5 43l101 31q38 12 56 37t40 78l511 1220zM435 608h412l-195 551zM1036 1724q-114 -199 -224 -199q-36 0 -67.5 14.5t-69.5 37.5q-36 20 -59 32.5t-48 12.5q-28 0 -52.5 -17t-81.5 -79l-50 39q69 107 117.5 151t102.5 44q31 0 56.5 -10t73.5 -38
q44 -24 67.5 -36.5t49.5 -12.5q31 0 53.5 16t78.5 80zM280 1400z" />
    <glyph glyph-name="Adieresis" unicode="&#xc4;" horiz-adv-x="1381" 
d="M754 1421l444 -1223q25 -69 45.5 -93.5t58.5 -36.5l94 -28l2 -43q-131 3 -243 3q-114 0 -269 -3l-4 43l95 28q20 7 28.5 15.5t8.5 26.5q0 20 -10.5 52.5t-29.5 86.5l-94 268h-482l-105 -267q-21 -56 -33 -89t-12 -52q0 -17 9.5 -25.5t28.5 -14.5l93 -27l2 -45
q-142 3 -232 3t-201 -3l-5 43l101 31q38 12 56 37t40 78l511 1220zM435 608h412l-195 551zM600 1635q0 -52 -31.5 -83.5t-81.5 -31.5q-47 0 -77 29.5t-30 77.5q0 53 31.5 83t82.5 30q47 0 76.5 -27.5t29.5 -77.5zM1020 1635q0 -52 -31.5 -83.5t-81.5 -31.5q-47 0 -77 29.5
t-30 77.5q0 53 31.5 83t82.5 30q47 0 76.5 -27.5t29.5 -77.5zM280 1400z" />
    <glyph glyph-name="Aring" unicode="&#xc5;" horiz-adv-x="1381" 
d="M754 1421l444 -1223q25 -69 45.5 -93.5t58.5 -36.5l94 -28l2 -43q-131 3 -243 3q-114 0 -269 -3l-4 43l95 28q20 7 28.5 15.5t8.5 26.5q0 20 -10.5 52.5t-29.5 86.5l-94 268h-482l-105 -267q-21 -56 -33 -89t-12 -52q0 -17 9.5 -25.5t28.5 -14.5l93 -27l2 -45
q-142 3 -232 3t-201 -3l-5 43l101 31q38 12 56 37t40 78l511 1220zM435 608h412l-195 551zM695 1473q-98 0 -156 45t-58 127q0 86 65.5 138.5t158.5 52.5q92 0 153 -49.5t61 -130.5q0 -83 -63 -133t-161 -50zM700 1531q49 0 80 28t31 89t-30.5 95.5t-80.5 34.5t-80.5 -29
t-30.5 -90t31 -94.5t80 -33.5zM280 1400z" />
    <glyph glyph-name="AE" unicode="&#xc6;" horiz-adv-x="1839" 
d="M786 1396h453q224 0 473 4l6 -8l-58 -309l-40 -7l-62 231h-442v-570h71q104 0 232 2q26 1 34 26l35 135l54 2q-3 -140 -3 -207q0 -65 3 -204l-54 -4l-36 137q-8 26 -31 27q-130 2 -235 2h-70v-344q0 -111 2 -219h460l122 254l45 8l-22 -348l-7 -7q-259 3 -478 3h-218
q-121 0 -248 -3l-4 43l123 37q25 7 27 31q1 40 1.5 89.5t0.5 109.5v346h-410l-202 -403q-20 -39 -36.5 -74.5t-16.5 -61.5q0 -16 8.5 -27.5t29.5 -17.5l93 -27l2 -45q-146 3 -240 3q-45 0 -100 -0.5t-111 -2.5l-5 43l101 31q38 12 58 32t53 82l568 1091q13 25 -18 34
l-154 47l-2 43q129 -4 248 -4zM920 1307h-82l-286 -570h368v570z" />
    <glyph glyph-name="Ccedilla" unicode="&#xc7;" horiz-adv-x="1334" 
d="M643 -190l120 156q-297 17 -480.5 210t-183.5 504q0 343 218 543t570 200q169 0 346 -41l7 -8l-62 -323l-40 -6l-73 263q-124 31 -225 31q-245 0 -385 -171t-140 -444q0 -292 160 -466t443 -174q159 0 335 61l11 -45q-185 -127 -415 -135l-55 -74q120 -44 120 -126
q0 -110 -209 -251l-35 38q98 80 98 147q0 73 -121 104z" />
    <glyph glyph-name="Egrave" unicode="&#xc8;" horiz-adv-x="1189" 
d="M346 1396h243q224 0 473 4l6 -8l-58 -309l-40 -7l-62 231h-462v-550h91q104 0 232 2q26 1 34 26l35 135l54 2q-3 -140 -3 -207q0 -65 3 -204l-54 -4l-36 137q-8 26 -31 27q-130 2 -235 2h-90v-364q0 -111 2 -219h480l122 254l45 8l-22 -348l-7 -7q-259 3 -478 3h-238
q-121 0 -248 -3l-4 43l123 37q25 7 27 31q1 40 1.5 89.5t0.5 109.5v811q0 51 -0.5 92t-1.5 74q-1 26 -24 34l-124 39l-2 43q129 -4 248 -4zM367 1668l137 118l326 -244l-26 -46l-437 157v15zM200 1400z" />
    <glyph glyph-name="Eacute" unicode="&#xc9;" horiz-adv-x="1189" 
d="M346 1396h243q224 0 473 4l6 -8l-58 -309l-40 -7l-62 231h-462v-550h91q104 0 232 2q26 1 34 26l35 135l54 2q-3 -140 -3 -207q0 -65 3 -204l-54 -4l-36 137q-8 26 -31 27q-130 2 -235 2h-90v-364q0 -111 2 -219h480l122 254l45 8l-22 -348l-7 -7q-259 3 -478 3h-238
q-121 0 -248 -3l-4 43l123 37q25 7 27 31q1 40 1.5 89.5t0.5 109.5v811q0 51 -0.5 92t-1.5 74q-1 26 -24 34l-124 39l-2 43q129 -4 248 -4zM861 1653l-436 -157l-27 46l326 244l137 -118v-15zM200 1400z" />
    <glyph glyph-name="Ecircumflex" unicode="&#xca;" horiz-adv-x="1189" 
d="M346 1396h243q224 0 473 4l6 -8l-58 -309l-40 -7l-62 231h-462v-550h91q104 0 232 2q26 1 34 26l35 135l54 2q-3 -140 -3 -207q0 -65 3 -204l-54 -4l-36 137q-8 26 -31 27q-130 2 -235 2h-90v-364q0 -111 2 -219h480l122 254l45 8l-22 -348l-7 -7q-259 3 -478 3h-238
q-121 0 -248 -3l-4 43l123 37q25 7 27 31q1 40 1.5 89.5t0.5 109.5v811q0 51 -0.5 92t-1.5 74q-1 26 -24 34l-124 39l-2 43q129 -4 248 -4zM665 1770l286 -239l-27 -46l-304 135l-305 -135l-26 46l286 239h90zM200 1400z" />
    <glyph glyph-name="Edieresis" unicode="&#xcb;" horiz-adv-x="1189" 
d="M346 1396h243q224 0 473 4l6 -8l-58 -309l-40 -7l-62 231h-462v-550h91q104 0 232 2q26 1 34 26l35 135l54 2q-3 -140 -3 -207q0 -65 3 -204l-54 -4l-36 137q-8 26 -31 27q-130 2 -235 2h-90v-364q0 -111 2 -219h480l122 254l45 8l-22 -348l-7 -7q-259 3 -478 3h-238
q-121 0 -248 -3l-4 43l123 37q25 7 27 31q1 40 1.5 89.5t0.5 109.5v811q0 51 -0.5 92t-1.5 74q-1 26 -24 34l-124 39l-2 43q129 -4 248 -4zM520 1635q0 -52 -31.5 -83.5t-81.5 -31.5q-47 0 -77 29.5t-30 77.5q0 53 31.5 83t82.5 30q47 0 76.5 -27.5t29.5 -77.5zM940 1635
q0 -52 -31.5 -83.5t-81.5 -31.5q-47 0 -77 29.5t-30 77.5q0 53 31.5 83t82.5 30q47 0 76.5 -27.5t29.5 -77.5zM200 1400z" />
    <glyph glyph-name="Igrave" unicode="&#xcc;" horiz-adv-x="696" 
d="M446 307q0 -60 0.5 -109t1.5 -89q1 -25 35 -34l113 -35l2 -43q-129 3 -248 3q-121 0 -248 -3l-4 43l123 37q25 7 27 31q1 40 1.5 89.5t0.5 109.5v811q0 51 -0.5 92t-1.5 74q-1 26 -24 34l-124 39l-2 43q129 -4 248 -4q120 0 248 4l4 -43l-124 -37q-24 -6 -26 -31
q-1 -35 -1.5 -76.5t-0.5 -90.5v-815zM96 1668l137 118l326 -244l-26 -46l-437 157v15zM-71 1400z" />
    <glyph glyph-name="Iacute" unicode="&#xcd;" horiz-adv-x="696" 
d="M446 307q0 -60 0.5 -109t1.5 -89q1 -25 35 -34l113 -35l2 -43q-129 3 -248 3q-121 0 -248 -3l-4 43l123 37q25 7 27 31q1 40 1.5 89.5t0.5 109.5v811q0 51 -0.5 92t-1.5 74q-1 26 -24 34l-124 39l-2 43q129 -4 248 -4q120 0 248 4l4 -43l-124 -37q-24 -6 -26 -31
q-1 -35 -1.5 -76.5t-0.5 -90.5v-815zM590 1653l-436 -157l-27 46l326 244l137 -118v-15zM-71 1400z" />
    <glyph glyph-name="Icircumflex" unicode="&#xce;" horiz-adv-x="696" 
d="M446 307q0 -60 0.5 -109t1.5 -89q1 -25 35 -34l113 -35l2 -43q-129 3 -248 3q-121 0 -248 -3l-4 43l123 37q25 7 27 31q1 40 1.5 89.5t0.5 109.5v811q0 51 -0.5 92t-1.5 74q-1 26 -24 34l-124 39l-2 43q129 -4 248 -4q120 0 248 4l4 -43l-124 -37q-24 -6 -26 -31
q-1 -35 -1.5 -76.5t-0.5 -90.5v-815zM394 1770l286 -239l-27 -46l-304 135l-305 -135l-26 46l286 239h90zM-71 1400z" />
    <glyph glyph-name="Idieresis" unicode="&#xcf;" horiz-adv-x="696" 
d="M446 307q0 -60 0.5 -109t1.5 -89q1 -25 35 -34l113 -35l2 -43q-129 3 -248 3q-121 0 -248 -3l-4 43l123 37q25 7 27 31q1 40 1.5 89.5t0.5 109.5v811q0 51 -0.5 92t-1.5 74q-1 26 -24 34l-124 39l-2 43q129 -4 248 -4q120 0 248 4l4 -43l-124 -37q-24 -6 -26 -31
q-1 -35 -1.5 -76.5t-0.5 -90.5v-815zM249 1635q0 -52 -31.5 -83.5t-81.5 -31.5q-47 0 -77 29.5t-30 77.5q0 53 31.5 83t82.5 30q47 0 76.5 -27.5t29.5 -77.5zM669 1635q0 -52 -31.5 -83.5t-81.5 -31.5q-47 0 -77 29.5t-30 77.5q0 53 31.5 83t82.5 30q47 0 76.5 -27.5
t29.5 -77.5zM-71 1400z" />
    <glyph glyph-name="Eth" unicode="&#xd0;" horiz-adv-x="1538" 
d="M350 0q-121 0 -248 -3l-4 43l123 37q26 8 27 31q1 40 1.5 89.5t0.5 109.5v385h-152v91h152v335q0 51 -0.5 92t-1.5 74q-1 26 -24 34l-124 39l-2 43q129 -4 251 -4q100 0 193 5t191 5q350 0 526 -159.5t176 -473.5q0 -370 -195.5 -574.5t-548.5 -204.5q-97 0 -173 3
t-168 3zM778 692h-332v-603q59 -8 115.5 -10.5t113.5 -2.5q264 0 402 155.5t138 476.5q0 312 -131 462.5t-415 150.5q-45 0 -99.5 -2t-123.5 -7v-529h332v-91z" />
    <glyph glyph-name="Ntilde" unicode="&#xd1;" horiz-adv-x="1534" 
d="M341 1115v-808q0 -118 2 -196q1 -28 25 -34l119 -35l2 -45q-125 3 -205 3q-78 0 -207 -3l-4 43l123 37q26 8 27 31q2 81 2 199v811q0 100 -2 166q-1 26 -24 34l-124 39l-2 43q129 -4 204 -4q45 0 91 4l840 -1049v771q0 97 -2 167q-1 23 -26 31l-118 34l-2 46
q128 -4 207 -4q80 0 205 4l4 -43l-126 -39q-23 -8 -24 -34q-2 -66 -2 -166v-1118l-84 -8zM1116 1724q-114 -199 -224 -199q-36 0 -67.5 14.5t-69.5 37.5q-36 20 -59 32.5t-48 12.5q-28 0 -52.5 -17t-81.5 -79l-50 39q69 107 117.5 151t102.5 44q31 0 56.5 -10t73.5 -38
q44 -24 67.5 -36.5t49.5 -12.5q31 0 53.5 16t78.5 80zM360 1400z" />
    <glyph glyph-name="Ograve" unicode="&#xd2;" horiz-adv-x="1647" 
d="M319 717q0 -326 132 -499.5t387 -173.5q251 0 370.5 157.5t119.5 494.5q0 316 -127 486t-392 170q-257 0 -373.5 -157.5t-116.5 -477.5zM1548 730q0 -346 -196.5 -556.5t-549.5 -210.5q-335 0 -518.5 194.5t-183.5 526.5q0 346 197.5 547.5t547.5 201.5
q336 0 519.5 -188.5t183.5 -514.5zM570 1668l137 118l326 -244l-26 -46l-437 157v15zM403 1400z" />
    <glyph glyph-name="Oacute" unicode="&#xd3;" horiz-adv-x="1647" 
d="M319 717q0 -326 132 -499.5t387 -173.5q251 0 370.5 157.5t119.5 494.5q0 316 -127 486t-392 170q-257 0 -373.5 -157.5t-116.5 -477.5zM1548 730q0 -346 -196.5 -556.5t-549.5 -210.5q-335 0 -518.5 194.5t-183.5 526.5q0 346 197.5 547.5t547.5 201.5
q336 0 519.5 -188.5t183.5 -514.5zM1064 1653l-436 -157l-27 46l326 244l137 -118v-15zM403 1400z" />
    <glyph glyph-name="Ocircumflex" unicode="&#xd4;" horiz-adv-x="1647" 
d="M319 717q0 -326 132 -499.5t387 -173.5q251 0 370.5 157.5t119.5 494.5q0 316 -127 486t-392 170q-257 0 -373.5 -157.5t-116.5 -477.5zM1548 730q0 -346 -196.5 -556.5t-549.5 -210.5q-335 0 -518.5 194.5t-183.5 526.5q0 346 197.5 547.5t547.5 201.5
q336 0 519.5 -188.5t183.5 -514.5zM868 1770l286 -239l-27 -46l-304 135l-305 -135l-26 46l286 239h90zM403 1400z" />
    <glyph glyph-name="Otilde" unicode="&#xd5;" horiz-adv-x="1647" 
d="M319 717q0 -326 132 -499.5t387 -173.5q251 0 370.5 157.5t119.5 494.5q0 316 -127 486t-392 170q-257 0 -373.5 -157.5t-116.5 -477.5zM1548 730q0 -346 -196.5 -556.5t-549.5 -210.5q-335 0 -518.5 194.5t-183.5 526.5q0 346 197.5 547.5t547.5 201.5
q336 0 519.5 -188.5t183.5 -514.5zM1159 1724q-114 -199 -224 -199q-36 0 -67.5 14.5t-69.5 37.5q-36 20 -59 32.5t-48 12.5q-28 0 -52.5 -17t-81.5 -79l-50 39q69 107 117.5 151t102.5 44q31 0 56.5 -10t73.5 -38q44 -24 67.5 -36.5t49.5 -12.5q31 0 53.5 16t78.5 80z
M403 1400z" />
    <glyph glyph-name="Odieresis" unicode="&#xd6;" horiz-adv-x="1647" 
d="M319 717q0 -326 132 -499.5t387 -173.5q251 0 370.5 157.5t119.5 494.5q0 316 -127 486t-392 170q-257 0 -373.5 -157.5t-116.5 -477.5zM1548 730q0 -346 -196.5 -556.5t-549.5 -210.5q-335 0 -518.5 194.5t-183.5 526.5q0 346 197.5 547.5t547.5 201.5
q336 0 519.5 -188.5t183.5 -514.5zM723 1635q0 -52 -31.5 -83.5t-81.5 -31.5q-47 0 -77 29.5t-30 77.5q0 53 31.5 83t82.5 30q47 0 76.5 -27.5t29.5 -77.5zM1143 1635q0 -52 -31.5 -83.5t-81.5 -31.5q-47 0 -77 29.5t-30 77.5q0 53 31.5 83t82.5 30q47 0 76.5 -27.5
t29.5 -77.5zM403 1400z" />
    <glyph glyph-name="multiply" unicode="&#xd7;" 
d="M194 918l371 -371l371 371l86 -85l-371 -372l370 -370l-85 -86l-371 371l-371 -371l-85 86l370 370l-371 372z" />
    <glyph glyph-name="Oslash" unicode="&#xd8;" horiz-adv-x="1647" 
d="M1548 730q0 -346 -196.5 -556.5t-549.5 -210.5q-249 0 -415 107l-122 -160l-66 51l122 159q-221 198 -221 564q0 346 197.5 547.5t547.5 201.5q243 0 406 -99l105 138l70 -46l-107 -140q229 -193 229 -556zM838 44q251 0 370.5 157.5t119.5 494.5q0 293 -109 460
l-743 -970q131 -142 362 -142zM319 717q0 -292 106 -462l740 968q-126 129 -356 129q-257 0 -373.5 -157.5t-116.5 -477.5z" />
    <glyph glyph-name="Ugrave" unicode="&#xd9;" horiz-adv-x="1523" 
d="M63 1400q129 -4 248 -4q120 0 248 4l4 -43l-124 -37q-24 -6 -26 -31q-1 -35 -1.5 -76.5t-0.5 -90.5v-547q0 -286 91 -396.5t293 -110.5q205 0 297 114t92 381v559q0 49 -0.5 90.5t-2.5 76.5q-1 23 -26 31l-117 34l-2 46q127 -4 218 -4q87 0 212 4l4 -43l-126 -39
q-23 -8 -24 -34q-1 -33 -1.5 -74t-0.5 -92v-513q0 -328 -133.5 -485t-420.5 -157q-281 0 -415 141.5t-134 439.5v574q0 51 -0.5 92t-1.5 74q-1 26 -24 34l-124 39zM532 1668l137 118l326 -244l-26 -46l-437 157v15zM365 1400z" />
    <glyph glyph-name="Uacute" unicode="&#xda;" horiz-adv-x="1523" 
d="M63 1400q129 -4 248 -4q120 0 248 4l4 -43l-124 -37q-24 -6 -26 -31q-1 -35 -1.5 -76.5t-0.5 -90.5v-547q0 -286 91 -396.5t293 -110.5q205 0 297 114t92 381v559q0 49 -0.5 90.5t-2.5 76.5q-1 23 -26 31l-117 34l-2 46q127 -4 218 -4q87 0 212 4l4 -43l-126 -39
q-23 -8 -24 -34q-1 -33 -1.5 -74t-0.5 -92v-513q0 -328 -133.5 -485t-420.5 -157q-281 0 -415 141.5t-134 439.5v574q0 51 -0.5 92t-1.5 74q-1 26 -24 34l-124 39zM1026 1653l-436 -157l-27 46l326 244l137 -118v-15zM365 1400z" />
    <glyph glyph-name="Ucircumflex" unicode="&#xdb;" horiz-adv-x="1523" 
d="M63 1400q129 -4 248 -4q120 0 248 4l4 -43l-124 -37q-24 -6 -26 -31q-1 -35 -1.5 -76.5t-0.5 -90.5v-547q0 -286 91 -396.5t293 -110.5q205 0 297 114t92 381v559q0 49 -0.5 90.5t-2.5 76.5q-1 23 -26 31l-117 34l-2 46q127 -4 218 -4q87 0 212 4l4 -43l-126 -39
q-23 -8 -24 -34q-1 -33 -1.5 -74t-0.5 -92v-513q0 -328 -133.5 -485t-420.5 -157q-281 0 -415 141.5t-134 439.5v574q0 51 -0.5 92t-1.5 74q-1 26 -24 34l-124 39zM830 1770l286 -239l-27 -46l-304 135l-305 -135l-26 46l286 239h90zM365 1400z" />
    <glyph glyph-name="Udieresis" unicode="&#xdc;" horiz-adv-x="1523" 
d="M63 1400q129 -4 248 -4q120 0 248 4l4 -43l-124 -37q-24 -6 -26 -31q-1 -35 -1.5 -76.5t-0.5 -90.5v-547q0 -286 91 -396.5t293 -110.5q205 0 297 114t92 381v559q0 49 -0.5 90.5t-2.5 76.5q-1 23 -26 31l-117 34l-2 46q127 -4 218 -4q87 0 212 4l4 -43l-126 -39
q-23 -8 -24 -34q-1 -33 -1.5 -74t-0.5 -92v-513q0 -328 -133.5 -485t-420.5 -157q-281 0 -415 141.5t-134 439.5v574q0 51 -0.5 92t-1.5 74q-1 26 -24 34l-124 39zM685 1635q0 -52 -31.5 -83.5t-81.5 -31.5q-47 0 -77 29.5t-30 77.5q0 53 31.5 83t82.5 30q47 0 76.5 -27.5
t29.5 -77.5zM1105 1635q0 -52 -31.5 -83.5t-81.5 -31.5q-47 0 -77 29.5t-30 77.5q0 53 31.5 83t82.5 30q47 0 76.5 -27.5t29.5 -77.5zM365 1400z" />
    <glyph glyph-name="Yacute" unicode="&#xdd;" horiz-adv-x="1215" 
d="M668 712l231 437q25 48 42 82t17 56q0 31 -44 43l-90 24l-2 46q108 -4 221 -4q109 0 212 4l4 -43l-101 -32q-36 -11 -55.5 -35t-39.5 -59l-346 -617v-304q0 -60 0.5 -109t1.5 -89q1 -25 35 -34l124 -38l2 -43q-140 3 -258 3q-121 0 -259 -3l-4 43l134 40q25 7 27 31
q1 40 1.5 89.5t0.5 109.5v283l-352 610q-37 61 -60.5 88t-62.5 38l-91 28l-2 43q91 -4 246 -4q135 0 279 4l4 -43l-94 -26q-21 -5 -30 -14.5t-9 -23.5q0 -21 15.5 -51.5t38.5 -70.5zM891 1653l-436 -157l-27 46l326 244l137 -118v-15zM230 1400z" />
    <glyph glyph-name="Thorn" unicode="&#xde;" horiz-adv-x="1198" 
d="M446 307q1 -158 2 -198q1 -25 35 -34l113 -35l2 -43q-129 3 -248 3q-121 0 -248 -3l-4 43l123 37q25 7 27 31q1 40 1.5 89.5t0.5 109.5v811q0 51 -0.5 92t-1.5 74q-1 26 -24 34l-124 39l-2 43q129 -4 248 -4q120 0 248 4l4 -43l-124 -37q-24 -6 -26 -31q-1 -35 -2 -77
v-68q97 6 163 6q260 0 387 -92.5t127 -285.5q0 -208 -139.5 -325.5t-389.5 -117.5q-69 0 -148 9v-31zM446 421q71 -13 138 -13q158 0 242.5 84.5t84.5 251.5q0 164 -79.5 244t-250.5 80q-53 0 -135 -9v-638z" />
    <glyph glyph-name="germandbls" unicode="&#xdf;" horiz-adv-x="1250" 
d="M201 924q0 274 123 428.5t343 154.5q180 0 274 -102t94 -300q0 -54 -5 -96q-156 -32 -233 -95t-77 -136q0 -33 17.5 -60t47 -51.5t67.5 -47t79 -45.5q47 -27 93.5 -56t83 -64t59.5 -78.5t23 -98.5q0 -146 -107 -225.5t-283 -79.5q-152 0 -295 62q31 105 53 242l43 7
l70 -204q60 -22 134 -22q96 0 150.5 38t54.5 114q0 39 -17.5 69.5t-46.5 56.5t-66.5 48t-77.5 45q-43 24 -84.5 50.5t-74.5 59.5t-53.5 74.5t-20.5 95.5q0 101 79 190.5t216 137.5q3 31 3 61q0 145 -57.5 237.5t-162.5 92.5q-137 0 -199.5 -105t-62.5 -344v-662
q0 -161 2 -317q-44 1 -92 1q-99 0 -233 -3l-5 41l112 32q28 9 29 33q2 62 2 131v589l-136 34l-7 42l144 12v13z" />
    <glyph glyph-name="agrave" unicode="&#xe0;" horiz-adv-x="983" 
d="M617 453q-219 0 -299 -43t-80 -145q0 -95 53 -134.5t144 -39.5q103 0 180 35zM132 865q195 85 345 85q153 0 238.5 -80t84.5 -231l-5 -416q-1 -51 2.5 -82t18 -47.5t43.5 -23t78 -7.5l5 -39q-43 -17 -105 -34t-84 -17q-97 0 -133 100q-140 -101 -264 -101
q-139 0 -223.5 68.5t-84.5 193.5q0 154 137.5 227t431.5 73l1 78q1 112 -57 166t-178 54q-91 0 -228 -34zM531 1044h-69l-237 373h200zM53 927z" />
    <glyph glyph-name="aacute" unicode="&#xe1;" horiz-adv-x="983" 
d="M617 453q-219 0 -299 -43t-80 -145q0 -95 53 -134.5t144 -39.5q103 0 180 35zM132 865q195 85 345 85q153 0 238.5 -80t84.5 -231l-5 -416q-1 -51 2.5 -82t18 -47.5t43.5 -23t78 -7.5l5 -39q-43 -17 -105 -34t-84 -17q-97 0 -133 100q-140 -101 -264 -101
q-139 0 -223.5 68.5t-84.5 193.5q0 154 137.5 227t431.5 73l1 78q1 112 -57 166t-178 54q-91 0 -228 -34zM521 1417h200l-238 -373h-68zM53 928z" />
    <glyph glyph-name="acircumflex" unicode="&#xe2;" horiz-adv-x="983" 
d="M617 453q-219 0 -299 -43t-80 -145q0 -95 53 -134.5t144 -39.5q103 0 180 35zM132 865q195 85 345 85q153 0 238.5 -80t84.5 -231l-5 -416q-1 -51 2.5 -82t18 -47.5t43.5 -23t78 -7.5l5 -39q-43 -17 -105 -34t-84 -17q-97 0 -133 100q-140 -101 -264 -101
q-139 0 -223.5 68.5t-84.5 193.5q0 154 137.5 227t431.5 73l1 78q1 112 -57 166t-178 54q-91 0 -228 -34zM763 1044h-76l-216 226l-216 -226h-72l216 373h147zM53 928z" />
    <glyph glyph-name="atilde" unicode="&#xe3;" horiz-adv-x="983" 
d="M617 453q-219 0 -299 -43t-80 -145q0 -95 53 -134.5t144 -39.5q103 0 180 35zM132 865q195 85 345 85q153 0 238.5 -80t84.5 -231l-5 -416q-1 -51 2.5 -82t18 -47.5t43.5 -23t78 -7.5l5 -39q-43 -17 -105 -34t-84 -17q-97 0 -133 100q-140 -101 -264 -101
q-139 0 -223.5 68.5t-84.5 193.5q0 154 137.5 227t431.5 73l1 78q1 112 -57 166t-178 54q-91 0 -228 -34zM821 1322q-118 -207 -232 -207q-38 0 -70.5 15t-71.5 39q-38 21 -61.5 34t-49.5 13q-29 0 -54.5 -17.5t-84.5 -82.5l-52 41q72 111 122 156.5t106 45.5
q32 0 58.5 -10.5t76.5 -39.5q45 -25 69.5 -38t51.5 -13q32 0 55.5 17t81.5 83zM53 928z" />
    <glyph glyph-name="adieresis" unicode="&#xe4;" horiz-adv-x="983" 
d="M617 453q-219 0 -299 -43t-80 -145q0 -95 53 -134.5t144 -39.5q103 0 180 35zM132 865q195 85 345 85q153 0 238.5 -80t84.5 -231l-5 -416q-1 -51 2.5 -82t18 -47.5t43.5 -23t78 -7.5l5 -39q-43 -17 -105 -34t-84 -17q-97 0 -133 100q-140 -101 -264 -101
q-139 0 -223.5 68.5t-84.5 193.5q0 154 137.5 227t431.5 73l1 78q1 112 -57 166t-178 54q-91 0 -228 -34zM391 1304q0 -51 -31.5 -82.5t-81.5 -31.5q-48 0 -77.5 29t-29.5 78q0 52 31.5 82t82.5 30q47 0 76.5 -27.5t29.5 -77.5zM775 1304q0 -51 -31.5 -82.5t-81.5 -31.5
q-47 0 -77 29t-30 78q0 52 31.5 82t82.5 30q48 0 77 -27.5t29 -77.5zM53 928z" />
    <glyph glyph-name="aring" unicode="&#xe5;" horiz-adv-x="983" 
d="M617 453q-219 0 -299 -43t-80 -145q0 -95 53 -134.5t144 -39.5q103 0 180 35zM132 865q195 85 345 85q153 0 238.5 -80t84.5 -231l-5 -416q-1 -51 2.5 -82t18 -47.5t43.5 -23t78 -7.5l5 -39q-43 -17 -105 -34t-84 -17q-97 0 -133 100q-140 -101 -264 -101
q-139 0 -223.5 68.5t-84.5 193.5q0 154 137.5 227t431.5 73l1 78q1 112 -57 166t-178 54q-91 0 -228 -34zM468 1044q-99 0 -158.5 47t-59.5 133q0 90 67 145t161 55q93 0 155.5 -51.5t62.5 -137.5q0 -87 -64.5 -139t-163.5 -52zM473 1105q50 0 81.5 29t31.5 93
q0 63 -31 99.5t-82 36.5t-82 -30.5t-31 -94.5q0 -63 31.5 -98t81.5 -35zM53 928z" />
    <glyph glyph-name="ae" unicode="&#xe6;" horiz-adv-x="1511" 
d="M132 865q195 85 345 85q194 0 277 -131q119 131 319 131q174 0 271 -111.5t97 -308.5q0 -29 -3 -61h-634q4 -192 103 -282.5t314 -90.5q96 0 205 18l6 -43q-84 -53 -173.5 -76t-164.5 -23q-237 0 -368 143q-203 -143 -370 -143q-139 0 -223.5 70.5t-84.5 200.5
q0 159 137.5 234t431.5 75l1 60q1 112 -57 166t-178 54q-91 0 -228 -34zM615 469q-218 0 -297.5 -44.5t-79.5 -151.5q0 -100 52.5 -141t143.5 -41q143 0 254 74q-73 121 -73 304zM1242 552v49q0 150 -45.5 211t-135.5 61q-119 0 -184.5 -88.5t-68.5 -232.5h434z" />
    <glyph glyph-name="ccedilla" unicode="&#xe7;" horiz-adv-x="945" 
d="M373 -189l126 163q-191 11 -306.5 135t-115.5 327q0 229 143 371.5t370 142.5q147 0 285 -60q-33 -134 -59 -274l-39 -6l-81 240q-46 16 -104 16q-149 0 -233 -104t-84 -275q0 -201 95 -297t301 -96q95 0 203 19l6 -42q-136 -85 -294 -97l-62 -83q120 -44 120 -126
q0 -110 -209 -251l-35 38q98 80 98 147q0 73 -121 104z" />
    <glyph glyph-name="egrave" unicode="&#xe8;" horiz-adv-x="981" 
d="M902 71q-85 -53 -175 -76t-167 -23q-220 0 -351 125.5t-131 348.5q0 222 125.5 363t335.5 141q176 0 274 -105.5t98 -291.5q0 -28 -3 -57h-634q0 -215 101 -307.5t316 -92.5q96 0 205 18zM712 579v30q0 142 -45.5 203t-135.5 61q-119 0 -182 -86t-71 -208h434zM591 1044
h-69l-237 373h200zM113 927z" />
    <glyph glyph-name="eacute" unicode="&#xe9;" horiz-adv-x="981" 
d="M902 71q-85 -53 -175 -76t-167 -23q-220 0 -351 125.5t-131 348.5q0 222 125.5 363t335.5 141q176 0 274 -105.5t98 -291.5q0 -28 -3 -57h-634q0 -215 101 -307.5t316 -92.5q96 0 205 18zM712 579v30q0 142 -45.5 203t-135.5 61q-119 0 -182 -86t-71 -208h434zM581 1417
h200l-238 -373h-68zM113 928z" />
    <glyph glyph-name="ecircumflex" unicode="&#xea;" horiz-adv-x="981" 
d="M902 71q-85 -53 -175 -76t-167 -23q-220 0 -351 125.5t-131 348.5q0 222 125.5 363t335.5 141q176 0 274 -105.5t98 -291.5q0 -28 -3 -57h-634q0 -215 101 -307.5t316 -92.5q96 0 205 18zM712 579v30q0 142 -45.5 203t-135.5 61q-119 0 -182 -86t-71 -208h434zM823 1044
h-76l-216 226l-216 -226h-72l216 373h147zM113 928z" />
    <glyph glyph-name="edieresis" unicode="&#xeb;" horiz-adv-x="981" 
d="M902 71q-85 -53 -175 -76t-167 -23q-220 0 -351 125.5t-131 348.5q0 222 125.5 363t335.5 141q176 0 274 -105.5t98 -291.5q0 -28 -3 -57h-634q0 -215 101 -307.5t316 -92.5q96 0 205 18zM712 579v30q0 142 -45.5 203t-135.5 61q-119 0 -182 -86t-71 -208h434zM451 1304
q0 -51 -31.5 -82.5t-81.5 -31.5q-48 0 -77.5 29t-29.5 78q0 52 31.5 82t82.5 30q47 0 76.5 -27.5t29.5 -77.5zM835 1304q0 -51 -31.5 -82.5t-81.5 -31.5q-47 0 -77 29t-30 78q0 52 31.5 82t82.5 30q48 0 77 -27.5t29 -77.5zM113 928z" />
    <glyph glyph-name="igrave" unicode="&#xec;" horiz-adv-x="580" 
d="M58 880q175 33 324 70l9 -7q-6 -130 -6 -286v-384q0 -120 2 -166q2 -27 25 -35l116 -34l2 -41q-138 3 -236 3t-233 -3l-4 41l116 34q23 8 25 31q2 39 2 131v334q0 131 -4 242l-133 36zM327 1044h-69l-237 373h200zM-151 927z" />
    <glyph glyph-name="iacute" unicode="&#xed;" horiz-adv-x="580" 
d="M58 880q175 33 324 70l9 -7q-6 -130 -6 -286v-384q0 -120 2 -166q2 -27 25 -35l116 -34l2 -41q-138 3 -236 3t-233 -3l-4 41l116 34q23 8 25 31q2 39 2 131v334q0 131 -4 242l-133 36zM317 1417h200l-238 -373h-68zM-151 928z" />
    <glyph glyph-name="icircumflex" unicode="&#xee;" horiz-adv-x="580" 
d="M58 880q175 33 324 70l9 -7q-6 -130 -6 -286v-384q0 -120 2 -166q2 -27 25 -35l116 -34l2 -41q-138 3 -236 3t-233 -3l-4 41l116 34q23 8 25 31q2 39 2 131v334q0 131 -4 242l-133 36zM559 1044h-76l-216 226l-216 -226h-72l216 373h147zM-151 928z" />
    <glyph glyph-name="idieresis" unicode="&#xef;" horiz-adv-x="580" 
d="M58 880q175 33 324 70l9 -7q-6 -130 -6 -286v-384q0 -120 2 -166q2 -27 25 -35l116 -34l2 -41q-138 3 -236 3t-233 -3l-4 41l116 34q23 8 25 31q2 39 2 131v334q0 131 -4 242l-133 36zM187 1304q0 -51 -31.5 -82.5t-81.5 -31.5q-48 0 -77.5 29t-29.5 78q0 52 31.5 82
t82.5 30q47 0 76.5 -27.5t29.5 -77.5zM571 1304q0 -51 -31.5 -82.5t-81.5 -31.5q-47 0 -77 29t-30 78q0 52 31.5 82t82.5 30q48 0 77 -27.5t29 -77.5zM-151 928z" />
    <glyph glyph-name="eth" unicode="&#xf0;" horiz-adv-x="1122" 
d="M264 1107l276 143q-138 126 -319 214l1 12h252q117 -63 214 -149l239 123l43 -65l-223 -115q283 -303 283 -712q0 -269 -128.5 -427.5t-362.5 -158.5q-204 0 -332 130t-128 344q0 211 126.5 351.5t326.5 140.5q168 0 267 -97l6 3q-63 198 -206 347l-293 -152zM833 500
q0 175 -71 266.5t-193 91.5q-138 0 -212.5 -101t-74.5 -282q0 -187 73.5 -306t202.5 -119q134 0 204.5 123t70.5 327z" />
    <glyph glyph-name="ntilde" unicode="&#xf1;" horiz-adv-x="1192" 
d="M58 880q168 32 317 70l10 -7v-116q174 123 324 123q142 0 222.5 -79.5t80.5 -225.5v-353q0 -125 2 -185q1 -27 26 -35l111 -34l2 -41q-132 3 -230 3t-218 -3l-4 41l100 29q23 8 25 31q1 14 1 63v436q0 123 -59 176.5t-174 53.5q-101 0 -209 -58v-437q0 -125 2 -229
q1 -27 23 -34l104 -31l2 -41q-124 3 -222 3t-232 -3l-4 41l118 34q22 9 23 31q1 64 1 123v341q0 131 -4 243l-133 36zM942 1322q-118 -207 -232 -207q-38 0 -70.5 15t-71.5 39q-38 21 -61.5 34t-49.5 13q-29 0 -54.5 -17.5t-84.5 -82.5l-52 41q72 111 122 156.5t106 45.5
q32 0 58.5 -10.5t76.5 -39.5q45 -25 69.5 -38t51.5 -13q32 0 55.5 17t81.5 83zM174 928z" />
    <glyph glyph-name="ograve" unicode="&#xf2;" horiz-adv-x="1107" 
d="M281 472q0 -187 70 -304.5t208 -117.5q129 0 196.5 103.5t67.5 306.5q0 191 -71 301t-206 110q-128 0 -196.5 -99t-68.5 -300zM1027 481q0 -228 -137.5 -368.5t-349.5 -140.5q-207 0 -334.5 132.5t-127.5 346.5q0 220 133.5 359.5t353.5 139.5q208 0 335 -128.5
t127 -340.5zM613 1044h-69l-237 373h200zM135 927z" />
    <glyph glyph-name="oacute" unicode="&#xf3;" horiz-adv-x="1107" 
d="M281 472q0 -187 70 -304.5t208 -117.5q129 0 196.5 103.5t67.5 306.5q0 191 -71 301t-206 110q-128 0 -196.5 -99t-68.5 -300zM1027 481q0 -228 -137.5 -368.5t-349.5 -140.5q-207 0 -334.5 132.5t-127.5 346.5q0 220 133.5 359.5t353.5 139.5q208 0 335 -128.5
t127 -340.5zM603 1417h200l-238 -373h-68zM135 928z" />
    <glyph glyph-name="ocircumflex" unicode="&#xf4;" horiz-adv-x="1107" 
d="M281 472q0 -187 70 -304.5t208 -117.5q129 0 196.5 103.5t67.5 306.5q0 191 -71 301t-206 110q-128 0 -196.5 -99t-68.5 -300zM1027 481q0 -228 -137.5 -368.5t-349.5 -140.5q-207 0 -334.5 132.5t-127.5 346.5q0 220 133.5 359.5t353.5 139.5q208 0 335 -128.5
t127 -340.5zM845 1044h-76l-216 226l-216 -226h-72l216 373h147zM135 928z" />
    <glyph glyph-name="otilde" unicode="&#xf5;" horiz-adv-x="1107" 
d="M281 472q0 -187 70 -304.5t208 -117.5q129 0 196.5 103.5t67.5 306.5q0 191 -71 301t-206 110q-128 0 -196.5 -99t-68.5 -300zM1027 481q0 -228 -137.5 -368.5t-349.5 -140.5q-207 0 -334.5 132.5t-127.5 346.5q0 220 133.5 359.5t353.5 139.5q208 0 335 -128.5
t127 -340.5zM903 1322q-118 -207 -232 -207q-38 0 -70.5 15t-71.5 39q-38 21 -61.5 34t-49.5 13q-29 0 -54.5 -17.5t-84.5 -82.5l-52 41q72 111 122 156.5t106 45.5q32 0 58.5 -10.5t76.5 -39.5q45 -25 69.5 -38t51.5 -13q32 0 55.5 17t81.5 83zM135 928z" />
    <glyph glyph-name="odieresis" unicode="&#xf6;" horiz-adv-x="1107" 
d="M281 472q0 -187 70 -304.5t208 -117.5q129 0 196.5 103.5t67.5 306.5q0 191 -71 301t-206 110q-128 0 -196.5 -99t-68.5 -300zM1027 481q0 -228 -137.5 -368.5t-349.5 -140.5q-207 0 -334.5 132.5t-127.5 346.5q0 220 133.5 359.5t353.5 139.5q208 0 335 -128.5
t127 -340.5zM473 1304q0 -51 -31.5 -82.5t-81.5 -31.5q-48 0 -77.5 29t-29.5 78q0 52 31.5 82t82.5 30q47 0 76.5 -27.5t29.5 -77.5zM857 1304q0 -51 -31.5 -82.5t-81.5 -31.5q-47 0 -77 29t-30 78q0 52 31.5 82t82.5 30q48 0 77 -27.5t29 -77.5zM135 928z" />
    <glyph glyph-name="divide" unicode="&#xf7;" 
d="M566 904q50 0 82.5 -31.5t32.5 -82.5t-32.5 -83t-82.5 -32q-52 0 -84 32t-32 83t32 82.5t84 31.5zM566 258q50 0 82.5 -31.5t32.5 -82.5t-32.5 -83t-82.5 -32q-52 0 -84 32t-32 83t32 82.5t84 31.5zM93 522h944v-121h-944v121z" />
    <glyph glyph-name="oslash" unicode="&#xf8;" horiz-adv-x="1107" 
d="M1027 481q0 -228 -137.5 -368.5t-349.5 -140.5q-151 0 -259 69l-85 -112l-63 43l88 116l-16 16q-127 133 -127 347q0 220 133.5 359.5t353.5 139.5q150 0 258 -67l84 111l62 -44l-86 -113q8 -8 17 -16q127 -128 127 -340zM558 47q131 0 199 104.5t68 308.5q0 146 -42 246
l-422 -559q69 -100 197 -100zM279 472q0 -147 42 -252l422 558q-70 97 -197 97q-129 0 -198 -100t-69 -303z" />
    <glyph glyph-name="ugrave" unicode="&#xf9;" horiz-adv-x="1166" 
d="M796 88q-156 -116 -312 -116q-157 0 -235.5 80t-78.5 225v212q0 214 -4 321l-133 36l-5 34q175 32 324 70l9 -7q-6 -117 -6 -301v-318q0 -121 57 -175.5t161 -54.5t213 55v426q0 140 -4 235l-132 36l-5 34q174 32 323 70l9 -7q-6 -120 -6 -307q0 -363 2 -443q1 -41 6 -66
t19 -38.5t41.5 -19t73.5 -6.5l5 -39q-46 -18 -106 -34.5t-82 -16.5q-101 0 -134 115zM618 1044h-69l-237 373h200zM140 927z" />
    <glyph glyph-name="uacute" unicode="&#xfa;" horiz-adv-x="1166" 
d="M796 88q-156 -116 -312 -116q-157 0 -235.5 80t-78.5 225v212q0 214 -4 321l-133 36l-5 34q175 32 324 70l9 -7q-6 -117 -6 -301v-318q0 -121 57 -175.5t161 -54.5t213 55v426q0 140 -4 235l-132 36l-5 34q174 32 323 70l9 -7q-6 -120 -6 -307q0 -363 2 -443q1 -41 6 -66
t19 -38.5t41.5 -19t73.5 -6.5l5 -39q-46 -18 -106 -34.5t-82 -16.5q-101 0 -134 115zM608 1417h200l-238 -373h-68zM140 928z" />
    <glyph glyph-name="ucircumflex" unicode="&#xfb;" horiz-adv-x="1166" 
d="M796 88q-156 -116 -312 -116q-157 0 -235.5 80t-78.5 225v212q0 214 -4 321l-133 36l-5 34q175 32 324 70l9 -7q-6 -117 -6 -301v-318q0 -121 57 -175.5t161 -54.5t213 55v426q0 140 -4 235l-132 36l-5 34q174 32 323 70l9 -7q-6 -120 -6 -307q0 -363 2 -443q1 -41 6 -66
t19 -38.5t41.5 -19t73.5 -6.5l5 -39q-46 -18 -106 -34.5t-82 -16.5q-101 0 -134 115zM850 1044h-76l-216 226l-216 -226h-72l216 373h147zM140 928z" />
    <glyph glyph-name="udieresis" unicode="&#xfc;" horiz-adv-x="1166" 
d="M796 88q-156 -116 -312 -116q-157 0 -235.5 80t-78.5 225v212q0 214 -4 321l-133 36l-5 34q175 32 324 70l9 -7q-6 -117 -6 -301v-318q0 -121 57 -175.5t161 -54.5t213 55v426q0 140 -4 235l-132 36l-5 34q174 32 323 70l9 -7q-6 -120 -6 -307q0 -363 2 -443q1 -41 6 -66
t19 -38.5t41.5 -19t73.5 -6.5l5 -39q-46 -18 -106 -34.5t-82 -16.5q-101 0 -134 115zM478 1304q0 -51 -31.5 -82.5t-81.5 -31.5q-48 0 -77.5 29t-29.5 78q0 52 31.5 82t82.5 30q47 0 76.5 -27.5t29.5 -77.5zM862 1304q0 -51 -31.5 -82.5t-81.5 -31.5q-47 0 -77 29t-30 78
q0 52 31.5 82t82.5 30q48 0 77 -27.5t29 -77.5zM140 928z" />
    <glyph glyph-name="yacute" unicode="&#xfd;" horiz-adv-x="986" 
d="M-30 927q126 -3 224 -3q67 0 214 3l4 -41l-117 -32q37 -105 86 -231.5t104 -263.5q23 -57 50 -131q28 75 60 153q47 116 91 228.5t91 244.5l-114 32l-4 41q74 -3 173 -3q89 0 173 3l5 -41l-93 -26q-31 -10 -45 -41q-37 -85 -80 -186q-132 -310 -200 -508
q-46 -134 -83 -274.5t-57 -241.5q-9 -49 -36.5 -74.5t-128.5 -25.5q-103 0 -200 7l-5 39q110 17 163 71q64 69 198 367l8 19l-14 4q-183 456 -331 802q-13 30 -46 41l-88 27zM558 1417h200l-238 -373h-68zM90 928z" />
    <glyph glyph-name="thorn" unicode="&#xfe;" horiz-adv-x="1141" 
d="M360 1048v-203q153 105 296 105q185 0 295 -124.5t110 -323.5q0 -245 -141.5 -387.5t-399.5 -142.5q-78 0 -160 15v-219q0 -100 2 -140q2 -30 27 -36l131 -37l2 -41q-155 3 -253 3t-232 -3l-4 41l114 34q25 7 26 31q2 73 2 221v1109q0 221 -4 413l-135 40l-5 33
q164 31 325 71l10 -8q-6 -150 -6 -451zM360 77q87 -19 168 -19q165 0 249 104t84 298q0 183 -79.5 276t-229.5 93q-108 0 -192 -44v-708z" />
    <glyph glyph-name="ydieresis" unicode="&#xff;" horiz-adv-x="986" 
d="M-30 927q126 -3 224 -3q67 0 214 3l4 -41l-117 -32q37 -105 86 -231.5t104 -263.5q23 -57 50 -131q28 75 60 153q47 116 91 228.5t91 244.5l-114 32l-4 41q74 -3 173 -3q89 0 173 3l5 -41l-93 -26q-31 -10 -45 -41q-37 -85 -80 -186q-132 -310 -200 -508
q-46 -134 -83 -274.5t-57 -241.5q-9 -49 -36.5 -74.5t-128.5 -25.5q-103 0 -200 7l-5 39q110 17 163 71q64 69 198 367l8 19l-14 4q-183 456 -331 802q-13 30 -46 41l-88 27zM428 1304q0 -51 -31.5 -82.5t-81.5 -31.5q-48 0 -77.5 29t-29.5 78q0 52 31.5 82t82.5 30
q47 0 76.5 -27.5t29.5 -77.5zM812 1304q0 -51 -31.5 -82.5t-81.5 -31.5q-47 0 -77 29t-30 78q0 52 31.5 82t82.5 30q48 0 77 -27.5t29 -77.5zM90 928z" />
    <glyph glyph-name="Amacron" unicode="&#x100;" horiz-adv-x="1381" 
d="M754 1421l444 -1223q25 -69 45.5 -93.5t58.5 -36.5l94 -28l2 -43q-131 3 -243 3q-114 0 -269 -3l-4 43l95 28q20 7 28.5 15.5t8.5 26.5q0 20 -10.5 52.5t-29.5 86.5l-94 268h-482l-105 -267q-21 -56 -33 -89t-12 -52q0 -17 9.5 -25.5t28.5 -14.5l93 -27l2 -45
q-142 3 -232 3t-201 -3l-5 43l101 31q38 12 56 37t40 78l511 1220zM435 608h412l-195 551zM440 1557v109h519v-109h-519zM280 1400z" />
    <glyph glyph-name="amacron" unicode="&#x101;" horiz-adv-x="983" 
d="M617 453q-219 0 -299 -43t-80 -145q0 -95 53 -134.5t144 -39.5q103 0 180 35zM132 865q195 85 345 85q153 0 238.5 -80t84.5 -231l-5 -416q-1 -51 2.5 -82t18 -47.5t43.5 -23t78 -7.5l5 -39q-43 -17 -105 -34t-84 -17q-97 0 -133 100q-140 -101 -264 -101
q-139 0 -223.5 68.5t-84.5 193.5q0 154 137.5 227t431.5 73l1 78q1 112 -57 166t-178 54q-91 0 -228 -34zM202 1190v109h541v-109h-541zM53 928z" />
    <glyph glyph-name="Abreve" unicode="&#x102;" horiz-adv-x="1381" 
d="M754 1421l444 -1223q25 -69 45.5 -93.5t58.5 -36.5l94 -28l2 -43q-131 3 -243 3q-114 0 -269 -3l-4 43l95 28q20 7 28.5 15.5t8.5 26.5q0 20 -10.5 52.5t-29.5 86.5l-94 268h-482l-105 -267q-21 -56 -33 -89t-12 -52q0 -17 9.5 -25.5t28.5 -14.5l93 -27l2 -45
q-142 3 -232 3t-201 -3l-5 43l101 31q38 12 56 37t40 78l511 1220zM435 608h412l-195 551zM484 1813q15 -79 72 -125.5t147 -46.5q91 0 146.5 45.5t76.5 118.5l64 7q0 -130 -77.5 -217.5t-216.5 -87.5q-130 0 -204 79.5t-74 219.5zM280 1400z" />
    <glyph glyph-name="abreve" unicode="&#x103;" horiz-adv-x="983" 
d="M617 453q-219 0 -299 -43t-80 -145q0 -95 53 -134.5t144 -39.5q103 0 180 35zM132 865q195 85 345 85q153 0 238.5 -80t84.5 -231l-5 -416q-1 -51 2.5 -82t18 -47.5t43.5 -23t78 -7.5l5 -39q-43 -17 -105 -34t-84 -17q-97 0 -133 100q-140 -101 -264 -101
q-139 0 -223.5 68.5t-84.5 193.5q0 154 137.5 227t431.5 73l1 78q1 112 -57 166t-178 54q-91 0 -228 -34zM268 1395q14 -98 68 -150t139 -52q86 0 138.5 51t72.5 143l66 7q0 -147 -74.5 -241t-209.5 -94q-126 0 -197 84.5t-71 243.5zM53 928z" />
    <glyph glyph-name="Aogonek" unicode="&#x104;" horiz-adv-x="1381" 
d="M1108 0q-94 0 -147.5 -59t-53.5 -148q0 -93 56.5 -143.5t157.5 -50.5q16 0 45 2l5 -39q-140 -52 -210 -52q-102 0 -162 59t-60 154q0 198 240 337q37 22 37 46q0 20 -10.5 52.5t-28.5 86.5l-97 272h-482l-105 -267q-21 -56 -33 -89t-12 -52q0 -17 9.5 -25.5t28.5 -14.5
l93 -27l2 -45q-142 3 -232 3t-201 -3l-5 43l101 31q38 12 56 37t40 78l511 1220l103 15l444 -1223q25 -69 45.5 -93.5t58.5 -36.5l94 -28l2 -43q-131 3 -243 3h-47zM435 608h412l-195 551z" />
    <glyph glyph-name="aogonek" unicode="&#x105;" horiz-adv-x="983" 
d="M942 -438q-142 -52 -210 -52q-99 0 -159 56.5t-60 147.5q0 157 173 274q-42 27 -66 85q-140 -101 -264 -101q-138 0 -224 68q-84 69 -84 194q0 154 137.5 227t431.5 73l1 78q1 112 -56.5 166t-178.5 54q-45 0 -102 -8.5t-126 -25.5l-23 67q195 85 345 85
q77 0 137.5 -20.5t102 -59.5t63 -97t21.5 -134l-6 -416q-1 -51 3 -82t18 -47.5t43 -23t78 -7.5l5 -39q-76 -28 -165 -48q-39 -14 -68.5 -67t-29.5 -120q0 -86 55 -138t159 -52q19 0 44 2zM617 453q-219 0 -299 -44q-80 -42 -80 -144q0 -95 53 -134.5t144 -39.5q102 0 180 35
z" />
    <glyph glyph-name="Cacute" unicode="&#x106;" horiz-adv-x="1334" 
d="M1178 1051l-40 -6l-73 263q-124 31 -225 31q-245 0 -385 -171t-140 -444q0 -292 160 -466t443 -174q159 0 335 61l11 -45q-197 -136 -446 -136q-323 0 -521 197t-198 519q0 343 218 543t570 200q169 0 346 -41l7 -8zM1081 1653l-436 -157l-27 46l326 244l137 -118v-15z
M420 1400z" />
    <glyph glyph-name="cacute" unicode="&#x107;" horiz-adv-x="945" 
d="M880 71q-62 -42 -153.5 -70.5t-181.5 -28.5q-216 0 -342 126.5t-126 337.5q0 229 143 371.5t370 142.5q147 0 285 -60q-33 -134 -59 -274l-39 -6l-81 240q-46 16 -104 16q-149 0 -233 -104t-84 -275q0 -201 95 -297t301 -96q95 0 203 19zM612 1417h200l-238 -373h-68z
M144 928z" />
    <glyph glyph-name="Ccircumflex" unicode="&#x108;" horiz-adv-x="1334" 
d="M1178 1051l-40 -6l-73 263q-124 31 -225 31q-245 0 -385 -171t-140 -444q0 -292 160 -466t443 -174q159 0 335 61l11 -45q-197 -136 -446 -136q-323 0 -521 197t-198 519q0 343 218 543t570 200q169 0 346 -41l7 -8zM885 1770l286 -239l-27 -46l-304 135l-305 -135
l-26 46l286 239h90zM420 1400z" />
    <glyph glyph-name="ccircumflex" unicode="&#x109;" horiz-adv-x="945" 
d="M880 71q-62 -42 -153.5 -70.5t-181.5 -28.5q-216 0 -342 126.5t-126 337.5q0 229 143 371.5t370 142.5q147 0 285 -60q-33 -134 -59 -274l-39 -6l-81 240q-46 16 -104 16q-149 0 -233 -104t-84 -275q0 -201 95 -297t301 -96q95 0 203 19zM854 1044h-76l-216 226
l-216 -226h-72l216 373h147zM144 928z" />
    <glyph glyph-name="Cdotaccent" unicode="&#x10a;" horiz-adv-x="1334" 
d="M1178 1051l-40 -6l-73 263q-124 31 -225 31q-245 0 -385 -171t-140 -444q0 -292 160 -466t443 -174q159 0 335 61l11 -45q-197 -136 -446 -136q-323 0 -521 197t-198 519q0 343 218 543t570 200q169 0 346 -41l7 -8zM953 1638q0 -53 -32.5 -85.5t-83.5 -32.5
q-48 0 -79 30.5t-31 79.5q0 54 32.5 85t84.5 31q48 0 78.5 -28.5t30.5 -79.5zM420 1400z" />
    <glyph glyph-name="cdotaccent" unicode="&#x10b;" horiz-adv-x="945" 
d="M880 71q-62 -42 -153.5 -70.5t-181.5 -28.5q-216 0 -342 126.5t-126 337.5q0 229 143 371.5t370 142.5q147 0 285 -60q-33 -134 -59 -274l-39 -6l-81 240q-46 16 -104 16q-149 0 -233 -104t-84 -275q0 -201 95 -297t301 -96q95 0 203 19zM679 1304q0 -53 -33 -86.5
t-85 -33.5q-50 0 -81.5 31t-31.5 82q0 54 33.5 85.5t86.5 31.5q50 0 80.5 -28.5t30.5 -81.5zM144 928z" />
    <glyph glyph-name="Ccaron" unicode="&#x10c;" horiz-adv-x="1334" 
d="M1178 1051l-40 -6l-73 263q-124 31 -225 31q-245 0 -385 -171t-140 -444q0 -292 160 -466t443 -174q159 0 335 61l11 -45q-197 -136 -446 -136q-323 0 -521 197t-198 519q0 343 218 543t570 200q169 0 346 -41l7 -8zM795 1498l-286 238l26 46l305 -134l304 134l27 -46
l-286 -238h-90zM420 1400z" />
    <glyph glyph-name="ccaron" unicode="&#x10d;" horiz-adv-x="945" 
d="M880 71q-62 -42 -153.5 -70.5t-181.5 -28.5q-216 0 -342 126.5t-126 337.5q0 229 143 371.5t370 142.5q147 0 285 -60q-33 -134 -59 -274l-39 -6l-81 240q-46 16 -104 16q-149 0 -233 -104t-84 -275q0 -201 95 -297t301 -96q95 0 203 19zM274 1417h76l216 -226l216 226
h72l-217 -373h-147zM144 928z" />
    <glyph glyph-name="Dcaron" unicode="&#x10e;" horiz-adv-x="1538" 
d="M350 0q-121 0 -248 -3l-4 43l123 37q26 8 27 31q1 40 1.5 89.5t0.5 109.5v811q0 51 -0.5 92t-1.5 74q-1 26 -24 34l-124 39l-2 43q129 -4 251 -4q100 0 193 5t191 5q350 0 526 -159.5t176 -473.5q0 -370 -195.5 -574.5t-548.5 -204.5q-97 0 -173 3t-168 3zM446 89
q59 -8 115.5 -10.5t113.5 -2.5q264 0 402 155.5t138 476.5q0 312 -131 462.5t-415 150.5q-45 0 -99.5 -2t-123.5 -7v-1223zM680 1498l-286 238l26 46l305 -134l304 134l27 -46l-286 -238h-90zM305 1400z" />
    <glyph glyph-name="dcaron" unicode="&#x10f;" horiz-adv-x="1281" 
d="M777 840q-67 21 -150 21q-172 0 -262 -97.5t-90 -295.5q0 -171 80 -273.5t226 -102.5q94 0 196 52v696zM633 1436q178 34 326 71l9 -8q-6 -214 -6 -460v-544q0 -138 1 -273q0 -51 3.5 -82t17.5 -47.5t41.5 -22.5t77.5 -7l5 -39q-44 -17 -105.5 -34t-83.5 -17
q-101 0 -136 114q-155 -115 -301 -115q-185 0 -295.5 131.5t-110.5 323.5q0 248 147 384t411 136q64 0 143 -14q0 221 -4 430l-135 40zM1075 1034q95 101 95 198q0 85 -95 136q0 50 31.5 79t81.5 29q55 0 89 -39.5t34 -110.5q0 -84 -50 -168t-151 -162zM1162 928z" />
    <glyph glyph-name="Dcroat" unicode="&#x110;" horiz-adv-x="1538" 
d="M350 0q-121 0 -248 -3l-4 43l123 37q26 8 27 31q1 40 1.5 89.5t0.5 109.5v385h-152v91h152v335q0 51 -0.5 92t-1.5 74q-1 26 -24 34l-124 39l-2 43q129 -4 251 -4q100 0 193 5t191 5q350 0 526 -159.5t176 -473.5q0 -370 -195.5 -574.5t-548.5 -204.5q-97 0 -173 3
t-168 3zM778 692h-332v-603q59 -8 115.5 -10.5t113.5 -2.5q264 0 402 155.5t138 476.5q0 312 -131 462.5t-415 150.5q-45 0 -99.5 -2t-123.5 -7v-529h332v-91z" />
    <glyph glyph-name="dcroat" unicode="&#x111;" horiz-adv-x="1162" 
d="M1115 1114h-153v-619q0 -138 1 -273q0 -51 3.5 -82t17.5 -47.5t41.5 -22.5t77.5 -7l5 -39q-44 -17 -105.5 -34t-83.5 -17q-101 0 -136 114q-155 -115 -301 -115q-185 0 -295.5 129t-110.5 317q0 242 147 375t411 133q64 0 143 -14v202h-356v81h356q-1 88 -4 168l-135 40
l-5 33q178 34 326 71l9 -8q-5 -154 -6 -304h153v-81zM777 820q-67 20 -150 20q-172 0 -262 -95t-90 -287q0 -166 80 -266t226 -100q94 0 196 52v676z" />
    <glyph glyph-name="Emacron" unicode="&#x112;" horiz-adv-x="1189" 
d="M346 1396h243q224 0 473 4l6 -8l-58 -309l-40 -7l-62 231h-462v-550h91q104 0 232 2q26 1 34 26l35 135l54 2q-3 -140 -3 -207q0 -65 3 -204l-54 -4l-36 137q-8 26 -31 27q-130 2 -235 2h-90v-364q0 -111 2 -219h480l122 254l45 8l-22 -348l-7 -7q-259 3 -478 3h-238
q-121 0 -248 -3l-4 43l123 37q25 7 27 31q1 40 1.5 89.5t0.5 109.5v811q0 51 -0.5 92t-1.5 74q-1 26 -24 34l-124 39l-2 43q129 -4 248 -4zM360 1557v109h519v-109h-519zM200 1400z" />
    <glyph glyph-name="emacron" unicode="&#x113;" horiz-adv-x="981" 
d="M902 71q-85 -53 -175 -76t-167 -23q-220 0 -351 125.5t-131 348.5q0 222 125.5 363t335.5 141q176 0 274 -105.5t98 -291.5q0 -28 -3 -57h-634q0 -215 101 -307.5t316 -92.5q96 0 205 18zM712 579v30q0 142 -45.5 203t-135.5 61q-119 0 -182 -86t-71 -208h434zM262 1190
v109h541v-109h-541zM113 928z" />
    <glyph glyph-name="Ebreve" unicode="&#x114;" horiz-adv-x="1189" 
d="M346 1396h243q224 0 473 4l6 -8l-58 -309l-40 -7l-62 231h-462v-550h91q104 0 232 2q26 1 34 26l35 135l54 2q-3 -140 -3 -207q0 -65 3 -204l-54 -4l-36 137q-8 26 -31 27q-130 2 -235 2h-90v-364q0 -111 2 -219h480l122 254l45 8l-22 -348l-7 -7q-259 3 -478 3h-238
q-121 0 -248 -3l-4 43l123 37q25 7 27 31q1 40 1.5 89.5t0.5 109.5v811q0 51 -0.5 92t-1.5 74q-1 26 -24 34l-124 39l-2 43q129 -4 248 -4zM404 1813q15 -79 72 -125.5t147 -46.5q91 0 146.5 45.5t76.5 118.5l64 7q0 -130 -77.5 -217.5t-216.5 -87.5q-130 0 -204 79.5
t-74 219.5zM200 1400z" />
    <glyph glyph-name="ebreve" unicode="&#x115;" horiz-adv-x="981" 
d="M902 71q-85 -53 -175 -76t-167 -23q-220 0 -351 125.5t-131 348.5q0 222 125.5 363t335.5 141q176 0 274 -105.5t98 -291.5q0 -28 -3 -57h-634q0 -215 101 -307.5t316 -92.5q96 0 205 18zM712 579v30q0 142 -45.5 203t-135.5 61q-119 0 -182 -86t-71 -208h434zM328 1395
q14 -98 68 -150t139 -52q86 0 138.5 51t72.5 143l66 7q0 -147 -74.5 -241t-209.5 -94q-126 0 -197 84.5t-71 243.5zM113 928z" />
    <glyph glyph-name="Edotaccent" unicode="&#x116;" horiz-adv-x="1189" 
d="M346 1396h243q224 0 473 4l6 -8l-58 -309l-40 -7l-62 231h-462v-550h91q104 0 232 2q26 1 34 26l35 135l54 2q-3 -140 -3 -207q0 -65 3 -204l-54 -4l-36 137q-8 26 -31 27q-130 2 -235 2h-90v-364q0 -111 2 -219h480l122 254l45 8l-22 -348l-7 -7q-259 3 -478 3h-238
q-121 0 -248 -3l-4 43l123 37q25 7 27 31q1 40 1.5 89.5t0.5 109.5v811q0 51 -0.5 92t-1.5 74q-1 26 -24 34l-124 39l-2 43q129 -4 248 -4zM733 1638q0 -53 -32.5 -85.5t-83.5 -32.5q-48 0 -79 30.5t-31 79.5q0 54 32.5 85t84.5 31q48 0 78.5 -28.5t30.5 -79.5zM200 1400z
" />
    <glyph glyph-name="edotaccent" unicode="&#x117;" horiz-adv-x="981" 
d="M902 71q-85 -53 -175 -76t-167 -23q-220 0 -351 125.5t-131 348.5q0 222 125.5 363t335.5 141q176 0 274 -105.5t98 -291.5q0 -28 -3 -57h-634q0 -215 101 -307.5t316 -92.5q96 0 205 18zM712 579v30q0 142 -45.5 203t-135.5 61q-119 0 -182 -86t-71 -208h434zM648 1304
q0 -53 -33 -86.5t-85 -33.5q-50 0 -81.5 31t-31.5 82q0 54 33.5 85.5t86.5 31.5q50 0 80.5 -28.5t30.5 -81.5zM113 928z" />
    <glyph glyph-name="Eogonek" unicode="&#x118;" horiz-adv-x="1189" 
d="M346 1396h243q224 0 473 4l6 -8l-58 -309l-40 -7l-62 231h-462v-550h91q104 0 232 2q26 1 34 26l35 135l54 2q-3 -140 -3 -207q0 -65 3 -204l-54 -4l-36 137q-8 26 -31 27q-130 2 -235 2h-90v-364q0 -111 2 -219h480l122 254l45 8l-22 -348l-7 -7q-39 1 -76 1
q-80 -3 -132 -59.5t-52 -145.5q0 -93 56 -143.5t158 -50.5q16 0 44 2l5 -39q-139 -52 -210 -52q-101 0 -160 57.5t-59 146.5q0 164 187 285v1h-477q-121 0 -248 -3l-4 43l123 37q25 7 27 31q1 40 1.5 89.5t0.5 109.5v811q0 51 -0.5 92t-1.5 74q-1 26 -24 34l-124 39l-2 43
q129 -4 248 -4z" />
    <glyph glyph-name="eogonek" unicode="&#x119;" horiz-adv-x="981" 
d="M902 -438q-82 -52 -210 -52q-101 0 -160.5 57t-59.5 147q0 132 145 263q-31 -5 -54 -5q-222 0 -353.5 125.5t-131.5 348.5q0 222 125.5 363t335.5 141q176 0 274 -105.5t98 -291.5q0 -28 -3 -57h-634q0 -215 101 -307.5t316 -92.5q96 0 205 18l6 -43q-57 -35 -117 -58
q-70 -29 -108.5 -90.5t-38.5 -133.5q0 -88 56 -139t158 -51q18 0 44 2zM712 579v30q0 142 -45.5 203t-135.5 61q-119 0 -182 -86t-71 -208h434z" />
    <glyph glyph-name="Ecaron" unicode="&#x11a;" horiz-adv-x="1189" 
d="M346 1396h243q224 0 473 4l6 -8l-58 -309l-40 -7l-62 231h-462v-550h91q104 0 232 2q26 1 34 26l35 135l54 2q-3 -140 -3 -207q0 -65 3 -204l-54 -4l-36 137q-8 26 -31 27q-130 2 -235 2h-90v-364q0 -111 2 -219h480l122 254l45 8l-22 -348l-7 -7q-259 3 -478 3h-238
q-121 0 -248 -3l-4 43l123 37q25 7 27 31q1 40 1.5 89.5t0.5 109.5v811q0 51 -0.5 92t-1.5 74q-1 26 -24 34l-124 39l-2 43q129 -4 248 -4zM575 1498l-286 238l26 46l305 -134l304 134l27 -46l-286 -238h-90zM200 1400z" />
    <glyph glyph-name="ecaron" unicode="&#x11b;" horiz-adv-x="981" 
d="M902 71q-85 -53 -175 -76t-167 -23q-220 0 -351 125.5t-131 348.5q0 222 125.5 363t335.5 141q176 0 274 -105.5t98 -291.5q0 -28 -3 -57h-634q0 -215 101 -307.5t316 -92.5q96 0 205 18zM712 579v30q0 142 -45.5 203t-135.5 61q-119 0 -182 -86t-71 -208h434zM243 1417
h76l216 -226l216 226h72l-217 -373h-147zM113 928z" />
    <glyph glyph-name="Gcircumflex" unicode="&#x11c;" horiz-adv-x="1435" 
d="M1183 1051l-40 -6l-69 262q-122 32 -229 32q-250 0 -390 -169.5t-140 -467.5q0 -301 153 -478.5t412 -177.5q87 0 171 22v267q0 50 -0.5 91t-1.5 75q-1 26 -24 33l-124 39l-2 43q129 -3 247 -3q120 0 232 3l5 -43l-109 -32q-24 -8 -26 -31q-1 -40 -1.5 -81.5t-0.5 -89.5
v-320l-6 -7q-204 -49 -375 -49q-351 0 -558.5 186t-207.5 519q0 354 214.5 554.5t587.5 200.5q161 0 338 -41l6 -8zM885 1770l286 -239l-27 -46l-304 135l-305 -135l-26 46l286 239h90zM420 1400z" />
    <glyph glyph-name="gcircumflex" unicode="&#x11d;" horiz-adv-x="1040" 
d="M287 621q0 -130 52.5 -201t152.5 -71q96 0 144.5 66.5t48.5 194.5q0 123 -51.5 194t-153.5 71q-96 0 -144.5 -65t-48.5 -189zM275 -44q-68 -98 -68 -184q0 -88 70.5 -137t192.5 -49q145 0 252.5 64.5t107.5 180.5q0 59 -53 93.5t-201 34.5q-53 0 -114.5 -3t-119.5 -3
q-32 0 -67 3zM796 824q75 -83 75 -198q0 -161 -112 -256.5t-281 -95.5q-96 0 -172 30q-54 -87 -54 -137q0 -27 27.5 -36.5t101.5 -9.5q56 0 131 3t140 3q159 0 251.5 -60.5t92.5 -179.5q0 -180 -169.5 -284t-385.5 -104q-177 0 -282.5 59.5t-105.5 154.5q0 125 163 254
q-103 40 -103 108q0 91 143 254q-156 95 -156 275q0 156 110.5 251t285.5 95q46 0 125 -12q75 -14 117 -14q151 0 278 3l5 -41zM785 1044h-76l-216 226l-216 -226h-72l216 373h147zM75 928z" />
    <glyph glyph-name="Gbreve" unicode="&#x11e;" horiz-adv-x="1435" 
d="M1183 1051l-40 -6l-69 262q-122 32 -229 32q-250 0 -390 -169.5t-140 -467.5q0 -301 153 -478.5t412 -177.5q87 0 171 22v267q0 50 -0.5 91t-1.5 75q-1 26 -24 33l-124 39l-2 43q129 -3 247 -3q120 0 232 3l5 -43l-109 -32q-24 -8 -26 -31q-1 -40 -1.5 -81.5t-0.5 -89.5
v-320l-6 -7q-204 -49 -375 -49q-351 0 -558.5 186t-207.5 519q0 354 214.5 554.5t587.5 200.5q161 0 338 -41l6 -8zM624 1813q15 -79 72 -125.5t147 -46.5q91 0 146.5 45.5t76.5 118.5l64 7q0 -130 -77.5 -217.5t-216.5 -87.5q-130 0 -204 79.5t-74 219.5zM420 1400z" />
    <glyph glyph-name="gbreve" unicode="&#x11f;" horiz-adv-x="1040" 
d="M287 621q0 -130 52.5 -201t152.5 -71q96 0 144.5 66.5t48.5 194.5q0 123 -51.5 194t-153.5 71q-96 0 -144.5 -65t-48.5 -189zM275 -44q-68 -98 -68 -184q0 -88 70.5 -137t192.5 -49q145 0 252.5 64.5t107.5 180.5q0 59 -53 93.5t-201 34.5q-53 0 -114.5 -3t-119.5 -3
q-32 0 -67 3zM796 824q75 -83 75 -198q0 -161 -112 -256.5t-281 -95.5q-96 0 -172 30q-54 -87 -54 -137q0 -27 27.5 -36.5t101.5 -9.5q56 0 131 3t140 3q159 0 251.5 -60.5t92.5 -179.5q0 -180 -169.5 -284t-385.5 -104q-177 0 -282.5 59.5t-105.5 154.5q0 125 163 254
q-103 40 -103 108q0 91 143 254q-156 95 -156 275q0 156 110.5 251t285.5 95q46 0 125 -12q75 -14 117 -14q151 0 278 3l5 -41zM290 1395q14 -98 68 -150t139 -52q86 0 138.5 51t72.5 143l66 7q0 -147 -74.5 -241t-209.5 -94q-126 0 -197 84.5t-71 243.5zM75 928z" />
    <glyph glyph-name="Gdotaccent" unicode="&#x120;" horiz-adv-x="1435" 
d="M1183 1051l-40 -6l-69 262q-122 32 -229 32q-250 0 -390 -169.5t-140 -467.5q0 -301 153 -478.5t412 -177.5q87 0 171 22v267q0 50 -0.5 91t-1.5 75q-1 26 -24 33l-124 39l-2 43q129 -3 247 -3q120 0 232 3l5 -43l-109 -32q-24 -8 -26 -31q-1 -40 -1.5 -81.5t-0.5 -89.5
v-320l-6 -7q-204 -49 -375 -49q-351 0 -558.5 186t-207.5 519q0 354 214.5 554.5t587.5 200.5q161 0 338 -41l6 -8zM953 1638q0 -53 -32.5 -85.5t-83.5 -32.5q-48 0 -79 30.5t-31 79.5q0 54 32.5 85t84.5 31q48 0 78.5 -28.5t30.5 -79.5zM420 1400z" />
    <glyph glyph-name="gdotaccent" unicode="&#x121;" horiz-adv-x="1040" 
d="M287 621q0 -130 52.5 -201t152.5 -71q96 0 144.5 66.5t48.5 194.5q0 123 -51.5 194t-153.5 71q-96 0 -144.5 -65t-48.5 -189zM275 -44q-68 -98 -68 -184q0 -88 70.5 -137t192.5 -49q145 0 252.5 64.5t107.5 180.5q0 59 -53 93.5t-201 34.5q-53 0 -114.5 -3t-119.5 -3
q-32 0 -67 3zM796 824q75 -83 75 -198q0 -161 -112 -256.5t-281 -95.5q-96 0 -172 30q-54 -87 -54 -137q0 -27 27.5 -36.5t101.5 -9.5q56 0 131 3t140 3q159 0 251.5 -60.5t92.5 -179.5q0 -180 -169.5 -284t-385.5 -104q-177 0 -282.5 59.5t-105.5 154.5q0 125 163 254
q-103 40 -103 108q0 91 143 254q-156 95 -156 275q0 156 110.5 251t285.5 95q46 0 125 -12q75 -14 117 -14q151 0 278 3l5 -41zM610 1304q0 -53 -33 -86.5t-85 -33.5q-50 0 -81.5 31t-31.5 82q0 54 33.5 85.5t86.5 31.5q50 0 80.5 -28.5t30.5 -81.5zM75 928z" />
    <glyph glyph-name="uni0122" unicode="&#x122;" horiz-adv-x="1435" 
d="M1183 1051l-40 -6l-69 262q-122 32 -229 32q-250 0 -390 -169.5t-140 -467.5q0 -301 153 -478.5t412 -177.5q87 0 171 22v267q0 50 -0.5 91t-1.5 75q-1 26 -24 33l-124 39l-2 43q129 -3 247 -3q120 0 232 3l5 -43l-109 -32q-24 -8 -26 -31q-1 -40 -1.5 -81.5t-0.5 -89.5
v-320l-6 -7q-204 -49 -375 -49q-351 0 -558.5 186t-207.5 519q0 354 214.5 554.5t587.5 200.5q161 0 338 -41l6 -8zM708 -448q96 78 96 151q0 67 -74 110q0 45 29 72.5t71 27.5q50 0 81.5 -35.5t31.5 -89.5q0 -145 -200 -274z" />
    <glyph glyph-name="uni0123" unicode="&#x123;" horiz-adv-x="1040" 
d="M287 621q0 -130 52.5 -201t152.5 -71q96 0 144.5 66.5t48.5 194.5q0 123 -51.5 194t-153.5 71q-96 0 -144.5 -65t-48.5 -189zM275 -44q-68 -98 -68 -184q0 -88 70.5 -137t192.5 -49q145 0 252.5 64.5t107.5 180.5q0 59 -53 93.5t-201 34.5q-53 0 -114.5 -3t-119.5 -3
q-32 0 -67 3zM796 824q75 -83 75 -198q0 -161 -112 -256.5t-281 -95.5q-96 0 -172 30q-54 -87 -54 -137q0 -27 27.5 -36.5t101.5 -9.5q56 0 131 3t140 3q159 0 251.5 -60.5t92.5 -179.5q0 -180 -169.5 -284t-385.5 -104q-177 0 -282.5 59.5t-105.5 154.5q0 125 163 254
q-103 40 -103 108q0 91 143 254q-156 95 -156 275q0 156 110.5 251t285.5 95q46 0 125 -12q75 -14 117 -14q151 0 278 3l5 -41zM617 1411q-96 -78 -96 -151q0 -67 74 -110q0 -45 -29 -72.5t-71 -27.5q-50 0 -81.5 35.5t-31.5 89.5q0 145 200 274z" />
    <glyph glyph-name="Hcircumflex" unicode="&#x124;" horiz-adv-x="1620" 
d="M446 692v-385q0 -118 2 -198q1 -27 26 -34l111 -35l3 -43q-119 3 -238 3t-248 -3l-4 43l123 37q26 8 27 31q2 81 2 199v811q0 100 -2 166q-1 26 -24 34l-124 39l-2 43q129 -4 248 -4q120 0 237 4l5 -43l-114 -35q-25 -6 -26 -31q-2 -72 -2 -169v-339h728v339q0 97 -2 169
q-1 25 -26 31l-111 35l-2 43q122 -4 241 -4t244 4l4 -43l-126 -39q-23 -8 -24 -34q-2 -66 -2 -166v-811q0 -118 2 -199q1 -23 27 -31l121 -37l2 -43q-132 3 -252 3q-119 0 -233 -3l-4 43l113 35q25 7 26 34q2 80 2 198v385h-728zM855 1770l286 -239l-27 -46l-304 135
l-305 -135l-26 46l286 239h90zM390 1400z" />
    <glyph glyph-name="hcircumflex" unicode="&#x125;" horiz-adv-x="1187" 
d="M51 1436q163 32 326 71l9 -8q-5 -94 -5.5 -268t-0.5 -393q174 112 324 112q139 0 221 -77.5t82 -227.5v-353q0 -115 2 -185q1 -26 25 -35l112 -34l2 -41q-132 3 -230 3t-218 -3l-4 41l99 29q24 8 26 31q1 14 1 63v436q0 123 -59 176.5t-174 53.5q-99 0 -209 -48v-449
q0 -124 2 -227q1 -28 25 -35l104 -30l2 -41q-126 3 -224 3t-232 -3l-4 41l113 33q26 8 27 32q2 96 2 245v418q0 204 -0.5 361t-3.5 236l-135 40zM327 1823l286 -239l-27 -46l-304 135l-305 -135l-26 46l286 239h90zM-138 1453z" />
    <glyph glyph-name="Hbar" unicode="&#x126;" horiz-adv-x="1620" 
d="M1522 1004h-152v-697q0 -118 2 -199q1 -23 27 -31l121 -37l2 -43q-132 3 -252 3q-119 0 -233 -3l-4 43l113 35q25 7 26 34q2 80 2 198v374h-728v-374q0 -118 2 -198q1 -27 26 -34l111 -35l3 -43q-119 3 -238 3t-248 -3l-4 43l123 37q26 8 27 31q2 81 2 199v697h-152v89
h152v25q0 100 -2 166q-1 26 -24 34l-124 39l-2 43q129 -4 248 -4q120 0 237 4l5 -43l-114 -35q-25 -6 -26 -31q-2 -72 -2 -169v-29h728v29q0 97 -2 169q-1 25 -26 31l-111 35l-2 43q122 -4 241 -4t244 4l4 -43l-126 -39q-23 -8 -24 -34q-2 -66 -2 -166v-25h152v-89z
M1174 773v231h-728v-231h728z" />
    <glyph glyph-name="hbar" unicode="&#x127;" horiz-adv-x="1187" 
d="M735 1114h-355v-302q174 112 324 112q139 0 221 -77.5t82 -228.5v-326q0 -115 2 -185q1 -26 25 -35l112 -34l2 -41q-132 3 -230 3t-218 -3l-4 41l99 29q24 8 26 31q1 14 1 63v410q0 123 -59 176.5t-174 53.5q-99 0 -209 -48v-423q0 -124 2 -227q1 -28 25 -35l104 -30
l2 -41q-126 3 -224 3t-232 -3l-4 41l113 33q26 8 27 32q2 96 2 245v766h-154v81h153q-1 102 -3 168l-135 40l-5 33q163 32 326 71l9 -8q-5 -94 -6 -268v-36h355v-81z" />
    <glyph glyph-name="Itilde" unicode="&#x128;" horiz-adv-x="696" 
d="M446 307q0 -60 0.5 -109t1.5 -89q1 -25 35 -34l113 -35l2 -43q-129 3 -248 3q-121 0 -248 -3l-4 43l123 37q25 7 27 31q1 40 1.5 89.5t0.5 109.5v811q0 51 -0.5 92t-1.5 74q-1 26 -24 34l-124 39l-2 43q129 -4 248 -4q120 0 248 4l4 -43l-124 -37q-24 -6 -26 -31
q-1 -35 -1.5 -76.5t-0.5 -90.5v-815zM685 1724q-114 -199 -224 -199q-36 0 -67.5 14.5t-69.5 37.5q-36 20 -59 32.5t-48 12.5q-28 0 -52.5 -17t-81.5 -79l-50 39q69 107 117.5 151t102.5 44q31 0 56.5 -10t73.5 -38q44 -24 67.5 -36.5t49.5 -12.5q31 0 53.5 16t78.5 80z
M-71 1400z" />
    <glyph glyph-name="itilde" unicode="&#x129;" horiz-adv-x="580" 
d="M58 880q175 33 324 70l9 -7q-6 -130 -6 -286v-384q0 -120 2 -166q2 -27 25 -35l116 -34l2 -41q-138 3 -236 3t-233 -3l-4 41l116 34q23 8 25 31q2 39 2 131v334q0 131 -4 242l-133 36zM617 1322q-118 -207 -232 -207q-38 0 -70.5 15t-71.5 39q-38 21 -61.5 34t-49.5 13
q-29 0 -54.5 -17.5t-84.5 -82.5l-52 41q72 111 122 156.5t106 45.5q32 0 58.5 -10.5t76.5 -39.5q45 -25 69.5 -38t51.5 -13q32 0 55.5 17t81.5 83zM-151 928z" />
    <glyph glyph-name="Imacron" unicode="&#x12a;" horiz-adv-x="696" 
d="M446 307q0 -60 0.5 -109t1.5 -89q1 -25 35 -34l113 -35l2 -43q-129 3 -248 3q-121 0 -248 -3l-4 43l123 37q25 7 27 31q1 40 1.5 89.5t0.5 109.5v811q0 51 -0.5 92t-1.5 74q-1 26 -24 34l-124 39l-2 43q129 -4 248 -4q120 0 248 4l4 -43l-124 -37q-24 -6 -26 -31
q-1 -35 -1.5 -76.5t-0.5 -90.5v-815zM89 1557v109h519v-109h-519zM-71 1400z" />
    <glyph glyph-name="imacron" unicode="&#x12b;" horiz-adv-x="580" 
d="M58 880q175 33 324 70l9 -7q-6 -130 -6 -286v-384q0 -120 2 -166q2 -27 25 -35l116 -34l2 -41q-138 3 -236 3t-233 -3l-4 41l116 34q23 8 25 31q2 39 2 131v334q0 131 -4 242l-133 36zM-2 1190v109h541v-109h-541zM-151 928z" />
    <glyph glyph-name="Ibreve" unicode="&#x12c;" horiz-adv-x="696" 
d="M446 307q0 -60 0.5 -109t1.5 -89q1 -25 35 -34l113 -35l2 -43q-129 3 -248 3q-121 0 -248 -3l-4 43l123 37q25 7 27 31q1 40 1.5 89.5t0.5 109.5v811q0 51 -0.5 92t-1.5 74q-1 26 -24 34l-124 39l-2 43q129 -4 248 -4q120 0 248 4l4 -43l-124 -37q-24 -6 -26 -31
q-1 -35 -1.5 -76.5t-0.5 -90.5v-815zM133 1813q15 -79 72 -125.5t147 -46.5q91 0 146.5 45.5t76.5 118.5l64 7q0 -130 -77.5 -217.5t-216.5 -87.5q-130 0 -204 79.5t-74 219.5zM-71 1400z" />
    <glyph glyph-name="ibreve" unicode="&#x12d;" horiz-adv-x="580" 
d="M58 880q175 33 324 70l9 -7q-6 -130 -6 -286v-384q0 -120 2 -166q2 -27 25 -35l116 -34l2 -41q-138 3 -236 3t-233 -3l-4 41l116 34q23 8 25 31q2 39 2 131v334q0 131 -4 242l-133 36zM64 1395q14 -98 68 -150t139 -52q86 0 138.5 51t72.5 143l66 7q0 -147 -74.5 -241
t-209.5 -94q-126 0 -197 84.5t-71 243.5zM-151 928z" />
    <glyph glyph-name="Iogonek" unicode="&#x12e;" horiz-adv-x="692" 
d="M444 307q0 -60 0.5 -109t1.5 -89q1 -25 35 -34l113 -35l2 -43q-39 1 -76 2q-78 -4 -129 -58q-53 -59 -53 -148q0 -93 56 -143.5t158 -50.5q16 0 44 2l5 -39q-139 -52 -210 -52q-102 0 -160.5 57.5t-58.5 146.5q0 164 187 285v1q-132 0 -259 -3l-4 43l123 37q25 7 27 31
q1 40 1.5 89.5t0.5 109.5v811q0 51 -0.5 92t-1.5 74q-1 26 -24 34l-124 39l-2 43q129 -4 248 -4q120 0 248 4l4 -43l-124 -37q-24 -6 -26 -31q-1 -35 -1.5 -76.5t-0.5 -90.5v-815z" />
    <glyph glyph-name="iogonek" unicode="&#x12f;" horiz-adv-x="580" 
d="M535 -438q-140 -52 -210 -52q-102 0 -161 57.5t-59 146.5q0 164 187 286q-98 0 -231 -3l-4 41l116 34q24 9 25 31q1 20 1.5 52t0.5 79v334q0 66 -1 126t-3 116l-133 36l-5 34q88 17 168 34.5t156 35.5l9 -7q-6 -131 -6 -286v-384q0 -60 0.5 -101.5t1.5 -64.5
q1 -27 25 -35l116 -34l2 -41q-31 2 -61 2q-89 0 -143.5 -58.5t-54.5 -147.5q0 -93 56.5 -143.5t158.5 -50.5q15 0 44 2zM391 1304q0 -53 -32.5 -86.5t-86.5 -33.5q-50 0 -81 31t-31 82q0 54 33 85.5t87 31.5q50 0 80.5 -28t30.5 -82z" />
    <glyph glyph-name="Idotaccent" unicode="&#x130;" horiz-adv-x="696" 
d="M446 307q0 -60 0.5 -109t1.5 -89q1 -25 35 -34l113 -35l2 -43q-129 3 -248 3q-121 0 -248 -3l-4 43l123 37q25 7 27 31q1 40 1.5 89.5t0.5 109.5v811q0 51 -0.5 92t-1.5 74q-1 26 -24 34l-124 39l-2 43q129 -4 248 -4q120 0 248 4l4 -43l-124 -37q-24 -6 -26 -31
q-1 -35 -1.5 -76.5t-0.5 -90.5v-815zM462 1638q0 -53 -32.5 -85.5t-83.5 -32.5q-48 0 -79 30.5t-31 79.5q0 54 32.5 85t84.5 31q48 0 78.5 -28.5t30.5 -79.5zM-71 1400z" />
    <glyph glyph-name="dotlessi" unicode="&#x131;" horiz-adv-x="580" 
d="M58 880q175 33 324 70l9 -7q-6 -130 -6 -286v-384q0 -120 2 -166q2 -27 25 -35l116 -34l2 -41q-138 3 -236 3t-233 -3l-4 41l116 34q23 8 25 31q2 39 2 131v334q0 131 -4 242l-133 36z" />
    <glyph glyph-name="IJ" unicode="&#x132;" horiz-adv-x="1336" 
d="M446 307q0 -60 0.5 -109t1.5 -89q1 -25 35 -34l113 -35l2 -43q-129 3 -248 3q-121 0 -248 -3l-4 43l123 37q25 7 27 31q1 40 1.5 89.5t0.5 109.5v811q0 51 -0.5 92t-1.5 74q-1 26 -24 34l-124 39l-2 43q129 -4 248 -4q120 0 248 4l4 -43l-124 -37q-24 -6 -26 -31
q-1 -35 -1.5 -76.5t-0.5 -90.5v-815zM779 1400q129 -4 248 -4t247 4l5 -43l-124 -37q-25 -6 -27 -31q-1 -35 -1.5 -76.5t-0.5 -90.5v-906q0 -98 -7.5 -178.5t-26.5 -143.5t-53.5 -112.5t-87.5 -88t-128 -67.5t-178 -53l-15 50q104 44 163.5 97t90 121t39 153t8.5 192v932
q0 51 -0.5 92t-1.5 74q-1 26 -24 34l-124 39z" />
    <glyph glyph-name="ij" unicode="&#x133;" horiz-adv-x="1123" 
d="M396 1304q0 -53 -33 -86.5t-85 -33.5q-50 0 -81.5 31t-31.5 82q0 54 33 85.5t87 31.5q49 0 80 -28.5t31 -81.5zM58 880q175 33 324 70l9 -7q-6 -130 -6 -286v-384q0 -120 2 -166q2 -27 25 -35l116 -34l2 -41q-138 3 -236 3t-233 -3l-4 41l116 34q23 8 25 31q2 39 2 131
v334q0 131 -4 242l-133 36zM624 880q172 33 321 70l9 -7q-6 -130 -6 -286v-568q0 -197 -75.5 -310.5t-265.5 -281.5l-46 41q148 195 176 288t28 237v505q0 121 -4 242l-132 36zM954 1304q0 -53 -33 -86.5t-85 -33.5q-50 0 -81.5 31t-31.5 82q0 54 33.5 85.5t86.5 31.5
q50 0 80.5 -28.5t30.5 -81.5z" />
    <glyph glyph-name="Jcircumflex" unicode="&#x134;" horiz-adv-x="640" 
d="M83 1400q129 -4 248 -4t247 4l5 -43l-124 -37q-25 -6 -27 -31q-1 -35 -1.5 -76.5t-0.5 -90.5v-906q0 -98 -7.5 -178.5t-26.5 -143.5t-53.5 -112.5t-87.5 -88t-128 -67.5t-178 -53l-15 50q104 44 163.5 97t90 121t39 153t8.5 192v932q0 51 -0.5 92t-1.5 74q-1 26 -24 34
l-124 39zM380 1770l286 -239l-27 -46l-304 135l-305 -135l-26 46l286 239h90zM-85 1400z" />
    <glyph glyph-name="jcircumflex" unicode="&#x135;" horiz-adv-x="543" 
d="M44 880q172 33 321 70l9 -7q-6 -130 -6 -286v-568q0 -197 -75.5 -310.5t-265.5 -281.5l-46 41q148 195 176 288t28 237v505q0 121 -4 242l-132 36zM554 1044h-76l-216 226l-216 -226h-72l217 373h147z" />
    <glyph glyph-name="uni0136" unicode="&#x136;" horiz-adv-x="1350" 
d="M446 1122v-815q0 -60 0.5 -109t1.5 -89q1 -26 26 -34l111 -35l3 -43q-119 3 -238 3q-121 0 -248 -3l-4 43l123 37q26 8 27 31q1 40 1.5 89.5t0.5 109.5v811q0 51 -0.5 92t-1.5 74q-1 26 -24 34l-124 39l-2 43q129 -4 248 -4t237 4l5 -43l-114 -35q-24 -6 -26 -31
q-1 -36 -1.5 -78t-0.5 -91zM472 708l403 449q47 53 76 89.5t29 58.5q0 20 -27 27l-82 22l-2 46q99 -4 221 -4q117 0 220 4l4 -43l-101 -32q-46 -15 -79.5 -46t-71.5 -73l-400 -440l455 -600q29 -38 57 -61.5t73 -36.5l91 -28l2 -43q-84 3 -213 3q-34 0 -69 -0.5t-70 -1.5
q-35 72 -185 271zM598 -448q96 78 96 151q0 67 -74 110q0 45 29 72.5t71 27.5q50 0 81.5 -35.5t31.5 -89.5q0 -145 -200 -274z" />
    <glyph glyph-name="uni0137" unicode="&#x137;" horiz-adv-x="1095" 
d="M1105 -3q-134 3 -199 3q-43 0 -114 -2q-37 61 -88 131q-138 193 -297 377l361 350l-111 31l-4 40q129 -3 190 -3q55 0 209 3l4 -41q-101 -26 -145 -45.5t-103 -74.5l-214 -198l322 -402q54 -67 84.5 -89t102.5 -39zM56 1403l-5 33q177 34 326 71l9 -8q-6 -146 -6 -453
v-654q0 -148 2 -290q2 -29 26 -35l97 -29l2 -41q-120 3 -218 3t-232 -3l-4 41l118 35q20 7 22 30q2 113 2 252v411q0 519 -4 597zM458 -448q96 78 96 151q0 67 -74 110q0 45 29 72.5t71 27.5q50 0 81.5 -35.5t31.5 -89.5q0 -145 -200 -274z" />
    <glyph glyph-name="kgreenlandic" unicode="&#x138;" horiz-adv-x="1100" 
d="M1110 -3q-134 3 -199 3q-43 0 -114 -2q-37 61 -88 131q-138 193 -297 377l361 350l-111 31l-4 40q129 -3 190 -3q55 0 209 3l4 -41q-101 -26 -145 -45.5t-103 -74.5l-214 -198l322 -402q54 -67 84.5 -89t102.5 -39zM385 392q0 -148 2 -290q0 -27 26 -35l97 -29l2 -41
q-120 3 -218 3t-232 -3l-4 41l118 35q20 7 22 30q2 113 2 252v213q0 131 -4 242l-133 36l-5 34q175 33 324 70l9 -7q-6 -130 -6 -286v-265z" />
    <glyph glyph-name="Lacute" unicode="&#x139;" horiz-adv-x="1138" 
d="M446 1122v-813q0 -111 2 -219h487l128 265l45 7l-22 -358l-6 -7q-259 3 -479 3h-251q-121 0 -248 -3l-4 43l123 37q25 7 27 31q1 40 1.5 89.5t0.5 109.5v811q0 51 -0.5 92t-1.5 74q-1 26 -24 34l-124 39l-2 43q129 -4 248 -4q120 0 248 4l4 -43l-124 -37q-24 -6 -26 -31
q-1 -35 -1.5 -102t-0.5 -65zM590 1653l-436 -157l-27 46l326 244l137 -118v-15zM-71 1400z" />
    <glyph glyph-name="lacute" unicode="&#x13a;" horiz-adv-x="575" 
d="M56 1403l-5 33q177 34 326 71l9 -8q-6 -163 -6 -453v-651q0 -179 2 -288q3 -29 28 -36l109 -33l3 -41q-135 3 -233 3t-232 -3l-4 41l113 33q25 8 27 32q2 113 2 252v411q0 372 -4 597zM523 1706l-436 -157l-27 46l326 244l137 -118v-15zM-138 1453z" />
    <glyph glyph-name="uni013B" unicode="&#x13b;" horiz-adv-x="1138" 
d="M446 1122v-813q0 -111 2 -219h487l128 265l45 7l-22 -358l-6 -7q-259 3 -479 3h-251q-121 0 -248 -3l-4 43l123 37q25 7 27 31q1 40 1.5 89.5t0.5 109.5v811q0 51 -0.5 92t-1.5 74q-1 26 -24 34l-124 39l-2 43q129 -4 248 -4q120 0 248 4l4 -43l-124 -37q-24 -6 -26 -31
q-1 -35 -1.5 -102t-0.5 -65zM488 -448q96 78 96 151q0 67 -74 110q0 45 29 72.5t71 27.5q50 0 81.5 -35.5t31.5 -89.5q0 -145 -200 -274z" />
    <glyph glyph-name="uni013C" unicode="&#x13c;" horiz-adv-x="575" 
d="M56 1403l-5 33q177 34 326 71l9 -8q-6 -163 -6 -453v-651q0 -179 2 -288q3 -29 28 -36l109 -33l3 -41q-135 3 -233 3t-232 -3l-4 41l113 33q25 8 27 32q2 113 2 252v411q0 372 -4 597zM168 -448q96 78 96 151q0 67 -74 110q0 45 29 72.5t71 27.5q50 0 81.5 -35.5
t31.5 -89.5q0 -145 -200 -274z" />
    <glyph glyph-name="Lcaron" unicode="&#x13d;" horiz-adv-x="1138" 
d="M446 1122v-813q0 -111 2 -219h487l128 265l45 7l-22 -358l-6 -7q-259 3 -479 3h-251q-121 0 -248 -3l-4 43l123 37q25 7 27 31q1 40 1.5 89.5t0.5 109.5v811q0 51 -0.5 92t-1.5 74q-1 26 -24 34l-124 39l-2 43q129 -4 248 -4q120 0 248 4l4 -43l-124 -37q-24 -6 -26 -31
q-1 -35 -1.5 -102t-0.5 -65zM733 965q95 101 95 198q0 85 -95 136q0 50 31.5 79t81.5 29q55 0 89 -39.5t34 -110.5q0 -84 -50 -168t-151 -162zM820 859z" />
    <glyph glyph-name="lcaron" unicode="&#x13e;" horiz-adv-x="694" 
d="M56 1403l-5 33q177 34 326 71l9 -8q-6 -163 -6 -453v-651q0 -179 2 -288q3 -29 28 -36l109 -33l3 -41q-135 3 -233 3t-232 -3l-4 41l113 33q25 8 27 32q2 113 2 252v411q0 372 -4 597zM488 1034q95 101 95 198q0 85 -95 136q0 50 31.5 79t81.5 29q55 0 89 -39.5
t34 -110.5q0 -84 -50 -168t-151 -162zM575 928z" />
    <glyph glyph-name="Ldot" unicode="&#x13f;" horiz-adv-x="1138" 
d="M446 1122v-813q0 -111 2 -219h487l128 265l45 7l-22 -358l-6 -7q-259 3 -479 3h-251q-121 0 -248 -3l-4 43l123 37q25 7 27 31q1 40 1.5 89.5t0.5 109.5v811q0 51 -0.5 92t-1.5 74q-1 26 -24 34l-124 39l-2 43q129 -4 248 -4q120 0 248 4l4 -43l-124 -37q-24 -6 -26 -31
q-1 -35 -1.5 -102t-0.5 -65zM1032 727q0 -53 -33 -86.5t-85 -33.5q-50 0 -81.5 31t-31.5 82q0 54 33.5 85.5t86.5 31.5q50 0 80.5 -28.5t30.5 -81.5zM497 351z" />
    <glyph glyph-name="ldot" unicode="&#x140;" horiz-adv-x="706" 
d="M56 1403l-5 33q177 34 326 71l9 -8q-6 -163 -6 -453v-651q0 -179 2 -288q3 -29 28 -36l109 -33l3 -41q-135 3 -233 3t-232 -3l-4 41l113 33q25 8 27 32q2 113 2 252v411q0 372 -4 597zM756 727q0 -53 -33 -86.5t-85 -33.5q-50 0 -81.5 31t-31.5 82q0 54 33.5 85.5
t86.5 31.5q50 0 80.5 -28.5t30.5 -81.5zM221 351z" />
    <glyph glyph-name="Lslash" unicode="&#x141;" horiz-adv-x="1138" 
d="M888 833l-442 -140v-384q0 -111 2 -219h487l128 265l45 7l-22 -358l-6 -7q-259 3 -479 3h-251q-121 0 -248 -3l-4 43l123 37q25 7 27 31q1 40 1.5 89.5t0.5 109.5v325l-153 -48l-5 91l158 49v394q0 51 -0.5 92t-1.5 74q-1 26 -24 34l-124 39l-2 43q129 -4 248 -4
q120 0 248 4l4 -43l-124 -37q-24 -6 -26 -31q-1 -35 -1.5 -102t-0.5 -65v-336l437 138z" />
    <glyph glyph-name="lslash" unicode="&#x142;" horiz-adv-x="575" 
d="M26 763l169 54q0 331 -4 546l-134 40l-5 33q176 34 325 71l10 -8q-7 -163 -7 -453v-172l165 52l5 -88l-170 -54v-389q0 -179 2 -288q4 -29 29 -36l109 -33l2 -41q-134 3 -232 3q-99 0 -232 -3l-4 41l112 33q25 8 27 32q2 113 2 252v371l-164 -53z" />
    <glyph glyph-name="Nacute" unicode="&#x143;" horiz-adv-x="1534" 
d="M341 1115v-808q0 -118 2 -196q1 -28 25 -34l119 -35l2 -45q-125 3 -205 3q-78 0 -207 -3l-4 43l123 37q26 8 27 31q2 81 2 199v811q0 100 -2 166q-1 26 -24 34l-124 39l-2 43q129 -4 204 -4q45 0 91 4l840 -1049v771q0 97 -2 167q-1 23 -26 31l-118 34l-2 46
q128 -4 207 -4q80 0 205 4l4 -43l-126 -39q-23 -8 -24 -34q-2 -66 -2 -166v-1118l-84 -8zM1021 1653l-436 -157l-27 46l326 244l137 -118v-15zM360 1400z" />
    <glyph glyph-name="nacute" unicode="&#x144;" horiz-adv-x="1192" 
d="M58 880q168 32 317 70l10 -7v-116q174 123 324 123q142 0 222.5 -79.5t80.5 -225.5v-353q0 -125 2 -185q1 -27 26 -35l111 -34l2 -41q-132 3 -230 3t-218 -3l-4 41l100 29q23 8 25 31q1 14 1 63v436q0 123 -59 176.5t-174 53.5q-101 0 -209 -58v-437q0 -125 2 -229
q1 -27 23 -34l104 -31l2 -41q-124 3 -222 3t-232 -3l-4 41l118 34q22 9 23 31q1 64 1 123v341q0 131 -4 243l-133 36zM642 1417h200l-238 -373h-68zM174 928z" />
    <glyph glyph-name="uni0145" unicode="&#x145;" horiz-adv-x="1534" 
d="M341 1115v-808q0 -118 2 -196q1 -28 25 -34l119 -35l2 -45q-125 3 -205 3q-78 0 -207 -3l-4 43l123 37q26 8 27 31q2 81 2 199v811q0 100 -2 166q-1 26 -24 34l-124 39l-2 43q129 -4 204 -4q45 0 91 4l840 -1049v771q0 97 -2 167q-1 23 -26 31l-118 34l-2 46
q128 -4 207 -4q80 0 205 4l4 -43l-126 -39q-23 -8 -24 -34q-2 -66 -2 -166v-1118l-84 -8zM658 -448q96 78 96 151q0 67 -74 110q0 45 29 72.5t71 27.5q50 0 81.5 -35.5t31.5 -89.5q0 -145 -200 -274z" />
    <glyph glyph-name="uni0146" unicode="&#x146;" horiz-adv-x="1192" 
d="M58 880q168 32 317 70l10 -7v-116q174 123 324 123q142 0 222.5 -79.5t80.5 -225.5v-353q0 -125 2 -185q1 -27 26 -35l111 -34l2 -41q-132 3 -230 3t-218 -3l-4 41l100 29q23 8 25 31q1 14 1 63v436q0 123 -59 176.5t-174 53.5q-101 0 -209 -58v-437q0 -125 2 -229
q1 -27 23 -34l104 -31l2 -41q-124 3 -222 3t-232 -3l-4 41l118 34q22 9 23 31q1 64 1 123v341q0 131 -4 243l-133 36zM483 -448q96 78 96 151q0 67 -74 110q0 45 29 72.5t71 27.5q50 0 81.5 -35.5t31.5 -89.5q0 -145 -200 -274z" />
    <glyph glyph-name="Ncaron" unicode="&#x147;" horiz-adv-x="1534" 
d="M341 1115v-808q0 -118 2 -196q1 -28 25 -34l119 -35l2 -45q-125 3 -205 3q-78 0 -207 -3l-4 43l123 37q26 8 27 31q2 81 2 199v811q0 100 -2 166q-1 26 -24 34l-124 39l-2 43q129 -4 204 -4q45 0 91 4l840 -1049v771q0 97 -2 167q-1 23 -26 31l-118 34l-2 46
q128 -4 207 -4q80 0 205 4l4 -43l-126 -39q-23 -8 -24 -34q-2 -66 -2 -166v-1118l-84 -8zM735 1498l-286 238l26 46l305 -134l304 134l27 -46l-286 -238h-90zM360 1400z" />
    <glyph glyph-name="ncaron" unicode="&#x148;" horiz-adv-x="1192" 
d="M58 880q168 32 317 70l10 -7v-116q174 123 324 123q142 0 222.5 -79.5t80.5 -225.5v-353q0 -125 2 -185q1 -27 26 -35l111 -34l2 -41q-132 3 -230 3t-218 -3l-4 41l100 29q23 8 25 31q1 14 1 63v436q0 123 -59 176.5t-174 53.5q-101 0 -209 -58v-437q0 -125 2 -229
q1 -27 23 -34l104 -31l2 -41q-124 3 -222 3t-232 -3l-4 41l118 34q22 9 23 31q1 64 1 123v341q0 131 -4 243l-133 36zM304 1417h76l216 -226l216 226h72l-217 -373h-147zM174 928z" />
    <glyph glyph-name="napostrophe" unicode="&#x149;" horiz-adv-x="1417" 
d="M283 880q168 32 317 70l10 -7v-116q174 123 324 123q142 0 222.5 -79.5t80.5 -225.5v-353q0 -125 2 -185q1 -27 26 -35l111 -34l2 -41q-132 3 -230 3t-218 -3l-4 41l100 29q23 8 25 31q1 14 1 63v436q0 123 -59 176.5t-174 53.5q-101 0 -209 -58v-437q0 -125 2 -229
q1 -27 23 -34l104 -31l2 -41q-124 3 -222 3t-232 -3l-4 41l118 34q22 9 23 31q1 64 1 123v341q0 131 -4 243l-133 36zM31 1024q125 110 125 216q0 93 -97 149q0 54 32 86t83 32q57 0 91.5 -43.5t34.5 -109.5q0 -103 -58 -194.5t-175 -177.5z" />
    <glyph glyph-name="Eng" unicode="&#x14a;" horiz-adv-x="1534" 
d="M341 1115v-808q0 -60 0.5 -108.5t1.5 -87.5q1 -28 25 -34l119 -35l2 -45q-125 3 -205 3q-78 0 -207 -3l-4 43l123 37q26 8 27 31q1 42 1.5 90.5t0.5 108.5v811q0 51 -0.5 92t-1.5 74q-1 26 -24 34l-124 39l-2 43q66 -2 116 -3t88 -1q23 0 45.5 1t45.5 3l840 -1049v771
q0 49 -0.5 90.5t-1.5 76.5q-1 23 -26 31l-118 34l-2 46q64 -2 115.5 -3t91.5 -1t91 1t114 3l4 -43l-126 -39q-23 -8 -24 -34q-1 -33 -1.5 -74t-0.5 -92v-912q0 -210 -13.5 -301.5t-45 -164t-104 -118t-183.5 -45.5q-51 0 -106 10q16 105 37 195l9 5q92 -20 149 -20
q73 0 103 51t39 213z" />
    <glyph glyph-name="eng" unicode="&#x14b;" horiz-adv-x="1156" 
d="M385 769v-437q0 -63 0.5 -120t1.5 -109q1 -27 23 -34l104 -31l2 -41q-125 3 -222 3q-99 0 -232 -3l-4 41l118 34q22 9 23 31q1 32 1 63v60v341q0 66 -1 126t-3 117l-133 36l-5 34q85 16 163.5 33.5t153.5 36.5l10 -7v-116q171 123 319 123q141 0 219 -79t78 -226v-595
q0 -270 -113 -404t-302 -134q-100 0 -197 27q19 90 51 178l7 3q108 -122 185 -122q91 0 137.5 84t46.5 317v598q0 123 -57 176.5t-171 53.5q-97 0 -203 -58z" />
    <glyph glyph-name="Omacron" unicode="&#x14c;" horiz-adv-x="1647" 
d="M319 717q0 -326 132 -499.5t387 -173.5q251 0 370.5 157.5t119.5 494.5q0 316 -127 486t-392 170q-257 0 -373.5 -157.5t-116.5 -477.5zM1548 730q0 -346 -196.5 -556.5t-549.5 -210.5q-335 0 -518.5 194.5t-183.5 526.5q0 346 197.5 547.5t547.5 201.5
q336 0 519.5 -188.5t183.5 -514.5zM563 1557v109h519v-109h-519zM403 1400z" />
    <glyph glyph-name="omacron" unicode="&#x14d;" horiz-adv-x="1107" 
d="M281 472q0 -187 70 -304.5t208 -117.5q129 0 196.5 103.5t67.5 306.5q0 191 -71 301t-206 110q-128 0 -196.5 -99t-68.5 -300zM1027 481q0 -228 -137.5 -368.5t-349.5 -140.5q-207 0 -334.5 132.5t-127.5 346.5q0 220 133.5 359.5t353.5 139.5q208 0 335 -128.5
t127 -340.5zM284 1190v109h541v-109h-541zM135 928z" />
    <glyph glyph-name="Obreve" unicode="&#x14e;" horiz-adv-x="1647" 
d="M319 717q0 -326 132 -499.5t387 -173.5q251 0 370.5 157.5t119.5 494.5q0 316 -127 486t-392 170q-257 0 -373.5 -157.5t-116.5 -477.5zM1548 730q0 -346 -196.5 -556.5t-549.5 -210.5q-335 0 -518.5 194.5t-183.5 526.5q0 346 197.5 547.5t547.5 201.5
q336 0 519.5 -188.5t183.5 -514.5zM607 1813q15 -79 72 -125.5t147 -46.5q91 0 146.5 45.5t76.5 118.5l64 7q0 -130 -77.5 -217.5t-216.5 -87.5q-130 0 -204 79.5t-74 219.5zM403 1400z" />
    <glyph glyph-name="obreve" unicode="&#x14f;" horiz-adv-x="1107" 
d="M281 472q0 -187 70 -304.5t208 -117.5q129 0 196.5 103.5t67.5 306.5q0 191 -71 301t-206 110q-128 0 -196.5 -99t-68.5 -300zM1027 481q0 -228 -137.5 -368.5t-349.5 -140.5q-207 0 -334.5 132.5t-127.5 346.5q0 220 133.5 359.5t353.5 139.5q208 0 335 -128.5
t127 -340.5zM350 1395q14 -98 68 -150t139 -52q86 0 138.5 51t72.5 143l66 7q0 -147 -74.5 -241t-209.5 -94q-126 0 -197 84.5t-71 243.5zM135 928z" />
    <glyph glyph-name="Ohungarumlaut" unicode="&#x150;" horiz-adv-x="1647" 
d="M319 717q0 -326 132 -499.5t387 -173.5q251 0 370.5 157.5t119.5 494.5q0 316 -127 486t-392 170q-257 0 -373.5 -157.5t-116.5 -477.5zM1548 730q0 -346 -196.5 -556.5t-549.5 -210.5q-335 0 -518.5 194.5t-183.5 526.5q0 346 197.5 547.5t547.5 201.5
q336 0 519.5 -188.5t183.5 -514.5zM723 1635q0 -52 -31.5 -83.5t-81.5 -31.5q-47 0 -77 29.5t-30 77.5q0 53 31.5 83t82.5 30q47 0 76.5 -27.5t29.5 -77.5zM1143 1635q0 -52 -31.5 -83.5t-81.5 -31.5q-47 0 -77 29.5t-30 77.5q0 53 31.5 83t82.5 30q47 0 76.5 -27.5
t29.5 -77.5zM403 1400z" />
    <glyph glyph-name="ohungarumlaut" unicode="&#x151;" horiz-adv-x="1107" 
d="M281 472q0 -187 70 -304.5t208 -117.5q129 0 196.5 103.5t67.5 306.5q0 191 -71 301t-206 110q-128 0 -196.5 -99t-68.5 -300zM1027 481q0 -228 -137.5 -368.5t-349.5 -140.5q-207 0 -334.5 132.5t-127.5 346.5q0 220 133.5 359.5t353.5 139.5q208 0 335 -128.5
t127 -340.5zM454 1417h189l-216 -373h-68zM759 1417h189l-217 -373h-68zM135 928z" />
    <glyph glyph-name="OE" unicode="&#x152;" horiz-adv-x="2022" 
d="M1107 1396h312q225 0 474 4l6 -8l-57 -299l-40 -6l-59 220h-464v-550h91q104 0 232 2q26 1 34 26l35 135l54 2q-3 -140 -3 -207q0 -65 3 -204l-54 -4l-36 137q-8 26 -31 27q-130 2 -235 2h-90v-364q0 -111 2 -219h482l116 244l46 7l-21 -337l-7 -7q-259 3 -479 3h-344
q-125 -32 -272 -32q-335 0 -518.5 193t-183.5 523q0 344 197.5 544t547.5 200q148 0 262 -32zM809 1347q-257 0 -373.5 -156.5t-116.5 -473.5q0 -324 132 -496t387 -172q143 0 243 51q2 108 2 210v805q0 91 -2 168q-110 64 -272 64z" />
    <glyph glyph-name="oe" unicode="&#x153;" horiz-adv-x="1692" 
d="M1613 71q-84 -53 -173.5 -76t-164.5 -23q-252 0 -385 161q-141 -161 -361 -161q-201 0 -326 132.5t-125 346.5q0 220 130.5 359.5t345.5 139.5q225 0 353 -158q127 158 347 158q174 0 271 -105.5t97 -291.5q0 -28 -3 -57h-628q0 -215 100.5 -307.5t312.5 -92.5
q95 0 204 18zM281 472q0 -189 67.5 -307t199.5 -118q124 0 189 104.5t65 308.5q0 192 -68 303.5t-198 111.5q-123 0 -189 -100t-66 -303zM1423 579v30q0 142 -44.5 203t-134.5 61q-116 0 -178 -86t-71 -208h428z" />
    <glyph glyph-name="Racute" unicode="&#x154;" horiz-adv-x="1293" 
d="M446 307q0 -60 0.5 -108t1.5 -87q1 -31 26 -39l111 -33l3 -43q-119 3 -238 3q-121 0 -248 -3l-4 43l123 37q25 7 27 31q1 40 1.5 89.5t0.5 109.5v811q0 51 -0.5 92t-1.5 74q-1 26 -24 34l-124 39l-2 43q129 -4 251 -4q24 0 61 1.5t90 3.5q54 2 90 3t57 1q228 0 342 -86
t114 -251q0 -149 -78 -241.5t-238 -142.5q63 -96 116 -185.5t98.5 -164t83.5 -131.5t71 -90q17 -17 34 -29.5t35.5 -20.5t39 -14t45.5 -12l3 -44q-72 -9 -121 -9q-41 0 -72 2t-55 8t-43.5 15.5t-38.5 24.5q-41 31 -80.5 89.5t-82 132.5t-88.5 157.5t-97 163.5
q-15 24 -25.5 38t-23 22t-29 11t-42.5 4l-69 2v-347zM446 729q61 -3 113 -3q173 0 253.5 73.5t80.5 230.5q0 152 -77 222t-241 70q-28 0 -60 -2t-69 -6v-585zM851 1653l-436 -157l-27 46l326 244l137 -118v-15zM190 1400z" />
    <glyph glyph-name="racute" unicode="&#x155;" horiz-adv-x="785" 
d="M58 880q167 32 317 70l10 -7v-117q185 124 363 124l5 -6q-29 -149 -57 -309l-40 -7q-28 85 -54 136.5t-82 51.5q-54 0 -135 -50v-433q0 -156 2 -223q1 -27 25 -34l133 -38l3 -41q-156 3 -254 3t-232 -3l-4 41l116 34q24 8 25 31q1 43 1 123v341q0 163 -4 243l-133 36z
M464 1417h200l-238 -373h-68zM-4 928z" />
    <glyph glyph-name="uni0156" unicode="&#x156;" horiz-adv-x="1293" 
d="M446 307q0 -60 0.5 -108t1.5 -87q1 -31 26 -39l111 -33l3 -43q-119 3 -238 3q-121 0 -248 -3l-4 43l123 37q25 7 27 31q1 40 1.5 89.5t0.5 109.5v811q0 51 -0.5 92t-1.5 74q-1 26 -24 34l-124 39l-2 43q129 -4 251 -4q24 0 61 1.5t90 3.5q54 2 90 3t57 1q228 0 342 -86
t114 -251q0 -149 -78 -241.5t-238 -142.5q63 -96 116 -185.5t98.5 -164t83.5 -131.5t71 -90q17 -17 34 -29.5t35.5 -20.5t39 -14t45.5 -12l3 -44q-72 -9 -121 -9q-41 0 -72 2t-55 8t-43.5 15.5t-38.5 24.5q-41 31 -80.5 89.5t-82 132.5t-88.5 157.5t-97 163.5
q-15 24 -25.5 38t-23 22t-29 11t-42.5 4l-69 2v-347zM446 729q61 -3 113 -3q173 0 253.5 73.5t80.5 230.5q0 152 -77 222t-241 70q-28 0 -60 -2t-69 -6v-585zM548 -448q96 78 96 151q0 67 -74 110q0 45 29 72.5t71 27.5q50 0 81.5 -35.5t31.5 -89.5q0 -145 -200 -274z" />
    <glyph glyph-name="uni0157" unicode="&#x157;" horiz-adv-x="785" 
d="M58 880q167 32 317 70l10 -7v-117q185 124 363 124l5 -6q-29 -149 -57 -309l-40 -7q-28 85 -54 136.5t-82 51.5q-54 0 -135 -50v-433q0 -156 2 -223q1 -27 25 -34l133 -38l3 -41q-156 3 -254 3t-232 -3l-4 41l116 34q24 8 25 31q1 43 1 123v341q0 163 -4 243l-133 36z
M178 -448q96 78 96 151q0 67 -74 110q0 45 29 72.5t71 27.5q50 0 81.5 -35.5t31.5 -89.5q0 -145 -200 -274z" />
    <glyph glyph-name="Rcaron" unicode="&#x158;" horiz-adv-x="1293" 
d="M446 307q0 -60 0.5 -108t1.5 -87q1 -31 26 -39l111 -33l3 -43q-119 3 -238 3q-121 0 -248 -3l-4 43l123 37q25 7 27 31q1 40 1.5 89.5t0.5 109.5v811q0 51 -0.5 92t-1.5 74q-1 26 -24 34l-124 39l-2 43q129 -4 251 -4q24 0 61 1.5t90 3.5q54 2 90 3t57 1q228 0 342 -86
t114 -251q0 -149 -78 -241.5t-238 -142.5q63 -96 116 -185.5t98.5 -164t83.5 -131.5t71 -90q17 -17 34 -29.5t35.5 -20.5t39 -14t45.5 -12l3 -44q-72 -9 -121 -9q-41 0 -72 2t-55 8t-43.5 15.5t-38.5 24.5q-41 31 -80.5 89.5t-82 132.5t-88.5 157.5t-97 163.5
q-15 24 -25.5 38t-23 22t-29 11t-42.5 4l-69 2v-347zM446 729q61 -3 113 -3q173 0 253.5 73.5t80.5 230.5q0 152 -77 222t-241 70q-28 0 -60 -2t-69 -6v-585zM565 1498l-286 238l26 46l305 -134l304 134l27 -46l-286 -238h-90zM190 1400z" />
    <glyph glyph-name="rcaron" unicode="&#x159;" horiz-adv-x="785" 
d="M58 880q167 32 317 70l10 -7v-117q185 124 363 124l5 -6q-29 -149 -57 -309l-40 -7q-28 85 -54 136.5t-82 51.5q-54 0 -135 -50v-433q0 -156 2 -223q1 -27 25 -34l133 -38l3 -41q-156 3 -254 3t-232 -3l-4 41l116 34q24 8 25 31q1 43 1 123v341q0 163 -4 243l-133 36z
M126 1417h76l216 -226l216 226h72l-217 -373h-147zM-4 928z" />
    <glyph glyph-name="Sacute" unicode="&#x15a;" horiz-adv-x="1044" 
d="M760 1309q-105 35 -193 35q-132 0 -210.5 -64t-78.5 -178q0 -65 27.5 -114t74 -86t105.5 -66t122 -57q69 -30 134 -63.5t117.5 -78.5t84 -108t31.5 -147q0 -199 -139.5 -304t-386.5 -105q-159 0 -352 54l-6 8l49 340l45 7l70 -284q106 -42 217 -42q149 0 232.5 66
t83.5 188q0 64 -27 112.5t-72.5 83.5t-103.5 63.5t-120 56.5q-70 30 -136 65t-119.5 81.5t-85.5 114t-32 157.5q0 181 135.5 280t359.5 99q158 0 331 -37l7 -7l-59 -312l-40 -7zM791 1653l-436 -157l-27 46l326 244l137 -118v-15zM130 1400z" />
    <glyph glyph-name="sacute" unicode="&#x15b;" horiz-adv-x="829" 
d="M571 849q-58 16 -126 16q-92 0 -149 -36.5t-57 -99.5q0 -61 36.5 -95t137.5 -68l84 -28q137 -47 202 -108t65 -159q0 -139 -109 -219t-274 -80q-152 0 -311 62q34 130 55 254l39 6l72 -215q57 -22 145 -22q91 0 146 38t55 107q0 65 -36.5 100.5t-117.5 62.5l-104 35
q-135 45 -187.5 108.5t-52.5 158.5q0 131 100.5 207t263.5 76q152 0 276 -44q-28 -114 -51 -241l-38 -7zM477 1417h200l-238 -373h-68zM9 928z" />
    <glyph glyph-name="Scircumflex" unicode="&#x15c;" horiz-adv-x="1044" 
d="M760 1309q-105 35 -193 35q-132 0 -210.5 -64t-78.5 -178q0 -65 27.5 -114t74 -86t105.5 -66t122 -57q69 -30 134 -63.5t117.5 -78.5t84 -108t31.5 -147q0 -199 -139.5 -304t-386.5 -105q-159 0 -352 54l-6 8l49 340l45 7l70 -284q106 -42 217 -42q149 0 232.5 66
t83.5 188q0 64 -27 112.5t-72.5 83.5t-103.5 63.5t-120 56.5q-70 30 -136 65t-119.5 81.5t-85.5 114t-32 157.5q0 181 135.5 280t359.5 99q158 0 331 -37l7 -7l-59 -312l-40 -7zM595 1770l286 -239l-27 -46l-304 135l-305 -135l-26 46l286 239h90zM130 1400z" />
    <glyph glyph-name="scircumflex" unicode="&#x15d;" horiz-adv-x="829" 
d="M571 849q-58 16 -126 16q-92 0 -149 -36.5t-57 -99.5q0 -61 36.5 -95t137.5 -68l84 -28q137 -47 202 -108t65 -159q0 -139 -109 -219t-274 -80q-152 0 -311 62q34 130 55 254l39 6l72 -215q57 -22 145 -22q91 0 146 38t55 107q0 65 -36.5 100.5t-117.5 62.5l-104 35
q-135 45 -187.5 108.5t-52.5 158.5q0 131 100.5 207t263.5 76q152 0 276 -44q-28 -114 -51 -241l-38 -7zM719 1044h-76l-216 226l-216 -226h-72l216 373h147zM9 928z" />
    <glyph glyph-name="Scedilla" unicode="&#x15e;" horiz-adv-x="1044" 
d="M343 -190l126 163q-190 0 -373 54l-6 8l49 340l45 7l70 -284q106 -42 217 -42q149 0 232.5 66t83.5 188q0 64 -27 112.5t-72.5 83.5t-103.5 63.5t-120 56.5q-70 30 -136 65t-119.5 81.5t-85.5 114t-32 157.5q0 181 135.5 280t359.5 99q158 0 331 -37l7 -7l-59 -312
l-40 -7l-65 249q-105 35 -193 35q-132 0 -210.5 -64t-78.5 -178q0 -65 27.5 -114t74 -86t105.5 -66t122 -57q69 -30 134 -63.5t117.5 -78.5t84 -108t31.5 -147q0 -179 -111.5 -280t-302.5 -123l-66 -88q120 -44 120 -126q0 -110 -209 -251l-35 38q98 80 98 147
q0 73 -121 104z" />
    <glyph glyph-name="scedilla" unicode="&#x15f;" horiz-adv-x="829" 
d="M233 -190l125 162q-141 5 -288 62q34 130 55 254l39 6l72 -215q57 -22 145 -22q91 0 146 38t55 107q0 65 -36.5 100.5t-117.5 62.5l-104 35q-135 45 -187.5 108.5t-52.5 158.5q0 131 100.5 207t263.5 76q152 0 276 -44q-28 -114 -51 -241l-38 -7l-64 191q-58 16 -126 16
q-92 0 -149 -36.5t-57 -99.5q0 -61 36.5 -95t137.5 -68l84 -28q137 -47 202 -108t65 -159q0 -130 -93 -206t-224 -89l-63 -85q120 -44 120 -126q0 -110 -209 -251l-35 38q98 80 98 147q0 73 -121 104z" />
    <glyph glyph-name="Scaron" unicode="&#x160;" horiz-adv-x="1044" 
d="M760 1309q-105 35 -193 35q-132 0 -210.5 -64t-78.5 -178q0 -65 27.5 -114t74 -86t105.5 -66t122 -57q69 -30 134 -63.5t117.5 -78.5t84 -108t31.5 -147q0 -199 -139.5 -304t-386.5 -105q-159 0 -352 54l-6 8l49 340l45 7l70 -284q106 -42 217 -42q149 0 232.5 66
t83.5 188q0 64 -27 112.5t-72.5 83.5t-103.5 63.5t-120 56.5q-70 30 -136 65t-119.5 81.5t-85.5 114t-32 157.5q0 181 135.5 280t359.5 99q158 0 331 -37l7 -7l-59 -312l-40 -7zM505 1498l-286 238l26 46l305 -134l304 134l27 -46l-286 -238h-90zM130 1400z" />
    <glyph glyph-name="scaron" unicode="&#x161;" horiz-adv-x="829" 
d="M571 849q-58 16 -126 16q-92 0 -149 -36.5t-57 -99.5q0 -61 36.5 -95t137.5 -68l84 -28q137 -47 202 -108t65 -159q0 -139 -109 -219t-274 -80q-152 0 -311 62q34 130 55 254l39 6l72 -215q57 -22 145 -22q91 0 146 38t55 107q0 65 -36.5 100.5t-117.5 62.5l-104 35
q-135 45 -187.5 108.5t-52.5 158.5q0 131 100.5 207t263.5 76q152 0 276 -44q-28 -114 -51 -241l-38 -7zM139 1417h76l216 -226l216 226h72l-217 -373h-147zM9 928z" />
    <glyph glyph-name="uni0162" unicode="&#x162;" horiz-adv-x="1256" 
d="M630 0q-123 0 -272 -3l-4 43l148 44q25 7 26 31q2 76 2 194v998h-353l-89 -266l-40 -7l-26 358l7 8q246 -4 471 -4h267q224 0 473 4l6 -8l-63 -351l-40 -7l-64 273h-353v-998q0 -118 2 -194q1 -24 26 -31l148 -44l2 -43q-155 3 -274 3zM508 -448q96 78 96 151
q0 67 -74 110q0 45 29 72.5t71 27.5q50 0 81.5 -35.5t31.5 -89.5q0 -145 -200 -274z" />
    <glyph glyph-name="uni0162" unicode="&#x21a;" horiz-adv-x="1256" 
d="M630 0q-123 0 -272 -3l-4 43l148 44q25 7 26 31q2 76 2 194v998h-353l-89 -266l-40 -7l-26 358l7 8q246 -4 471 -4h267q224 0 473 4l6 -8l-63 -351l-40 -7l-64 273h-353v-998q0 -118 2 -194q1 -24 26 -31l148 -44l2 -43q-155 3 -274 3zM508 -448q96 78 96 151
q0 67 -74 110q0 45 29 72.5t71 27.5q50 0 81.5 -35.5t31.5 -89.5q0 -145 -200 -274z" />
    <glyph glyph-name="uni0163" unicode="&#x163;" horiz-adv-x="723" 
d="M358 818q-6 -338 -6 -545q0 -104 31 -143.5t118 -39.5q69 0 180 18l6 -45q-173 -87 -309 -87q-109 0 -162 58.5t-53 176.5q0 194 7 613l-138 34l-6 41l154 13l69 242q56 15 102 29l10 -7q-3 -121 -3 -226v-37h301v-95h-301zM258 -448q96 78 96 151q0 67 -74 110
q0 45 29 72.5t71 27.5q50 0 81.5 -35.5t31.5 -89.5q0 -145 -200 -274z" />
    <glyph glyph-name="uni0163" unicode="&#x21b;" horiz-adv-x="723" 
d="M358 818q-6 -338 -6 -545q0 -104 31 -143.5t118 -39.5q69 0 180 18l6 -45q-173 -87 -309 -87q-109 0 -162 58.5t-53 176.5q0 194 7 613l-138 34l-6 41l154 13l69 242q56 15 102 29l10 -7q-3 -121 -3 -226v-37h301v-95h-301zM258 -448q96 78 96 151q0 67 -74 110
q0 45 29 72.5t71 27.5q50 0 81.5 -35.5t31.5 -89.5q0 -145 -200 -274z" />
    <glyph glyph-name="Tcaron" unicode="&#x164;" horiz-adv-x="1256" 
d="M630 0q-123 0 -272 -3l-4 43l148 44q25 7 26 31q2 76 2 194v998h-353l-89 -266l-40 -7l-26 358l7 8q246 -4 471 -4h267q224 0 473 4l6 -8l-63 -351l-40 -7l-64 273h-353v-998q0 -118 2 -194q1 -24 26 -31l148 -44l2 -43q-155 3 -274 3zM583 1498l-286 238l26 46l305 -134
l304 134l27 -46l-286 -238h-90zM208 1400z" />
    <glyph glyph-name="tcaron" unicode="&#x165;" horiz-adv-x="723" 
d="M358 818q-6 -338 -6 -545q0 -104 31 -143.5t118 -39.5q69 0 180 18l6 -45q-173 -87 -309 -87q-109 0 -162 58.5t-53 176.5q0 194 7 613l-138 34l-6 41l154 13l69 242q56 15 102 29l10 -7q-3 -121 -3 -226v-37h301v-95h-301zM517 1034q95 101 95 198q0 85 -95 136
q0 50 31.5 79t81.5 29q55 0 89 -39.5t34 -110.5q0 -84 -50 -168t-151 -162zM604 928z" />
    <glyph glyph-name="Tbar" unicode="&#x166;" horiz-adv-x="1256" 
d="M993 650h-267v-341q0 -118 2 -194q1 -24 26 -31l148 -44l2 -43q-155 3 -274 3q-123 0 -272 -3l-4 43l148 44q25 7 26 31q2 76 2 194v341h-267v91h267v566h-353l-89 -266l-40 -7l-26 358l7 8q246 -4 471 -4h267q224 0 473 4l6 -8l-63 -351l-40 -7l-64 273h-353v-566h267
v-91z" />
    <glyph glyph-name="tbar" unicode="&#x167;" horiz-adv-x="721" 
d="M32 618h135q1 95 3 206l-138 34l-6 41l154 13l67 242q56 15 102 29l10 -7q-3 -121 -3 -226v-37h301v-95h-301q-3 -106 -4 -200h305v-80h-306q-1 -153 -1 -265q0 -104 31 -143.5t118 -39.5q69 0 180 18l6 -45q-173 -87 -309 -87q-109 0 -161 58.5t-52 176.5q0 120 3 327
h-134v80z" />
    <glyph glyph-name="Utilde" unicode="&#x168;" horiz-adv-x="1523" 
d="M63 1400q129 -4 248 -4q120 0 248 4l4 -43l-124 -37q-24 -6 -26 -31q-1 -35 -1.5 -76.5t-0.5 -90.5v-547q0 -286 91 -396.5t293 -110.5q205 0 297 114t92 381v559q0 49 -0.5 90.5t-2.5 76.5q-1 23 -26 31l-117 34l-2 46q127 -4 218 -4q87 0 212 4l4 -43l-126 -39
q-23 -8 -24 -34q-1 -33 -1.5 -74t-0.5 -92v-513q0 -328 -133.5 -485t-420.5 -157q-281 0 -415 141.5t-134 439.5v574q0 51 -0.5 92t-1.5 74q-1 26 -24 34l-124 39zM1121 1724q-114 -199 -224 -199q-36 0 -67.5 14.5t-69.5 37.5q-36 20 -59 32.5t-48 12.5q-28 0 -52.5 -17
t-81.5 -79l-50 39q69 107 117.5 151t102.5 44q31 0 56.5 -10t73.5 -38q44 -24 67.5 -36.5t49.5 -12.5q31 0 53.5 16t78.5 80zM365 1400z" />
    <glyph glyph-name="utilde" unicode="&#x169;" horiz-adv-x="1166" 
d="M796 88q-156 -116 -312 -116q-157 0 -235.5 80t-78.5 225v212q0 214 -4 321l-133 36l-5 34q175 32 324 70l9 -7q-6 -117 -6 -301v-318q0 -121 57 -175.5t161 -54.5t213 55v426q0 140 -4 235l-132 36l-5 34q174 32 323 70l9 -7q-6 -120 -6 -307q0 -363 2 -443q1 -41 6 -66
t19 -38.5t41.5 -19t73.5 -6.5l5 -39q-46 -18 -106 -34.5t-82 -16.5q-101 0 -134 115zM908 1322q-118 -207 -232 -207q-38 0 -70.5 15t-71.5 39q-38 21 -61.5 34t-49.5 13q-29 0 -54.5 -17.5t-84.5 -82.5l-52 41q72 111 122 156.5t106 45.5q32 0 58.5 -10.5t76.5 -39.5
q45 -25 69.5 -38t51.5 -13q32 0 55.5 17t81.5 83zM140 928z" />
    <glyph glyph-name="Umacron" unicode="&#x16a;" horiz-adv-x="1523" 
d="M63 1400q129 -4 248 -4q120 0 248 4l4 -43l-124 -37q-24 -6 -26 -31q-1 -35 -1.5 -76.5t-0.5 -90.5v-547q0 -286 91 -396.5t293 -110.5q205 0 297 114t92 381v559q0 49 -0.5 90.5t-2.5 76.5q-1 23 -26 31l-117 34l-2 46q127 -4 218 -4q87 0 212 4l4 -43l-126 -39
q-23 -8 -24 -34q-1 -33 -1.5 -74t-0.5 -92v-513q0 -328 -133.5 -485t-420.5 -157q-281 0 -415 141.5t-134 439.5v574q0 51 -0.5 92t-1.5 74q-1 26 -24 34l-124 39zM525 1557v109h519v-109h-519zM365 1400z" />
    <glyph glyph-name="umacron" unicode="&#x16b;" horiz-adv-x="1166" 
d="M796 88q-156 -116 -312 -116q-157 0 -235.5 80t-78.5 225v212q0 214 -4 321l-133 36l-5 34q175 32 324 70l9 -7q-6 -117 -6 -301v-318q0 -121 57 -175.5t161 -54.5t213 55v426q0 140 -4 235l-132 36l-5 34q174 32 323 70l9 -7q-6 -120 -6 -307q0 -363 2 -443q1 -41 6 -66
t19 -38.5t41.5 -19t73.5 -6.5l5 -39q-46 -18 -106 -34.5t-82 -16.5q-101 0 -134 115zM289 1190v109h541v-109h-541zM140 928z" />
    <glyph glyph-name="Ubreve" unicode="&#x16c;" horiz-adv-x="1523" 
d="M63 1400q129 -4 248 -4q120 0 248 4l4 -43l-124 -37q-24 -6 -26 -31q-1 -35 -1.5 -76.5t-0.5 -90.5v-547q0 -286 91 -396.5t293 -110.5q205 0 297 114t92 381v559q0 49 -0.5 90.5t-2.5 76.5q-1 23 -26 31l-117 34l-2 46q127 -4 218 -4q87 0 212 4l4 -43l-126 -39
q-23 -8 -24 -34q-1 -33 -1.5 -74t-0.5 -92v-513q0 -328 -133.5 -485t-420.5 -157q-281 0 -415 141.5t-134 439.5v574q0 51 -0.5 92t-1.5 74q-1 26 -24 34l-124 39zM569 1813q15 -79 72 -125.5t147 -46.5q91 0 146.5 45.5t76.5 118.5l64 7q0 -130 -77.5 -217.5t-216.5 -87.5
q-130 0 -204 79.5t-74 219.5zM365 1400z" />
    <glyph glyph-name="ubreve" unicode="&#x16d;" horiz-adv-x="1166" 
d="M796 88q-156 -116 -312 -116q-157 0 -235.5 80t-78.5 225v212q0 214 -4 321l-133 36l-5 34q175 32 324 70l9 -7q-6 -117 -6 -301v-318q0 -121 57 -175.5t161 -54.5t213 55v426q0 140 -4 235l-132 36l-5 34q174 32 323 70l9 -7q-6 -120 -6 -307q0 -363 2 -443q1 -41 6 -66
t19 -38.5t41.5 -19t73.5 -6.5l5 -39q-46 -18 -106 -34.5t-82 -16.5q-101 0 -134 115zM355 1395q14 -98 68 -150t139 -52q86 0 138.5 51t72.5 143l66 7q0 -147 -74.5 -241t-209.5 -94q-126 0 -197 84.5t-71 243.5zM140 928z" />
    <glyph glyph-name="Uring" unicode="&#x16e;" horiz-adv-x="1523" 
d="M63 1400q129 -4 248 -4q120 0 248 4l4 -43l-124 -37q-24 -6 -26 -31q-1 -35 -1.5 -76.5t-0.5 -90.5v-547q0 -286 91 -396.5t293 -110.5q205 0 297 114t92 381v559q0 49 -0.5 90.5t-2.5 76.5q-1 23 -26 31l-117 34l-2 46q127 -4 218 -4q87 0 212 4l4 -43l-126 -39
q-23 -8 -24 -34q-1 -33 -1.5 -74t-0.5 -92v-513q0 -328 -133.5 -485t-420.5 -157q-281 0 -415 141.5t-134 439.5v574q0 51 -0.5 92t-1.5 74q-1 26 -24 34l-124 39zM780 1473q-98 0 -156 45t-58 127q0 86 65.5 138.5t158.5 52.5q92 0 153 -49.5t61 -130.5q0 -83 -63 -133
t-161 -50zM785 1531q49 0 80 28t31 89t-30.5 95.5t-80.5 34.5t-80.5 -29t-30.5 -90t31 -94.5t80 -33.5zM365 1400z" />
    <glyph glyph-name="uring" unicode="&#x16f;" horiz-adv-x="1166" 
d="M796 88q-156 -116 -312 -116q-157 0 -235.5 80t-78.5 225v212q0 214 -4 321l-133 36l-5 34q175 32 324 70l9 -7q-6 -117 -6 -301v-318q0 -121 57 -175.5t161 -54.5t213 55v426q0 140 -4 235l-132 36l-5 34q174 32 323 70l9 -7q-6 -120 -6 -307q0 -363 2 -443q1 -41 6 -66
t19 -38.5t41.5 -19t73.5 -6.5l5 -39q-46 -18 -106 -34.5t-82 -16.5q-101 0 -134 115zM555 1044q-99 0 -158.5 47t-59.5 133q0 90 67 145t161 55q93 0 155.5 -51.5t62.5 -137.5q0 -87 -64.5 -139t-163.5 -52zM560 1105q50 0 81.5 29t31.5 93q0 63 -31 99.5t-82 36.5
t-82 -30.5t-31 -94.5q0 -63 31.5 -98t81.5 -35zM140 928z" />
    <glyph glyph-name="Uhungarumlaut" unicode="&#x170;" horiz-adv-x="1523" 
d="M63 1400q129 -4 248 -4q120 0 248 4l4 -43l-124 -37q-24 -6 -26 -31q-1 -35 -1.5 -76.5t-0.5 -90.5v-547q0 -286 91 -396.5t293 -110.5q205 0 297 114t92 381v559q0 49 -0.5 90.5t-2.5 76.5q-1 23 -26 31l-117 34l-2 46q127 -4 218 -4q87 0 212 4l4 -43l-126 -39
q-23 -8 -24 -34q-1 -33 -1.5 -74t-0.5 -92v-513q0 -328 -133.5 -485t-420.5 -157q-281 0 -415 141.5t-134 439.5v574q0 51 -0.5 92t-1.5 74q-1 26 -24 34l-124 39zM700 1780h184l-223 -282h-68zM994 1780h184l-223 -282h-68zM365 1400z" />
    <glyph glyph-name="uhungarumlaut" unicode="&#x171;" horiz-adv-x="1166" 
d="M796 88q-156 -116 -312 -116q-157 0 -235.5 80t-78.5 225v212q0 214 -4 321l-133 36l-5 34q175 32 324 70l9 -7q-6 -117 -6 -301v-318q0 -121 57 -175.5t161 -54.5t213 55v426q0 140 -4 235l-132 36l-5 34q174 32 323 70l9 -7q-6 -120 -6 -307q0 -363 2 -443q1 -41 6 -66
t19 -38.5t41.5 -19t73.5 -6.5l5 -39q-46 -18 -106 -34.5t-82 -16.5q-101 0 -134 115zM459 1417h189l-216 -373h-68zM764 1417h189l-217 -373h-68zM140 928z" />
    <glyph glyph-name="Uogonek" unicode="&#x172;" horiz-adv-x="1523" 
d="M63 1400q129 -4 248 -4q120 0 248 4l4 -43l-124 -37q-24 -6 -26 -31q-1 -35 -1.5 -76.5t-0.5 -90.5v-547q0 -286 91 -396.5t293 -110.5q205 0 297 114t92 381v559q0 49 -0.5 90.5t-2.5 76.5q-1 23 -26 31l-117 34l-2 46q127 -4 218 -4q87 0 212 4l4 -43l-126 -39
q-23 -8 -24 -34q-1 -33 -1.5 -74t-0.5 -92v-513q0 -272 -90 -423t-257 -193q-50 -13 -90 -64t-40 -132q0 -93 56.5 -143.5t157.5 -50.5q16 0 45 2l5 -39q-140 -52 -210 -52q-102 0 -161 57.5t-59 146.5q0 142 140 251q-26 -2 -51 -2q-281 0 -415 141.5t-134 439.5v574
q0 51 -0.5 92t-1.5 74q-1 26 -24 34l-124 39z" />
    <glyph glyph-name="uogonek" unicode="&#x173;" horiz-adv-x="1166" 
d="M956 -24q-43 -14 -72 -67t-29 -120q0 -86 55 -138t159 -52q19 0 44 2l5 -39q-143 -52 -210 -52q-100 0 -159.5 56.5t-59.5 147.5q0 157 176 274q-49 34 -69 100q-156 -116 -312 -116q-157 0 -235.5 80t-78.5 225v212q0 214 -4 321l-133 36l-5 34q175 32 324 70l9 -7
q-6 -117 -6 -301v-318q0 -121 57 -175.5t161 -54.5t213 55v426q0 140 -4 235l-132 36l-5 34q174 32 323 70l9 -7q-6 -120 -6 -307q0 -363 2 -443q1 -41 6 -66t19 -38.5t41.5 -19t73.5 -6.5l5 -39q-46 -18 -106 -35q-35 -9 -56 -13z" />
    <glyph glyph-name="Wcircumflex" unicode="&#x174;" horiz-adv-x="2088" 
d="M1400 -8l-351 1065l-367 -1057l-101 -8l-400 1228q-16 47 -36.5 72.5t-57.5 36.5l-91 28l-2 43q98 -4 232 -4q121 0 274 4l4 -43l-94 -27q-21 -5 -30 -15t-9 -29q0 -20 9.5 -52.5t25.5 -85.5l271 -859l371 1109l90 7l361 -1126l282 868q18 57 28 91t10 52t-9 26t-29 13
l-94 25l-2 46q108 -4 219 -4q108 0 210 4l4 -43l-101 -32q-30 -9 -47.5 -28t-34.5 -66l-434 -1231zM1125 1770l286 -239l-27 -46l-304 135l-305 -135l-26 46l286 239h90zM660 1400z" />
    <glyph glyph-name="wcircumflex" unicode="&#x175;" horiz-adv-x="1499" 
d="M-17 927q143 -3 212 -3q99 0 224 3l4 -41l-118 -32q67 -223 169 -502q22 -59 41 -121q19 61 41 120q80 214 121 334t79 235l73 8q38 -121 78 -242t115 -334q24 -64 40 -121q19 58 43 120q111 281 184 504l-113 32l-4 41q80 -3 170 -3q89 0 162 3l5 -41l-80 -22
q-34 -10 -50 -48q-94 -227 -167 -409.5t-158 -409.5l-90 -9q-61 176 -101.5 286.5t-87.5 240.5q-20 53 -34 102q-16 -48 -36 -99q-51 -133 -94.5 -245t-101.5 -276l-88 -9q-85 236 -155 418t-158 411q-14 37 -51 47l-72 21zM1054 1044h-76l-216 226l-216 -226h-72l216 373
h147zM344 928z" />
    <glyph glyph-name="Ycircumflex" unicode="&#x176;" horiz-adv-x="1215" 
d="M668 712l231 437q25 48 42 82t17 56q0 31 -44 43l-90 24l-2 46q108 -4 221 -4q109 0 212 4l4 -43l-101 -32q-36 -11 -55.5 -35t-39.5 -59l-346 -617v-304q0 -60 0.5 -109t1.5 -89q1 -25 35 -34l124 -38l2 -43q-140 3 -258 3q-121 0 -259 -3l-4 43l134 40q25 7 27 31
q1 40 1.5 89.5t0.5 109.5v283l-352 610q-37 61 -60.5 88t-62.5 38l-91 28l-2 43q91 -4 246 -4q135 0 279 4l4 -43l-94 -26q-21 -5 -30 -14.5t-9 -23.5q0 -21 15.5 -51.5t38.5 -70.5zM695 1770l286 -239l-27 -46l-304 135l-305 -135l-26 46l286 239h90zM230 1400z" />
    <glyph glyph-name="ycircumflex" unicode="&#x177;" horiz-adv-x="986" 
d="M-30 927q126 -3 224 -3q67 0 214 3l4 -41l-117 -32q37 -105 86 -231.5t104 -263.5q23 -57 50 -131q28 75 60 153q47 116 91 228.5t91 244.5l-114 32l-4 41q74 -3 173 -3q89 0 173 3l5 -41l-93 -26q-31 -10 -45 -41q-37 -85 -80 -186q-132 -310 -200 -508
q-46 -134 -83 -274.5t-57 -241.5q-9 -49 -36.5 -74.5t-128.5 -25.5q-103 0 -200 7l-5 39q110 17 163 71q64 69 198 367l8 19l-14 4q-183 456 -331 802q-13 30 -46 41l-88 27zM800 1044h-76l-216 226l-216 -226h-72l216 373h147zM90 928z" />
    <glyph glyph-name="Ydieresis" unicode="&#x178;" horiz-adv-x="1215" 
d="M668 712l231 437q25 48 42 82t17 56q0 31 -44 43l-90 24l-2 46q108 -4 221 -4q109 0 212 4l4 -43l-101 -32q-36 -11 -55.5 -35t-39.5 -59l-346 -617v-304q0 -60 0.5 -109t1.5 -89q1 -25 35 -34l124 -38l2 -43q-140 3 -258 3q-121 0 -259 -3l-4 43l134 40q25 7 27 31
q1 40 1.5 89.5t0.5 109.5v283l-352 610q-37 61 -60.5 88t-62.5 38l-91 28l-2 43q91 -4 246 -4q135 0 279 4l4 -43l-94 -26q-21 -5 -30 -14.5t-9 -23.5q0 -21 15.5 -51.5t38.5 -70.5zM550 1635q0 -52 -31.5 -83.5t-81.5 -31.5q-47 0 -77 29.5t-30 77.5q0 53 31.5 83t82.5 30
q47 0 76.5 -27.5t29.5 -77.5zM970 1635q0 -52 -31.5 -83.5t-81.5 -31.5q-47 0 -77 29.5t-30 77.5q0 53 31.5 83t82.5 30q47 0 76.5 -27.5t29.5 -77.5zM230 1400z" />
    <glyph glyph-name="Zacute" unicode="&#x179;" horiz-adv-x="1182" 
d="M72 -3l-4 43l771 1267h-590l-74 -240l-40 -7l-52 332l7 8q249 -4 473 -4h236q142 0 286 4l4 -43l-769 -1267h609l134 270l45 7l-27 -363l-6 -7q-281 3 -500 3h-241q-140 0 -262 -3zM831 1653l-436 -157l-27 46l326 244l137 -118v-15zM170 1400z" />
    <glyph glyph-name="zacute" unicode="&#x17a;" horiz-adv-x="983" 
d="M69 9q170 245 283 412t284 425h-391l-65 -201l-40 -7q-23 156 -50 280l3 9q204 -3 394 -3q192 0 400 3l7 -11q-145 -214 -278 -412t-280 -424h398l125 208l41 6q-16 -141 -24 -290l-6 -7q-173 3 -406 3q-212 0 -388 -3zM538 1417h200l-238 -373h-68zM70 928z" />
    <glyph glyph-name="Zdotaccent" unicode="&#x17b;" horiz-adv-x="1182" 
d="M72 -3l-4 43l771 1267h-590l-74 -240l-40 -7l-52 332l7 8q249 -4 473 -4h236q142 0 286 4l4 -43l-769 -1267h609l134 270l45 7l-27 -363l-6 -7q-281 3 -500 3h-241q-140 0 -262 -3zM703 1638q0 -53 -32.5 -85.5t-83.5 -32.5q-48 0 -79 30.5t-31 79.5q0 54 32.5 85
t84.5 31q48 0 78.5 -28.5t30.5 -79.5zM170 1400z" />
    <glyph glyph-name="zdotaccent" unicode="&#x17c;" horiz-adv-x="983" 
d="M69 9q170 245 283 412t284 425h-391l-65 -201l-40 -7q-23 156 -50 280l3 9q204 -3 394 -3q192 0 400 3l7 -11q-145 -214 -278 -412t-280 -424h398l125 208l41 6q-16 -141 -24 -290l-6 -7q-173 3 -406 3q-212 0 -388 -3zM605 1304q0 -53 -33 -86.5t-85 -33.5
q-50 0 -81.5 31t-31.5 82q0 54 33.5 85.5t86.5 31.5q50 0 80.5 -28.5t30.5 -81.5zM70 928z" />
    <glyph glyph-name="Zcaron" unicode="&#x17d;" horiz-adv-x="1182" 
d="M72 -3l-4 43l771 1267h-590l-74 -240l-40 -7l-52 332l7 8q249 -4 473 -4h236q142 0 286 4l4 -43l-769 -1267h609l134 270l45 7l-27 -363l-6 -7q-281 3 -500 3h-241q-140 0 -262 -3zM545 1498l-286 238l26 46l305 -134l304 134l27 -46l-286 -238h-90zM170 1400z" />
    <glyph glyph-name="zcaron" unicode="&#x17e;" horiz-adv-x="983" 
d="M69 9q170 245 283 412t284 425h-391l-65 -201l-40 -7q-23 156 -50 280l3 9q204 -3 394 -3q192 0 400 3l7 -11q-145 -214 -278 -412t-280 -424h398l125 208l41 6q-16 -141 -24 -290l-6 -7q-173 3 -406 3q-212 0 -388 -3zM200 1417h76l216 -226l216 226h72l-217 -373h-147z
M70 928z" />
    <glyph glyph-name="longs" unicode="&#x17f;" horiz-adv-x="579" 
d="M384 275q0 -94 2 -165q2 -27 26 -34l127 -38l3 -41q-151 3 -248 3q-99 0 -233 -3l-5 41l112 32q28 9 29 33q2 62 2 131v589l-136 34l-7 42l144 12v4q0 282 122.5 437t328.5 155q101 0 195 -25q-34 -122 -58 -251l-42 -8l-65 200q-23 3 -58 3q-115 0 -177 -103t-62 -377
v-671z" />
    <glyph glyph-name="florin" unicode="&#x192;" 
d="M143 777h220l2 10q19 108 60 212.5t106.5 187.5t158 134t216.5 51q92 0 192 -30l4 -6l-56 -303l-39 -6l-61 246q-35 15 -80 15q-65 0 -113 -30t-84.5 -89.5t-64.5 -148.5t-52 -207l-8 -36h283v-86h-300l-129 -612q-63 -301 -164 -432q-100 -130 -284 -130q-34 0 -71.5 5
t-80.5 15l41 178l7 3q130 -100 187 -100q118 0 171 293l143 780h-204v86z" />
    <glyph glyph-name="Aringacute" unicode="&#x1fa;" horiz-adv-x="1381" 
d="M754 1421l444 -1223q25 -69 45.5 -93.5t58.5 -36.5l94 -28l2 -43q-131 3 -243 3q-114 0 -269 -3l-4 43l95 28q20 7 28.5 15.5t8.5 26.5q0 20 -10.5 52.5t-29.5 86.5l-94 268h-482l-105 -267q-21 -56 -33 -89t-12 -52q0 -17 9.5 -25.5t28.5 -14.5l93 -27l2 -45
q-142 3 -232 3t-201 -3l-5 43l101 31q38 12 56 37t40 78l511 1220zM435 608h412l-195 551zM695 1459q-95 0 -151 43.5t-56 122.5q0 83 63.5 134t153.5 51q89 0 148 -48t59 -126q0 -80 -61 -128.5t-156 -48.5zM700 1515q47 0 76.5 27t29.5 86t-29 92.5t-77 33.5t-77 -28
t-29 -87t29.5 -91.5t76.5 -32.5zM941 1963l-407 -146l-27 46l306 225l128 -110v-15z" />
    <glyph glyph-name="aringacute" unicode="&#x1fb;" horiz-adv-x="983" 
d="M617 453q-219 0 -299 -43t-80 -145q0 -95 53 -134.5t144 -39.5q103 0 180 35zM132 865q195 85 345 85q153 0 238.5 -80t84.5 -231l-5 -416q-1 -51 2.5 -82t18 -47.5t43.5 -23t78 -7.5l5 -39q-43 -17 -105 -34t-84 -17q-97 0 -133 100q-140 -101 -264 -101
q-139 0 -223.5 68.5t-84.5 193.5q0 154 137.5 227t431.5 73l1 78q1 112 -57 166t-178 54q-91 0 -228 -34zM468 1044q-99 0 -158.5 47t-59.5 133q0 90 67 145t161 55q93 0 155.5 -51.5t62.5 -137.5q0 -87 -64.5 -139t-163.5 -52zM473 1105q50 0 81.5 29t31.5 93
q0 63 -31 99.5t-82 36.5t-82 -30.5t-31 -94.5q0 -63 31.5 -98t81.5 -35zM53 928zM521 1847h200l-238 -373h-68zM53 1358z" />
    <glyph glyph-name="AEacute" unicode="&#x1fc;" horiz-adv-x="1839" 
d="M786 1396h453q224 0 473 4l6 -8l-58 -309l-40 -7l-62 231h-442v-570h71q104 0 232 2q26 1 34 26l35 135l54 2q-3 -140 -3 -207q0 -65 3 -204l-54 -4l-36 137q-8 26 -31 27q-130 2 -235 2h-70v-344q0 -111 2 -219h460l122 254l45 8l-22 -348l-7 -7q-259 3 -478 3h-218
q-121 0 -248 -3l-4 43l123 37q25 7 27 31q1 40 1.5 89.5t0.5 109.5v346h-410l-202 -403q-20 -39 -36.5 -74.5t-16.5 -61.5q0 -16 8.5 -27.5t29.5 -17.5l93 -27l2 -45q-146 3 -240 3q-45 0 -100 -0.5t-111 -2.5l-5 43l101 31q38 12 58 32t53 82l568 1091q13 25 -18 34
l-154 47l-2 43q129 -4 248 -4zM920 1307h-82l-286 -570h368v570zM1391 1653l-436 -157l-27 46l326 244l137 -118v-15zM730 1400z" />
    <glyph glyph-name="aeacute" unicode="&#x1fd;" horiz-adv-x="1511" 
d="M132 865q195 85 345 85q194 0 277 -131q119 131 319 131q174 0 271 -111.5t97 -308.5q0 -29 -3 -61h-634q4 -192 103 -282.5t314 -90.5q96 0 205 18l6 -43q-84 -53 -173.5 -76t-164.5 -23q-237 0 -368 143q-203 -143 -370 -143q-139 0 -223.5 70.5t-84.5 200.5
q0 159 137.5 234t431.5 75l1 60q1 112 -57 166t-178 54q-91 0 -228 -34zM615 469q-218 0 -297.5 -44.5t-79.5 -151.5q0 -100 52.5 -141t143.5 -41q143 0 254 74q-73 121 -73 304zM1242 552v49q0 150 -45.5 211t-135.5 61q-119 0 -184.5 -88.5t-68.5 -232.5h434zM805 1417
h200l-238 -373h-68zM337 928z" />
    <glyph glyph-name="Oslashacute" unicode="&#x1fe;" horiz-adv-x="1647" 
d="M1548 730q0 -346 -196.5 -556.5t-549.5 -210.5q-249 0 -415 107l-122 -160l-66 51l122 159q-221 198 -221 564q0 346 197.5 547.5t547.5 201.5q243 0 406 -99l105 138l70 -46l-107 -140q229 -193 229 -556zM838 44q251 0 370.5 157.5t119.5 494.5q0 293 -109 460
l-743 -970q131 -142 362 -142zM319 717q0 -292 106 -462l740 968q-126 129 -356 129q-257 0 -373.5 -157.5t-116.5 -477.5zM1064 1653l-436 -157l-27 46l326 244l137 -118v-15zM403 1400z" />
    <glyph glyph-name="oslashacute" unicode="&#x1ff;" horiz-adv-x="1107" 
d="M1027 481q0 -228 -137.5 -368.5t-349.5 -140.5q-151 0 -259 69l-85 -112l-63 43l88 116l-16 16q-127 133 -127 347q0 220 133.5 359.5t353.5 139.5q150 0 258 -67l84 111l62 -44l-86 -113q8 -8 17 -16q127 -128 127 -340zM558 47q131 0 199 104.5t68 308.5q0 146 -42 246
l-422 -559q69 -100 197 -100zM279 472q0 -147 42 -252l422 558q-70 97 -197 97q-129 0 -198 -100t-69 -303zM604 1417h200l-238 -373h-68zM136 928z" />
    <glyph glyph-name="uni0218" unicode="&#x218;" horiz-adv-x="1044" 
d="M760 1309q-105 35 -193 35q-132 0 -210.5 -64t-78.5 -178q0 -65 27.5 -114t74 -86t105.5 -66t122 -57q69 -30 134 -63.5t117.5 -78.5t84 -108t31.5 -147q0 -199 -139.5 -304t-386.5 -105q-159 0 -352 54l-6 8l49 340l45 7l70 -284q106 -42 217 -42q149 0 232.5 66
t83.5 188q0 64 -27 112.5t-72.5 83.5t-103.5 63.5t-120 56.5q-70 30 -136 65t-119.5 81.5t-85.5 114t-32 157.5q0 181 135.5 280t359.5 99q158 0 331 -37l7 -7l-59 -312l-40 -7zM368 -448q96 78 96 151q0 67 -74 110q0 45 29 72.5t71 27.5q50 0 81.5 -35.5t31.5 -89.5
q0 -145 -200 -274z" />
    <glyph glyph-name="uni0219" unicode="&#x219;" horiz-adv-x="829" 
d="M571 849q-58 16 -126 16q-92 0 -149 -36.5t-57 -99.5q0 -61 36.5 -95t137.5 -68l84 -28q137 -47 202 -108t65 -159q0 -139 -109 -219t-274 -80q-152 0 -311 62q34 130 55 254l39 6l72 -215q57 -22 145 -22q91 0 146 38t55 107q0 65 -36.5 100.5t-117.5 62.5l-104 35
q-135 45 -187.5 108.5t-52.5 158.5q0 131 100.5 207t263.5 76q152 0 276 -44q-28 -114 -51 -241l-38 -7zM268 -448q96 78 96 151q0 67 -74 110q0 45 29 72.5t71 27.5q50 0 81.5 -35.5t31.5 -89.5q0 -145 -200 -274z" />
    <glyph glyph-name="circumflex" unicode="&#x2c6;" horiz-adv-x="840" 
d="M710 1044h-76l-216 226l-216 -226h-72l216 373h147zM0 928z" />
    <glyph glyph-name="caron" unicode="&#x2c7;" horiz-adv-x="840" 
d="M130 1417h76l216 -226l216 226h72l-217 -373h-147zM0 928z" />
    <glyph glyph-name="breve" unicode="&#x2d8;" horiz-adv-x="840" 
d="M215 1395q14 -98 68 -150t139 -52q86 0 138.5 51t72.5 143l66 7q0 -147 -74.5 -241t-209.5 -94q-126 0 -197 84.5t-71 243.5zM0 928z" />
    <glyph glyph-name="dotaccent" unicode="&#x2d9;" horiz-adv-x="840" 
d="M535 1304q0 -53 -33 -86.5t-85 -33.5q-50 0 -81.5 31t-31.5 82q0 54 33.5 85.5t86.5 31.5q50 0 80.5 -28.5t30.5 -81.5zM0 928z" />
    <glyph glyph-name="ring" unicode="&#x2da;" horiz-adv-x="840" 
d="M415 1044q-99 0 -158.5 47t-59.5 133q0 90 67 145t161 55q93 0 155.5 -51.5t62.5 -137.5q0 -87 -64.5 -139t-163.5 -52zM420 1105q50 0 81.5 29t31.5 93q0 63 -31 99.5t-82 36.5t-82 -30.5t-31 -94.5q0 -63 31.5 -98t81.5 -35zM0 928z" />
    <glyph glyph-name="ogonek" unicode="&#x2db;" horiz-adv-x="840" 
d="M583 0q-90 0 -144 -59t-54 -148q0 -93 56.5 -143.5t158.5 -50.5q15 0 44 2l5 -39q-140 -52 -210 -52q-102 0 -161 57.5t-59 146.5q0 164 187 286l81 10z" />
    <glyph glyph-name="tilde" unicode="&#x2dc;" horiz-adv-x="840" 
d="M768 1322q-118 -207 -232 -207q-38 0 -70.5 15t-71.5 39q-38 21 -61.5 34t-49.5 13q-29 0 -54.5 -17.5t-84.5 -82.5l-52 41q72 111 122 156.5t106 45.5q32 0 58.5 -10.5t76.5 -39.5q45 -25 69.5 -38t51.5 -13q32 0 55.5 17t81.5 83zM0 928z" />
    <glyph glyph-name="hungarumlaut" unicode="&#x2dd;" horiz-adv-x="840" 
d="M319 1417h189l-216 -373h-68zM624 1417h189l-217 -373h-68zM0 928z" />
    <glyph glyph-name="gravecomb" unicode="&#x300;" horiz-adv-x="0" 
d="M-361 1044h-69l-237 373h200zM-839 927z" />
    <glyph glyph-name="acutecomb" unicode="&#x301;" horiz-adv-x="0" 
d="M-371 1417h200l-238 -373h-68zM-839 928z" />
    <glyph glyph-name="uni0302" unicode="&#x302;" horiz-adv-x="0" 
d="M-129 1044h-76l-216 226l-216 -226h-72l216 373h147zM-839 928z" />
    <glyph glyph-name="tildecomb" unicode="&#x303;" horiz-adv-x="0" 
d="M-71 1322q-118 -207 -232 -207q-38 0 -70.5 15t-71.5 39q-38 21 -61.5 34t-49.5 13q-29 0 -54.5 -17.5t-84.5 -82.5l-52 41q72 111 122 156.5t106 45.5q32 0 58.5 -10.5t76.5 -39.5q45 -25 69.5 -38t51.5 -13q32 0 55.5 17t81.5 83zM-839 928z" />
    <glyph glyph-name="uni0304" unicode="&#x304;" horiz-adv-x="0" 
d="M-690 1190v109h541v-109h-541zM-839 928z" />
    <glyph glyph-name="uni0306" unicode="&#x306;" horiz-adv-x="0" 
d="M-624 1395q14 -98 68 -150t139 -52q86 0 138.5 51t72.5 143l66 7q0 -147 -74.5 -241t-209.5 -94q-126 0 -197 84.5t-71 243.5zM-839 928z" />
    <glyph glyph-name="uni0307" unicode="&#x307;" horiz-adv-x="0" 
d="M-304 1304q0 -53 -33 -86.5t-85 -33.5q-50 0 -81.5 31t-31.5 82q0 54 33.5 85.5t86.5 31.5q50 0 80.5 -28.5t30.5 -81.5zM-839 928z" />
    <glyph glyph-name="uni0308" unicode="&#x308;" horiz-adv-x="0" 
d="M-501 1304q0 -51 -31.5 -82.5t-81.5 -31.5q-48 0 -77.5 29t-29.5 78q0 52 31.5 82t82.5 30q47 0 76.5 -27.5t29.5 -77.5zM-117 1304q0 -51 -31.5 -82.5t-81.5 -31.5q-47 0 -77 29t-30 78q0 52 31.5 82t82.5 30q48 0 77 -27.5t29 -77.5zM-839 928z" />
    <glyph glyph-name="uni030A" unicode="&#x30a;" horiz-adv-x="0" 
d="M-424 1044q-99 0 -158.5 47t-59.5 133q0 90 67 145t161 55q93 0 155.5 -51.5t62.5 -137.5q0 -87 -64.5 -139t-163.5 -52zM-419 1105q50 0 81.5 29t31.5 93q0 63 -31 99.5t-82 36.5t-82 -30.5t-31 -94.5q0 -63 31.5 -98t81.5 -35zM-839 928z" />
    <glyph glyph-name="uni030B" unicode="&#x30b;" horiz-adv-x="0" 
d="M-520 1417h189l-216 -373h-68zM-215 1417h189l-217 -373h-68zM-839 928z" />
    <glyph glyph-name="uni030C" unicode="&#x30c;" horiz-adv-x="0" 
d="M-709 1417h76l216 -226l216 226h72l-217 -373h-147zM-839 928z" />
    <glyph glyph-name="uni0312" unicode="&#x312;" horiz-adv-x="0" 
d="M-298 1411q-96 -78 -96 -151q0 -67 74 -110q0 -45 -29 -72.5t-71 -27.5q-50 0 -81.5 35.5t-31.5 89.5q0 145 200 274z" />
    <glyph glyph-name="uni0315" unicode="&#x315;" horiz-adv-x="119" 
d="M-87 1034q95 101 95 198q0 85 -95 136q0 50 31.5 79t81.5 29q55 0 89 -39.5t34 -110.5q0 -84 -50 -168t-151 -162zM0 928z" />
    <glyph glyph-name="uni0326" unicode="&#x326;" horiz-adv-x="0" 
d="M-542 -448q96 78 96 151q0 67 -74 110q0 45 29 72.5t71 27.5q50 0 81.5 -35.5t31.5 -89.5q0 -145 -200 -274z" />
    <glyph glyph-name="uni0327" unicode="&#x327;" horiz-adv-x="0" 
d="M-596 -190l147 190h86l-82 -109q120 -44 120 -126q0 -110 -209 -251l-35 38q98 80 98 147q0 73 -121 104z" />
    <glyph glyph-name="uni0328" unicode="&#x328;" horiz-adv-x="0" 
d="M-256 0q-90 0 -144 -59t-54 -148q0 -93 56.5 -143.5t158.5 -50.5q15 0 44 2l5 -39q-140 -52 -210 -52q-102 0 -161 57.5t-59 146.5q0 164 187 286l81 10z" />
    <glyph glyph-name="uni0344" unicode="&#x344;" horiz-adv-x="0" 
d="M-550 1197q0 -49 -29.5 -79t-76.5 -30q-46 0 -73.5 27.5t-27.5 75.5q0 50 29.5 78.5t77.5 28.5q45 0 72.5 -26.5t27.5 -74.5zM-42 1197q0 -49 -29.5 -79t-76.5 -30q-45 0 -73 27.5t-28 75.5q0 50 29.5 78.5t77.5 28.5q45 0 72.5 -26.5t27.5 -74.5zM-419 1433h194
l-209 -405h-63zM-836 927z" />
    <glyph glyph-name="uni0374" unicode="&#x374;" horiz-adv-x="539" 
d="M499 1427l-300 -433l-59 16l142 423h213zM0 930z" />
    <glyph glyph-name="uni0375" unicode="&#x375;" horiz-adv-x="454" 
d="M40 -477l300 433l59 -16l-142 -423h-213z" />
    <glyph glyph-name="uni037E" unicode="&#x37e;" horiz-adv-x="524" 
d="M141 -279q142 116 142 227q0 97 -102 156q0 57 33.5 90.5t87.5 33.5q59 0 95.5 -45.5t36.5 -115.5q0 -108 -63.5 -204t-191.5 -186zM310 921q52 0 85.5 -32.5t33.5 -85.5t-33.5 -86.5t-85.5 -33.5q-55 0 -88 33.5t-33 86.5t33 85.5t88 32.5z" />
    <glyph glyph-name="tonos" unicode="&#x384;" horiz-adv-x="840" 
d="M448 1433h206l-220 -405h-75z" />
    <glyph glyph-name="dieresistonos" unicode="&#x385;" horiz-adv-x="840" 
d="M288 1197q0 -49 -29.5 -79t-76.5 -30q-46 0 -73.5 27.5t-27.5 75.5q0 50 29.5 78.5t77.5 28.5q45 0 72.5 -26.5t27.5 -74.5zM796 1197q0 -49 -29.5 -79t-76.5 -30q-45 0 -73 27.5t-28 75.5q0 50 29.5 78.5t77.5 28.5q45 0 72.5 -26.5t27.5 -74.5zM419 1433h194l-209 -405
h-63zM2 927z" />
    <glyph glyph-name="Alphatonos" unicode="&#x386;" horiz-adv-x="1381" 
d="M754 1421l444 -1223q25 -69 45.5 -93.5t58.5 -36.5l94 -28l2 -43q-131 3 -243 3q-114 0 -269 -3l-4 43l95 28q20 7 28.5 15.5t8.5 26.5q0 20 -10.5 52.5t-29.5 86.5l-94 268h-482l-105 -267q-21 -56 -33 -89t-12 -52q0 -17 9.5 -25.5t28.5 -14.5l93 -27l2 -45
q-142 3 -232 3t-201 -3l-5 43l101 31q38 12 56 37t40 78l511 1220zM435 608h412l-195 551zM250 1433h206l-220 -405h-75z" />
    <glyph glyph-name="anoteleia" unicode="&#x387;" horiz-adv-x="524" 
d="M310 921q52 0 85.5 -32.5t33.5 -85.5t-33.5 -86.5t-85.5 -33.5q-55 0 -88 33.5t-33 86.5t33 85.5t88 32.5z" />
    <glyph glyph-name="Epsilontonos" unicode="&#x388;" horiz-adv-x="1377" 
d="M534 1396h243q224 0 473 4l6 -8l-58 -309l-40 -7l-62 231h-462v-550h91q104 0 232 2q26 1 34 26l35 135l54 2q-3 -140 -3 -207q0 -65 3 -204l-54 -4l-36 137q-8 26 -31 27q-130 2 -235 2h-90v-364q0 -111 2 -219h480l122 254l45 8l-22 -348l-7 -7q-259 3 -478 3h-238
q-121 0 -248 -3l-4 43l123 37q25 7 27 31q1 40 1.5 89.5t0.5 109.5v811q0 51 -0.5 92t-1.5 74q-1 26 -24 34l-124 39l-2 43q129 -4 248 -4zM30 1433h206l-220 -405h-75z" />
    <glyph glyph-name="Etatonos" unicode="&#x389;" horiz-adv-x="1808" 
d="M634 692v-385q0 -118 2 -198q1 -27 26 -34l111 -35l3 -43q-119 3 -238 3t-248 -3l-4 43l123 37q26 8 27 31q2 81 2 199v811q0 100 -2 166q-1 26 -24 34l-124 39l-2 43q129 -4 248 -4q120 0 237 4l5 -43l-114 -35q-25 -6 -26 -31q-2 -72 -2 -169v-339h728v339q0 97 -2 169
q-1 25 -26 31l-111 35l-2 43q122 -4 241 -4t244 4l4 -43l-126 -39q-23 -8 -24 -34q-2 -66 -2 -166v-811q0 -118 2 -199q1 -23 27 -31l121 -37l2 -43q-132 3 -252 3q-119 0 -233 -3l-4 43l113 35q25 7 26 34q2 80 2 198v385h-728zM30 1433h206l-220 -405h-75z" />
    <glyph glyph-name="Iotatonos" unicode="&#x38a;" horiz-adv-x="884" 
d="M634 307q0 -60 0.5 -109t1.5 -89q1 -25 35 -34l113 -35l2 -43q-129 3 -248 3q-121 0 -248 -3l-4 43l123 37q25 7 27 31q1 40 1.5 89.5t0.5 109.5v811q0 51 -0.5 92t-1.5 74q-1 26 -24 34l-124 39l-2 43q129 -4 248 -4q120 0 248 4l4 -43l-124 -37q-24 -6 -26 -31
q-1 -35 -1.5 -76.5t-0.5 -90.5v-815zM30 1433h206l-220 -405h-75z" />
    <glyph glyph-name="Omicrontonos" unicode="&#x38c;" horiz-adv-x="1705" 
d="M377 717q0 -326 132 -499.5t387 -173.5q251 0 370.5 157.5t119.5 494.5q0 316 -127 486t-392 170q-257 0 -373.5 -157.5t-116.5 -477.5zM1606 730q0 -346 -196.5 -556.5t-549.5 -210.5q-335 0 -518.5 194.5t-183.5 526.5q0 346 197.5 547.5t547.5 201.5
q336 0 519.5 -188.5t183.5 -514.5zM50 1433h206l-220 -405h-75z" />
    <glyph glyph-name="Upsilontonos" unicode="&#x38e;" horiz-adv-x="1519" 
d="M972 712l231 437q25 48 42 82t17 56q0 31 -44 43l-90 24l-2 46q108 -4 221 -4q109 0 212 4l4 -43l-101 -32q-36 -11 -55.5 -35t-39.5 -59l-346 -617v-304q0 -60 0.5 -109t1.5 -89q1 -25 35 -34l124 -38l2 -43q-140 3 -258 3q-121 0 -259 -3l-4 43l134 40q25 7 27 31
q1 40 1.5 89.5t0.5 109.5v283l-352 610q-37 61 -60.5 88t-62.5 38l-91 28l-2 43q91 -4 246 -4q135 0 279 4l4 -43l-94 -26q-21 -5 -30 -14.5t-9 -23.5q0 -21 15.5 -51.5t38.5 -70.5zM10 1433h206l-220 -405h-75z" />
    <glyph glyph-name="Omegatonos" unicode="&#x38f;" horiz-adv-x="1674" 
d="M719 0q-265 0 -556 -3l-6 7l-37 378l45 8l121 -241h301v7q-374 382 -374 714q0 251 190 407t470 156q272 0 456 -151t184 -396q0 -330 -377 -730v-7h299l124 233l45 8l-36 -386l-6 -7q-291 3 -555 3l-9 128q287 355 287 711q0 235 -111 375t-319 140q-202 0 -308 -136
t-106 -369q0 -368 286 -721zM50 1433h206l-220 -405h-75z" />
    <glyph glyph-name="iotadieresistonos" unicode="&#x390;" horiz-adv-x="581" 
d="M361 482q0 -209 3 -299q2 -63 21.5 -83t58.5 -27.5t106 -8.5l5 -40q-162 -49 -242 -49q-133 0 -133 168v499q0 149 -11 264q102 22 189 44l9 -7q-6 -131 -6 -286v-175zM145 1197q0 -49 -29.5 -79t-76.5 -30q-46 0 -73.5 27.5t-27.5 75.5q0 50 29.5 78.5t77.5 28.5
q45 0 72.5 -26.5t27.5 -74.5zM653 1197q0 -49 -29.5 -79t-76.5 -30q-45 0 -73 27.5t-28 75.5q0 50 29.5 78.5t77.5 28.5q45 0 72.5 -26.5t27.5 -74.5zM276 1433h194l-209 -405h-63zM-141 927z" />
    <glyph glyph-name="Alpha" unicode="&#x391;" horiz-adv-x="1381" 
d="M754 1421l444 -1223q25 -69 45.5 -93.5t58.5 -36.5l94 -28l2 -43q-131 3 -243 3q-114 0 -269 -3l-4 43l95 28q20 7 28.5 15.5t8.5 26.5q0 20 -10.5 52.5t-29.5 86.5l-94 268h-482l-105 -267q-21 -56 -33 -89t-12 -52q0 -17 9.5 -25.5t28.5 -14.5l93 -27l2 -45
q-142 3 -232 3t-201 -3l-5 43l101 31q38 12 56 37t40 78l511 1220zM435 608h412l-195 551z" />
    <glyph glyph-name="Beta" unicode="&#x392;" horiz-adv-x="1223" 
d="M98 1400q129 -4 251 -4q46 2 149 6t139 4q216 0 326.5 -81.5t110.5 -234.5q0 -246 -265 -335q155 -26 243.5 -115t88.5 -227q0 -200 -145 -309.5t-402 -109.5q-51 0 -110.5 3t-133.5 3q-121 0 -248 -3l-4 43l123 37q25 7 27 31q1 40 1.5 89.5t0.5 109.5v811q0 51 -0.5 92
t-1.5 74q-1 26 -24 34l-124 39zM444 696v-607q30 -11 69.5 -14t72.5 -3q166 0 252.5 82t86.5 238t-87.5 231.5t-282.5 75.5q-57 0 -111 -3zM444 776q62 -1 126 -1q148 0 223.5 71.5t75.5 207.5q0 143 -77.5 205.5t-223.5 62.5q-26 0 -57 -1.5t-67 -5.5v-539z" />
    <glyph glyph-name="Gamma" unicode="&#x393;" horiz-adv-x="1126" 
d="M446 307q0 -118 2 -194q1 -24 26 -31l138 -42l2 -43q-145 3 -264 3t-248 -3l-4 43l123 37q26 8 27 31q2 81 2 199v811q0 51 -0.5 92t-1.5 74q-1 26 -24 34l-124 39l-2 43q129 -4 248 -4h235q246 0 474 4l6 -8l-69 -367l-40 -7l-76 289h-430v-1000z" />
    <glyph glyph-name="uni0394" unicode="&#x394;" horiz-adv-x="1343" 
d="M1241 -3q-163 3 -290 3h-626q-114 0 -263 -3l-4 43l573 1366l102 23l504 -1389zM634 1159l-399 -1010h756z" />
    <glyph glyph-name="Epsilon" unicode="&#x395;" horiz-adv-x="1189" 
d="M346 1396h243q224 0 473 4l6 -8l-58 -309l-40 -7l-62 231h-462v-550h91q104 0 232 2q26 1 34 26l35 135l54 2q-3 -140 -3 -207q0 -65 3 -204l-54 -4l-36 137q-8 26 -31 27q-130 2 -235 2h-90v-364q0 -111 2 -219h480l122 254l45 8l-22 -348l-7 -7q-259 3 -478 3h-238
q-121 0 -248 -3l-4 43l123 37q25 7 27 31q1 40 1.5 89.5t0.5 109.5v811q0 51 -0.5 92t-1.5 74q-1 26 -24 34l-124 39l-2 43q129 -4 248 -4z" />
    <glyph glyph-name="Zeta" unicode="&#x396;" horiz-adv-x="1182" 
d="M72 -3l-4 43l771 1267h-590l-74 -240l-40 -7l-52 332l7 8q249 -4 473 -4h236q142 0 286 4l4 -43l-769 -1267h609l134 270l45 7l-27 -363l-6 -7q-281 3 -500 3h-241q-140 0 -262 -3z" />
    <glyph glyph-name="Eta" unicode="&#x397;" horiz-adv-x="1620" 
d="M446 692v-385q0 -118 2 -198q1 -27 26 -34l111 -35l3 -43q-119 3 -238 3t-248 -3l-4 43l123 37q26 8 27 31q2 81 2 199v811q0 100 -2 166q-1 26 -24 34l-124 39l-2 43q129 -4 248 -4q120 0 237 4l5 -43l-114 -35q-25 -6 -26 -31q-2 -72 -2 -169v-339h728v339q0 97 -2 169
q-1 25 -26 31l-111 35l-2 43q122 -4 241 -4t244 4l4 -43l-126 -39q-23 -8 -24 -34q-2 -66 -2 -166v-811q0 -118 2 -199q1 -23 27 -31l121 -37l2 -43q-132 3 -252 3q-119 0 -233 -3l-4 43l113 35q25 7 26 34q2 80 2 198v385h-728z" />
    <glyph glyph-name="Theta" unicode="&#x398;" horiz-adv-x="1646" 
d="M819 639q-101 0 -208 -2q-26 -1 -34 -26l-23 -95l-53 -3q3 133 3 204q0 69 -3 194l53 5l23 -92q8 -26 31 -27q109 -2 212 -2q101 0 208 2q26 1 33 26l23 89l54 3q-3 -126 -3 -198q0 -69 3 -200l-54 -5l-24 98q-7 26 -30 27q-109 2 -211 2zM1547 730q0 -346 -196 -556.5
t-549 -210.5q-335 0 -518.5 194.5t-183.5 526.5q0 346 197.5 547.5t547.5 201.5q336 0 519 -188.5t183 -514.5zM315 717q0 -327 132.5 -501t390.5 -174q253 0 373.5 158t120.5 496q0 317 -128 487.5t-395 170.5q-259 0 -376.5 -158t-117.5 -479z" />
    <glyph glyph-name="Iota" unicode="&#x399;" horiz-adv-x="696" 
d="M446 307q0 -60 0.5 -109t1.5 -89q1 -25 35 -34l113 -35l2 -43q-129 3 -248 3q-121 0 -248 -3l-4 43l123 37q25 7 27 31q1 40 1.5 89.5t0.5 109.5v811q0 51 -0.5 92t-1.5 74q-1 26 -24 34l-124 39l-2 43q129 -4 248 -4q120 0 248 4l4 -43l-124 -37q-24 -6 -26 -31
q-1 -35 -1.5 -76.5t-0.5 -90.5v-815z" />
    <glyph glyph-name="Kappa" unicode="&#x39a;" horiz-adv-x="1350" 
d="M446 1122v-815q0 -60 0.5 -109t1.5 -89q1 -26 26 -34l111 -35l3 -43q-119 3 -238 3q-121 0 -248 -3l-4 43l123 37q26 8 27 31q1 40 1.5 89.5t0.5 109.5v811q0 51 -0.5 92t-1.5 74q-1 26 -24 34l-124 39l-2 43q129 -4 248 -4t237 4l5 -43l-114 -35q-24 -6 -26 -31
q-1 -36 -1.5 -78t-0.5 -91zM472 708l403 449q47 53 76 89.5t29 58.5q0 20 -27 27l-82 22l-2 46q99 -4 221 -4q117 0 220 4l4 -43l-101 -32q-46 -15 -79.5 -46t-71.5 -73l-400 -440l455 -600q29 -38 57 -61.5t73 -36.5l91 -28l2 -43q-84 3 -213 3q-34 0 -69 -0.5t-70 -1.5
q-35 72 -185 271z" />
    <glyph glyph-name="Lambda" unicode="&#x39b;" horiz-adv-x="1375" 
d="M650 1159l-353 -909q-21 -56 -33 -89t-12 -52q0 -17 9.5 -25.5t28.5 -14.5l93 -27l2 -45q-141 3 -234 3q-90 0 -201 -3l-5 43l101 31q38 12 56 37t40 78l505 1220l101 27l442 -1235q25 -69 45.5 -93.5t58.5 -36.5l93 -28l2 -43q-130 3 -242 3q-115 0 -269 -3l-4 43l94 28
q20 7 29 15.5t9 26.5q0 20 -10.5 52.5t-29.5 86.5z" />
    <glyph glyph-name="Mu" unicode="&#x39c;" horiz-adv-x="1854" 
d="M1383 1400q94 -4 170 -4q74 0 199 4l4 -43l-126 -39q-23 -8 -24 -34q-2 -66 -2 -166v-811q0 -118 2 -199q1 -23 28 -31l120 -37l2 -43q-132 3 -252 3q-118 0 -233 -3l-4 43l115 35q24 7 25 35q2 79 2 197v866l-496 -1173l-73 -8l-499 1181v-866q0 -118 2 -197
q1 -28 26 -35l112 -35l2 -43q-119 3 -199 3q-78 0 -207 -3l-4 43l123 37q26 8 27 31q2 81 2 199v811q0 100 -2 166q-1 26 -24 34l-124 39l-2 43q129 -4 204 -4q86 0 179 4l464 -1097z" />
    <glyph glyph-name="Nu" unicode="&#x39d;" horiz-adv-x="1534" 
d="M341 1115v-808q0 -118 2 -196q1 -28 25 -34l119 -35l2 -45q-125 3 -205 3q-78 0 -207 -3l-4 43l123 37q26 8 27 31q2 81 2 199v811q0 100 -2 166q-1 26 -24 34l-124 39l-2 43q129 -4 204 -4q45 0 91 4l840 -1049v771q0 97 -2 167q-1 23 -26 31l-118 34l-2 46
q128 -4 207 -4q80 0 205 4l4 -43l-126 -39q-23 -8 -24 -34q-2 -66 -2 -166v-1118l-84 -8z" />
    <glyph glyph-name="Xi" unicode="&#x39e;" horiz-adv-x="1279" 
d="M139 1036l-17 356l7 8q246 -4 470 -4h78q225 0 474 4l6 -8l-52 -349l-39 -7l-44 205h-785l-58 -198zM639 640q-90 0 -187 -2q-26 -1 -33 -26l-23 -96l-54 -3q3 133 3 204q0 69 -3 194l54 5l23 -93q7 -26 30 -27q99 -2 191 -2q91 0 187 2q26 1 34 26l23 90l53 3
q-3 -126 -3 -198q0 -69 3 -200l-53 -5l-24 99q-8 26 -31 27q-98 2 -190 2zM1179 362l20 -358l-7 -7q-246 3 -471 3h-162q-224 0 -473 -3l-6 7l53 352l40 6l40 -198h871l55 192z" />
    <glyph glyph-name="Omicron" unicode="&#x39f;" horiz-adv-x="1647" 
d="M319 717q0 -326 132 -499.5t387 -173.5q251 0 370.5 157.5t119.5 494.5q0 316 -127 486t-392 170q-257 0 -373.5 -157.5t-116.5 -477.5zM1548 730q0 -346 -196.5 -556.5t-549.5 -210.5q-335 0 -518.5 194.5t-183.5 526.5q0 346 197.5 547.5t547.5 201.5
q336 0 519.5 -188.5t183.5 -514.5z" />
    <glyph glyph-name="Pi" unicode="&#x3a0;" horiz-adv-x="1579" 
d="M448 109q1 -27 26 -34l111 -35l3 -43q-119 3 -238 3t-248 -3l-4 43l123 37q26 8 27 31q2 81 2 199v811q0 100 -2 166q-1 26 -24 34l-124 39l-2 43q129 -4 248 -4h887q119 0 244 4l4 -43l-126 -39q-23 -8 -24 -34q-2 -66 -2 -166v-811q0 -118 2 -199q1 -23 27 -31l121 -37
l2 -43q-132 3 -252 3q-119 0 -233 -3l-4 43l113 35q25 7 26 34q3 80 3 198v998h-688v-998q0 -118 2 -198z" />
    <glyph glyph-name="Rho" unicode="&#x3a1;" horiz-adv-x="1191" 
d="M446 676q70 -12 138 -12q160 0 243.5 82.5t83.5 252.5q0 163 -79.5 243t-250.5 80q-67 0 -135 -8v-638zM446 307q0 -60 0.5 -108t1.5 -86q1 -23 26 -31l138 -42l2 -43q-145 3 -264 3q-121 0 -248 -3l-4 43l123 37q26 8 27 31q1 40 1.5 89.5t0.5 109.5v811q0 51 -0.5 92
t-1.5 74q-1 26 -24 34l-124 39l-2 43q129 -4 251 -4q82 0 158.5 4t139.5 4q235 0 355.5 -92.5t120.5 -275.5q0 -215 -139 -334t-390 -119q-69 0 -148 9v-285z" />
    <glyph glyph-name="Sigma" unicode="&#x3a3;" horiz-adv-x="1247" 
d="M55 40l529 650l-508 667l-4 43q163 -4 305 -4h262q224 0 473 4l7 -8l-60 -330l-40 -7l-62 252h-605l417 -548l-495 -610h705l123 249l45 7l-26 -401l-7 -7q-301 3 -520 3h-257q-151 0 -278 -3z" />
    <glyph glyph-name="Tau" unicode="&#x3a4;" horiz-adv-x="1256" 
d="M630 0q-123 0 -272 -3l-4 43l148 44q25 7 26 31q2 76 2 194v998h-353l-89 -266l-40 -7l-26 358l7 8q246 -4 471 -4h267q224 0 473 4l6 -8l-63 -351l-40 -7l-64 273h-353v-998q0 -118 2 -194q1 -24 26 -31l148 -44l2 -43q-155 3 -274 3z" />
    <glyph glyph-name="Upsilon" unicode="&#x3a5;" horiz-adv-x="1215" 
d="M668 712l231 437q25 48 42 82t17 56q0 31 -44 43l-90 24l-2 46q108 -4 221 -4q109 0 212 4l4 -43l-101 -32q-36 -11 -55.5 -35t-39.5 -59l-346 -617v-304q0 -60 0.5 -109t1.5 -89q1 -25 35 -34l124 -38l2 -43q-140 3 -258 3q-121 0 -259 -3l-4 43l134 40q25 7 27 31
q1 40 1.5 89.5t0.5 109.5v283l-352 610q-37 61 -60.5 88t-62.5 38l-91 28l-2 43q91 -4 246 -4q135 0 279 4l4 -43l-94 -26q-21 -5 -30 -14.5t-9 -23.5q0 -21 15.5 -51.5t38.5 -70.5z" />
    <glyph glyph-name="Phi" unicode="&#x3a6;" horiz-adv-x="1481" 
d="M1442 730q0 -220 -169 -355.5t-438 -154.5v-114q0 -24 37 -35l113 -34l3 -40q-130 3 -244 3q-118 0 -245 -3l-4 40l123 36q29 9 29 32v112q-280 16 -443.5 141.5t-163.5 339.5t163 346t444 153v90q0 25 -26 34l-124 39l-2 40q129 -4 245 -4q115 0 243 4l5 -40l-124 -37
q-29 -7 -29 -30v-94q285 -13 446 -137t161 -332zM835 1126v-835q190 13 292.5 112t102.5 305q0 182 -100 289t-295 129zM253 720q0 -195 108 -301t286 -126v834q-200 -14 -297 -114.5t-97 -292.5z" />
    <glyph glyph-name="Chi" unicode="&#x3a7;" horiz-adv-x="1346" 
d="M19 1400q110 -4 261 -4q131 0 274 4l4 -43l-90 -25q-21 -5 -30 -15t-9 -24q0 -25 19 -57t42 -65l217 -325l182 289q15 23 48 75.5t33 79.5q0 30 -40 40l-89 24l-2 46q109 -4 228 -4q118 0 220 4l4 -43l-101 -32q-36 -11 -61.5 -36t-63.5 -83l-299 -447l389 -578
q45 -68 66.5 -86t53.5 -28l92 -27l2 -43q-108 3 -249 3q-131 0 -287 -3l-4 43l90 24q21 5 30 15t9 25q0 24 -19 56t-42 66l-271 403l-231 -368q-29 -46 -53.5 -87t-24.5 -68q0 -15 8.5 -25t29.5 -15l89 -24l2 -45q-109 3 -229 3q-107 0 -219 -3l-5 43l101 31q38 12 61.5 36
t56.5 71l357 536l-345 514q-32 49 -52.5 69.5t-59.5 31.5l-91 28z" />
    <glyph glyph-name="Psi" unicode="&#x3a8;" horiz-adv-x="1707" 
d="M758 505q-115 4 -202.5 18.5t-152.5 43t-108.5 73.5t-69 110.5t-36.5 153.5t-11 204q0 45 -0.5 94t-1.5 82q-1 26 -25 34l-122 39l-4 43q129 -4 242 -4q52 0 105 2q-2 -61 -3.5 -140t-1.5 -157q0 -106 5.5 -184t22 -134t43.5 -93.5t71 -59.5t105 -31.5t144 -12.5v532
q0 51 -0.5 92t-1.5 78q-1 27 -24 34l-113 35l-2 43q117 -4 235 -4q116 0 235 4l4 -43l-113 -33q-24 -6 -26 -30q-1 -40 -2 -81.5t-1 -90.5v-537q124 4 201.5 25.5t119.5 78t56.5 155.5t14.5 257q0 78 -1.5 157t-3.5 140q52 -2 105 -2q112 0 237 4l4 -43l-126 -39
q-23 -8 -24 -34q-1 -33 -1.5 -82t-0.5 -94q0 -174 -27 -286.5t-94 -181t-178.5 -98.5t-281.5 -36v-199q0 -60 1 -107t2 -87q1 -25 34 -34l124 -39l2 -43q-140 3 -256 3q-120 0 -256 -3l-4 43l133 41q25 7 27 31q1 40 1.5 87.5t0.5 107.5v198z" />
    <glyph glyph-name="uni03A9" unicode="&#x3a9;" horiz-adv-x="1626" 
d="M671 0q-265 0 -556 -3l-6 7l-37 378l45 8l121 -241h301v7q-374 382 -374 714q0 251 190 407t470 156q272 0 456 -151t184 -396q0 -330 -377 -730v-7h299l124 233l45 8l-36 -386l-6 -7q-291 3 -555 3l-9 128q287 355 287 711q0 235 -111 375t-319 140q-202 0 -308 -136
t-106 -369q0 -368 286 -721z" />
    <glyph glyph-name="Iotadieresis" unicode="&#x3aa;" horiz-adv-x="678" 
d="M245 1635q0 -52 -31.5 -83.5t-81.5 -31.5q-47 0 -77 29.5t-30 77.5q0 53 31.5 83t82.5 30q47 0 76.5 -27.5t29.5 -77.5zM665 1635q0 -52 -31.5 -83.5t-81.5 -31.5q-47 0 -77 29.5t-30 77.5q0 53 31.5 83t82.5 30q47 0 76.5 -27.5t29.5 -77.5zM-75 1400zM445 307
q0 -60 0.5 -109t1.5 -89q1 -25 35 -34l113 -35l2 -43q-129 3 -248 3q-121 0 -248 -3l-4 43l123 37q25 7 27 31q1 40 1.5 89.5t0.5 109.5v811q0 51 -0.5 92t-1.5 74q-1 26 -24 34l-124 39l-2 43q129 -4 248 -4q120 0 248 4l4 -43l-124 -37q-24 -6 -26 -31q-1 -35 -1.5 -76.5
t-0.5 -90.5v-815z" />
    <glyph glyph-name="Upsilondieresis" unicode="&#x3ab;" horiz-adv-x="1215" 
d="M668 712l231 437q25 48 42 82t17 56q0 31 -44 43l-90 24l-2 46q108 -4 221 -4q109 0 212 4l4 -43l-101 -32q-36 -11 -55.5 -35t-39.5 -59l-346 -617v-304q0 -60 0.5 -109t1.5 -89q1 -25 35 -34l124 -38l2 -43q-140 3 -258 3q-121 0 -259 -3l-4 43l134 40q25 7 27 31
q1 40 1.5 89.5t0.5 109.5v283l-352 610q-37 61 -60.5 88t-62.5 38l-91 28l-2 43q91 -4 246 -4q135 0 279 4l4 -43l-94 -26q-21 -5 -30 -14.5t-9 -23.5q0 -21 15.5 -51.5t38.5 -70.5zM522 1635q0 -52 -31.5 -83.5t-81.5 -31.5q-47 0 -77 29.5t-30 77.5q0 53 31.5 83t82.5 30
q47 0 76.5 -27.5t29.5 -77.5zM942 1635q0 -52 -31.5 -83.5t-81.5 -31.5q-47 0 -77 29.5t-30 77.5q0 53 31.5 83t82.5 30q47 0 76.5 -27.5t29.5 -77.5zM202 1400z" />
    <glyph glyph-name="alphatonos" unicode="&#x3ac;" horiz-adv-x="1158" 
d="M876 902q95 20 202 48l9 -7q-26 -81 -52.5 -151.5t-56 -138t-62 -136t-71.5 -143.5q37 -155 115 -228t205 -77l5 -46q-73 -21 -137 -31t-106 -10q-53 0 -90.5 63t-69.5 194q-171 -267 -361 -267q-149 0 -235 131t-86 310q0 227 114.5 382t293.5 155q229 0 300 -362h2
q27 86 45 159.5t36 154.5zM730 418q-38 212 -100.5 317.5t-145.5 105.5q-102 0 -159 -106t-57 -273q0 -168 51.5 -260.5t141.5 -92.5q68 0 135 77.5t134 231.5zM620 1433h206l-220 -405h-75z" />
    <glyph glyph-name="epsilontonos" unicode="&#x3ad;" horiz-adv-x="897" 
d="M658 429q-40 8 -104 8q-116 0 -186.5 -43.5t-70.5 -123.5q0 -92 78 -136.5t210 -44.5t253 35l5 -39q-65 -56 -164.5 -84.5t-203.5 -28.5q-169 0 -273 69t-104 191q0 81 54 144t140 94q-176 71 -176 204q0 134 115.5 205t291.5 71q161 0 309 -65q-27 -103 -49 -231l-39 -6
l-64 189q-78 23 -150 23q-104 0 -169.5 -39.5t-65.5 -113.5q0 -83 75.5 -128t197.5 -45q48 0 81 5zM527 1433h206l-220 -405h-75z" />
    <glyph glyph-name="etatonos" unicode="&#x3ae;" horiz-adv-x="1124" 
d="M371 766v-474q0 -119 5 -283q-95 -11 -178 -26l-10 8q2 156 2 285v186q0 63 -0.5 122.5t-2.5 142.5q-1 37 -6 61t-20.5 37.5t-43 18t-72.5 4.5l-7 37q158 49 229 49q93 0 101 -107q177 123 322 123q136 0 207.5 -84.5t71.5 -220.5v-647q0 -308 14 -472q-95 -10 -186 -27
l-9 7v1091q0 117 -50.5 169.5t-156.5 52.5q-112 0 -210 -53zM581 1433h206l-220 -405h-75z" />
    <glyph glyph-name="iotatonos" unicode="&#x3af;" horiz-adv-x="541" 
d="M351 482q0 -209 3 -299q2 -63 21.5 -83t58.5 -27.5t106 -8.5l5 -40q-162 -49 -242 -49q-133 0 -133 168v499q0 149 -11 264q102 22 189 44l9 -7q-6 -131 -6 -286v-175zM295 1433h206l-220 -405h-75z" />
    <glyph glyph-name="upsilondieresistonos" unicode="&#x3b0;" horiz-adv-x="1037" 
d="M183 752q0 55 -33 76t-116 20l-6 37q81 25 141 37t93 12q51 0 79.5 -33t28.5 -99q0 -27 -7.5 -151.5t-7.5 -202.5q0 -196 52 -280.5t159 -84.5q113 0 171.5 90.5t58.5 281.5q0 227 -100 451q99 21 184 43l9 -7q56 -173 56 -360q0 -273 -113 -441.5t-307 -168.5
q-182 0 -266 112t-84 367q0 54 4 153t4 148zM394 1197q0 -49 -29.5 -79t-76.5 -30q-46 0 -73.5 27.5t-27.5 75.5q0 50 29.5 78.5t77.5 28.5q45 0 72.5 -26.5t27.5 -74.5zM902 1197q0 -49 -29.5 -79t-76.5 -30q-45 0 -73 27.5t-28 75.5q0 50 29.5 78.5t77.5 28.5
q45 0 72.5 -26.5t27.5 -74.5zM525 1433h194l-209 -405h-63zM108 927z" />
    <glyph glyph-name="alpha" unicode="&#x3b1;" horiz-adv-x="1158" 
d="M876 902q95 20 202 48l9 -7q-26 -81 -52.5 -151.5t-56 -138t-62 -136t-71.5 -143.5q37 -155 115 -228t205 -77l5 -46q-73 -21 -137 -31t-106 -10q-53 0 -90.5 63t-69.5 194q-171 -267 -361 -267q-149 0 -235 131t-86 310q0 227 114.5 382t293.5 155q229 0 300 -362h2
q27 86 45 159.5t36 154.5zM730 418q-38 212 -100.5 317.5t-145.5 105.5q-102 0 -159 -106t-57 -273q0 -168 51.5 -260.5t141.5 -92.5q68 0 135 77.5t134 231.5z" />
    <glyph glyph-name="beta" unicode="&#x3b2;" horiz-adv-x="1148" 
d="M361 -474q-95 -10 -181 -27l-10 7v1347q0 359 124 505t338 146q161 0 264 -95t103 -241q0 -252 -274 -364l1 -7q163 -32 254 -131.5t91 -250.5q0 -195 -145 -318t-350 -123q-119 0 -231 48q0 -341 16 -496zM345 107q108 -42 203 -42q144 0 232 90.5t88 249.5
q0 162 -88.5 249t-261.5 87q-27 0 -54 -2l-11 73q181 12 271 85.5t90 225.5q0 125 -62 205.5t-166 80.5q-125 0 -183 -101t-58 -337v-864z" />
    <glyph glyph-name="gamma" unicode="&#x3b3;" horiz-adv-x="944" 
d="M344 -494q51 294 51 464q0 32 -13 97.5t-35.5 148.5t-52.5 173.5t-62.5 172.5t-66 146t-63.5 93q-14 15 -29.5 24t-34 14t-42 7t-53.5 2l-7 37q157 49 229 49q38 0 62 -14t43 -40q75 -105 153 -326q77 -220 100 -366q125 329 215 719q50 11 95.5 21.5t87.5 21.5l10 -7
q-43 -119 -92 -234.5t-99.5 -231t-98.5 -233t-89 -238.5q4 -63 4 -141q0 -135 -14 -339q-97 -9 -189 -27z" />
    <glyph glyph-name="delta" unicode="&#x3b4;" horiz-adv-x="1050" 
d="M890 1141q-276 240 -454 240q-71 0 -71 -52q0 -24 15 -49t43 -57t70.5 -72t99.5 -93q65 -62 132 -130.5t121 -145t88 -160.5t34 -177q0 -196 -139 -334.5t-330 -138.5q-190 0 -309 120.5t-119 306.5q0 183 111 312t318 196q-51 50 -98.5 96t-85 92t-60 94t-22.5 99
q0 86 68.5 140t174.5 54q119 0 266 -54.5t254 -132.5l3 -10q-55 -67 -110 -144zM554 850q-291 -99 -291 -415q0 -159 71.5 -268t188.5 -109t184 89t67 233q0 73 -15 135t-43 119t-69 110t-93 106z" />
    <glyph glyph-name="epsilon" unicode="&#x3b5;" horiz-adv-x="897" 
d="M658 429q-40 8 -104 8q-116 0 -186.5 -43.5t-70.5 -123.5q0 -92 78 -136.5t210 -44.5t253 35l5 -39q-65 -56 -164.5 -84.5t-203.5 -28.5q-169 0 -273 69t-104 191q0 81 54 144t140 94q-176 71 -176 204q0 134 115.5 205t291.5 71q161 0 309 -65q-27 -103 -49 -231l-39 -6
l-64 189q-78 23 -150 23q-104 0 -169.5 -39.5t-65.5 -113.5q0 -83 75.5 -128t197.5 -45q48 0 81 5z" />
    <glyph glyph-name="zeta" unicode="&#x3b6;" horiz-adv-x="846" 
d="M837 1372q-232 -174 -396.5 -446.5t-164.5 -508.5q0 -69 22.5 -114t64.5 -74.5t93 -47t103 -32.5q51 -15 98 -31.5t84.5 -42t60 -63.5t22.5 -95q0 -85 -59 -179t-162 -208l-45 31q93 154 93 246q0 48 -20.5 79.5t-55 53t-79 35.5t-92.5 28q-58 17 -115 39t-103 59.5
t-74 97.5t-28 154q0 428 530 946l-388 -34q-10 86 -27 164l6 7q173 -5 286 -5h77q157 0 261 5z" />
    <glyph glyph-name="eta" unicode="&#x3b7;" horiz-adv-x="1124" 
d="M371 766v-474q0 -119 5 -283q-95 -11 -178 -26l-10 8q2 156 2 285v186q0 63 -0.5 122.5t-2.5 142.5q-1 37 -6 61t-20.5 37.5t-43 18t-72.5 4.5l-7 37q158 49 229 49q93 0 101 -107q177 123 322 123q136 0 207.5 -84.5t71.5 -220.5v-647q0 -308 14 -472q-95 -10 -186 -27
l-9 7v1091q0 117 -50.5 169.5t-156.5 52.5q-112 0 -210 -53z" />
    <glyph glyph-name="theta" unicode="&#x3b8;" horiz-adv-x="1083" 
d="M982 720q0 -351 -116.5 -549.5t-339.5 -198.5q-203 0 -313 195t-110 542q0 346 126.5 544.5t330.5 198.5q197 0 309.5 -198t112.5 -534zM792 688h-499q4 -288 72 -455t192 -167q120 0 177 142t58 461v19zM787 789q-17 280 -81 424.5t-165 144.5q-111 0 -174 -146.5
t-73 -422.5h493z" />
    <glyph glyph-name="iota" unicode="&#x3b9;" horiz-adv-x="541" 
d="M351 482q0 -209 3 -299q2 -63 21.5 -83t58.5 -27.5t106 -8.5l5 -40q-162 -49 -242 -49q-133 0 -133 168v499q0 149 -11 264q102 22 189 44l9 -7q-6 -131 -6 -286v-175z" />
    <glyph glyph-name="kappa" unicode="&#x3ba;" horiz-adv-x="1107" 
d="M1011 735q-92 28 -163 28q-43 0 -77.5 -10.5t-67 -34.5t-67 -64t-79.5 -100l260 -335q65 -84 122.5 -119t142.5 -36l5 -40q-138 -42 -225 -42q-59 0 -102 30.5t-95 102.5q-41 57 -71.5 98t-50.5 67q-20 27 -44 58.5t-54 69.5l-74 -95q0 -69 1.5 -144t3.5 -160
q-88 -10 -178 -26l-10 8q1 95 1.5 166t0.5 119v186q0 63 -1 130.5t-2 134.5q-1 37 -6 61t-20.5 37.5t-43 18t-72.5 4.5l-7 37q167 49 229 49q104 0 104 -143v-349l123 160q60 77 107.5 138.5t97 104t106.5 65t136 22.5q73 0 131 -12q-23 -83 -54 -182z" />
    <glyph glyph-name="lambda" unicode="&#x3bb;" horiz-adv-x="1102" 
d="M1125 59l5 -40q-125 -37 -210 -37q-30 0 -53 10t-40.5 33.5t-32.5 61.5t-27 96q-10 42 -22.5 97.5t-26 120.5t-29 139t-29.5 152l-386 -683q-105 -9 -207 -26l-9 8l554 949q-10 50 -22 102t-26 100q-14 49 -31 83.5t-40 56.5t-53 32t-69 10q-81 0 -182 -28l-7 3l-35 167
q121 28 215 28q52 0 95.5 -12t80 -40.5t64.5 -75t48 -114.5q13 -42 25 -91.5t25 -109.5t28 -133.5t32 -163.5q10 -46 20.5 -100t22.5 -109.5t24 -109t24 -100.5q19 -76 39.5 -125.5t50.5 -81.5t74.5 -47.5t109.5 -21.5z" />
    <glyph glyph-name="uni03BC" unicode="&#x3bc;" horiz-adv-x="1147" 
d="M170 -494v1136q0 75 -3 140.5t-8 123.5q102 22 189 44l9 -7q-6 -131 -6 -286v-344q0 -107 47.5 -159t152.5 -52q63 0 123 24t102 78v438q0 75 -3 140.5t-8 123.5q102 22 189 44l9 -7q-6 -131 -6 -286v-175q0 -209 3 -305q1 -55 20 -77q19 -20 56 -27.5t102 -8.5l5 -40
q-161 -49 -238 -49q-59 0 -91.5 34.5t-37.5 113.5q-23 -38 -53.5 -66.5t-64 -47t-70 -28t-71.5 -9.5q-106 0 -186 80q14 -327 38 -526q-47 -5 -94.5 -11.5t-94.5 -15.5z" />
    <glyph glyph-name="nu" unicode="&#x3bd;" horiz-adv-x="965" 
d="M551 203q79 127 125.5 263t46.5 275q0 83 -19 165q52 12 94.5 22.5t83.5 20.5l16 -7q7 -26 7 -67q0 -63 -19.5 -141t-51 -162t-72 -169t-81.5 -162t-79.5 -141.5t-67.5 -106.5l-85 -9q-21 63 -41 122.5t-39 117.5t-40 116.5t-43 119.5q-14 37 -32.5 86t-39.5 98.5t-43 92
t-43 64.5q-14 14 -27.5 23.5t-31 15t-38.5 8t-49 4.5l-6 36q77 24 128 35t88 11q38 0 62.5 -13.5t42.5 -40.5q14 -24 30.5 -62t35.5 -84.5t38.5 -98t37.5 -101.5t34 -95.5t28 -80.5q11 -33 24 -73t26 -82z" />
    <glyph glyph-name="xi" unicode="&#x3be;" horiz-adv-x="883" 
d="M796 807q-132 -27 -230.5 -73t-163 -102.5t-96.5 -118.5t-32 -120q0 -68 23 -111.5t63 -70.5t92.5 -45t112.5 -35q50 -14 98 -30t85.5 -41t60.5 -62.5t23 -94.5q0 -85 -59 -179t-154 -194l-46 31q85 140 85 232q0 48 -19.5 79.5t-54.5 54t-82 37t-102 30.5
q-73 20 -131.5 47t-99.5 66.5t-62.5 92t-21.5 122.5q0 85 30.5 152.5t82.5 121.5t121 98t144 83q-55 7 -102.5 26t-82 48t-54 67.5t-19.5 84.5q0 56 26.5 106t71 93t101.5 79t118 66l-1 2q-78 -8 -156.5 -19.5t-155.5 -22.5q-5 44 -11.5 82.5t-14.5 77.5l6 7q88 -2 160 -3.5
t130 -1.5h100q81 0 146.5 1.5t118.5 3.5l9 -64q-53 -14 -108 -34t-107 -47t-98.5 -58.5t-82 -67t-56 -74.5t-20.5 -80q0 -52 27.5 -85t71.5 -53t99 -27.5t112 -7.5q22 0 46 1t50 3z" />
    <glyph glyph-name="omicron" unicode="&#x3bf;" horiz-adv-x="1101" 
d="M281 472q0 -187 68.5 -304.5t203.5 -117.5q126 0 193 103.5t67 306.5q0 191 -69.5 301t-202.5 110q-126 0 -193 -99t-67 -300zM1016 481q0 -228 -136 -368.5t-346 -140.5q-204 0 -330 132.5t-126 346.5q0 220 132 359.5t350 139.5q205 0 330.5 -128.5t125.5 -340.5z" />
    <glyph glyph-name="pi" unicode="&#x3c0;" horiz-adv-x="1168" 
d="M863 774q-5 -129 -5 -355q0 -106 4 -168.5t26 -105t70.5 -62t136.5 -19.5l5 -40q-159 -49 -237 -49q-87 0 -131 57.5t-44 165.5q0 148 47 576h-278l-55 -442q-25 -205 -36 -323q-101 -11 -184 -26l-9 8q24 131 62 304l106 479h-296l-6 37q111 54 214 113h572q199 0 308 3
l6 -7q-18 -67 -34 -156q-103 10 -242 10z" />
    <glyph glyph-name="rho" unicode="&#x3c1;" horiz-adv-x="1104" 
d="M328 19q0 -293 18 -493q-47 -5 -94.5 -11.5t-94.5 -15.5l-9 7v939q0 232 118 368.5t333 136.5q190 0 305 -121t115 -322q0 -233 -139.5 -379.5t-357.5 -146.5q-96 0 -194 38zM328 107q83 -40 166 -40q156 0 241 105.5t85 294.5q0 186 -71 285.5t-197 99.5
q-119 0 -171.5 -76.5t-52.5 -250.5v-418z" />
    <glyph glyph-name="sigma1" unicode="&#x3c2;" horiz-adv-x="953" 
d="M708 848q-50 18 -103 18q-153 0 -237.5 -103t-84.5 -271q0 -84 20.5 -141.5t56.5 -99.5t86.5 -72t110.5 -58q45 -21 89 -43t78.5 -48.5t55.5 -58t21 -73.5q0 -132 -210 -368l-45 31q82 130 82 221q0 44 -20 75t-51 53.5t-68 39.5t-73 34q-76 36 -136.5 78.5t-103 96
t-66 120.5t-23.5 162q0 222 140 365.5t371 143.5q147 0 285 -60q-14 -55 -29 -122t-29 -146l-39 -7z" />
    <glyph glyph-name="sigma" unicode="&#x3c3;" horiz-adv-x="1140" 
d="M792 777q192 -181 192 -384q0 -180 -124.5 -300.5t-323.5 -120.5q-197 0 -326 131.5t-129 328.5q0 228 160 360t436 132q346 0 460 3l6 -7q-21 -74 -35 -156q-192 12 -316 13zM676 778q-215 0 -313 -82t-98 -266q0 -156 81 -266t215 -110q106 0 170.5 84t64.5 220
q0 209 -120 420z" />
    <glyph glyph-name="tau" unicode="&#x3c4;" horiz-adv-x="907" 
d="M475 774q-15 -212 -15 -421q0 -164 30 -213.5t115 -49.5q70 0 180 18l6 -45q-171 -87 -303 -87q-107 0 -157.5 58.5t-50.5 176.5q0 168 53 563h-322l-6 37q112 55 214 113h282q258 0 373 3l6 -7q-18 -67 -34 -156q-163 10 -371 10z" />
    <glyph glyph-name="upsilon" unicode="&#x3c5;" horiz-adv-x="1037" 
d="M183 752q0 55 -33 76t-116 20l-6 37q81 25 141 37t93 12q51 0 79.5 -33t28.5 -99q0 -27 -7.5 -151.5t-7.5 -202.5q0 -196 52 -280.5t159 -84.5q113 0 171.5 90.5t58.5 281.5q0 227 -100 451q99 21 184 43l9 -7q56 -173 56 -360q0 -273 -113 -441.5t-307 -168.5
q-182 0 -266 112t-84 367q0 54 4 153t4 148z" />
    <glyph glyph-name="phi" unicode="&#x3c6;" horiz-adv-x="1411" 
d="M650 -498l-8 8l-6 456q-259 12 -411.5 143t-152.5 342q0 210 150.5 346t401.5 155q-2 71 -4.5 127.5t-5.5 104t-7 88t-8 80.5q51 12 100 22.5t91 21.5l9 -7q-3 -52 -6 -101t-5.5 -100t-4.5 -108t-4 -126q256 -11 404 -138t148 -335q0 -223 -160.5 -360.5t-403.5 -152.5
l-5 -446zM626 883q-167 -15 -264.5 -113.5t-97.5 -297.5q0 -181 98 -297t274 -136q-2 147 -3 271t-2 227t-2.5 189t-2.5 157zM778 882q-2 -72 -3 -156t-2.5 -187t-2.5 -226.5t-2 -274.5q170 12 271 116t101 306q0 182 -96 291t-266 131z" />
    <glyph glyph-name="chi" unicode="&#x3c7;" horiz-adv-x="1016" 
d="M999 940q-240 -374 -432 -713q29 -76 63 -163.5t68 -163.5q43 -95 75.5 -153.5t67 -92t78 -49t113.5 -22.5l5 -40q-142 -40 -226 -40q-31 0 -54.5 13.5t-43.5 40.5t-38.5 69.5t-38.5 102.5q-27 70 -59.5 165t-79.5 226q-141 -260 -308 -594q-96 -10 -195 -27l-9 7
q238 457 443 810q-22 57 -47 114t-48 111q-46 94 -84 154.5t-77.5 94t-86.5 46.5t-111 12l-6 37q152 49 227 49q32 0 55.5 -16t43 -42t36 -59t31.5 -65q20 -42 36.5 -80t32.5 -76t30.5 -78.5t36.5 -99.5q141 260 293 493q104 17 200 36z" />
    <glyph glyph-name="psi" unicode="&#x3c8;" horiz-adv-x="1381" 
d="M684 -498l-8 8l-5 468q-244 4 -373 145.5t-129 427.5q0 52 3.5 103.5t3.5 97.5q0 28 -6.5 46.5t-23.5 29.5t-45 15.5t-69 4.5l-6 37q161 49 228 49q49 0 76 -33t27 -99q0 -57 -5 -116t-5 -111q0 -248 77 -359t246 -130q-2 235 -5 411t-5.5 305t-5.5 218.5t-6.5 152
t-7.5 104t-8 75.5q100 20 197 44l10 -7q-3 -46 -6 -95t-6 -115t-5.5 -157.5t-5 -221t-5.5 -305t-5 -410.5q167 20 252.5 133.5t85.5 286.5q0 180 -79 401q95 20 179 43l10 -7q41 -153 41 -306q0 -282 -132 -452.5t-358 -200.5l-4 -461z" />
    <glyph glyph-name="omega" unicode="&#x3c9;" horiz-adv-x="1444" 
d="M622 619q95 20 189 45l10 -8q-25 -165 -25 -307q0 -115 43.5 -185.5t121.5 -70.5q98 0 150.5 96t52.5 244q0 140 -42 252t-117 220l75 33q120 -74 201 -208t81 -283q0 -186 -111.5 -330.5t-280.5 -144.5q-87 0 -155 55.5t-96 150.5h-5q-39 -101 -113.5 -153.5
t-174.5 -52.5q-160 0 -257.5 121.5t-97.5 299.5q0 160 83 310t218 235l80 -33q-181 -200 -181 -455q0 -153 55 -255.5t151 -102.5q80 0 126 69.5t46 181.5q0 136 -27 276z" />
    <glyph glyph-name="iotadieresis" unicode="&#x3ca;" horiz-adv-x="541" 
d="M351 482q0 -209 3 -299q2 -63 21.5 -83t58.5 -27.5t106 -8.5l5 -40q-162 -49 -242 -49q-133 0 -133 168v499q0 149 -11 264q102 22 189 44l9 -7q-6 -131 -6 -286v-175zM186 1200q0 -51 -31.5 -82.5t-81.5 -31.5q-48 0 -77.5 29t-29.5 78q0 52 31.5 82t82.5 30
q47 0 76.5 -27.5t29.5 -77.5zM570 1200q0 -51 -31.5 -82.5t-81.5 -31.5q-47 0 -77 29t-30 78q0 52 31.5 82t82.5 30q48 0 77 -27.5t29 -77.5zM-152 824z" />
    <glyph glyph-name="upsilondieresis" unicode="&#x3cb;" horiz-adv-x="1037" 
d="M183 752q0 55 -33 76t-116 20l-6 37q81 25 141 37t93 12q51 0 79.5 -33t28.5 -99q0 -27 -7.5 -151.5t-7.5 -202.5q0 -196 52 -280.5t159 -84.5q113 0 171.5 90.5t58.5 281.5q0 227 -100 451q99 21 184 43l9 -7q56 -173 56 -360q0 -273 -113 -441.5t-307 -168.5
q-182 0 -266 112t-84 367q0 54 4 153t4 148zM444 1200q0 -51 -31.5 -82.5t-81.5 -31.5q-48 0 -77.5 29t-29.5 78q0 52 31.5 82t82.5 30q47 0 76.5 -27.5t29.5 -77.5zM828 1200q0 -51 -31.5 -82.5t-81.5 -31.5q-47 0 -77 29t-30 78q0 52 31.5 82t82.5 30q48 0 77 -27.5
t29 -77.5zM106 824z" />
    <glyph glyph-name="omicrontonos" unicode="&#x3cc;" horiz-adv-x="1101" 
d="M281 472q0 -187 68.5 -304.5t203.5 -117.5q126 0 193 103.5t67 306.5q0 191 -69.5 301t-202.5 110q-126 0 -193 -99t-67 -300zM1016 481q0 -228 -136 -368.5t-346 -140.5q-204 0 -330 132.5t-126 346.5q0 220 132 359.5t350 139.5q205 0 330.5 -128.5t125.5 -340.5z
M580 1433h206l-220 -405h-75z" />
    <glyph glyph-name="upsilontonos" unicode="&#x3cd;" horiz-adv-x="1037" 
d="M183 752q0 55 -33 76t-116 20l-6 37q81 25 141 37t93 12q51 0 79.5 -33t28.5 -99q0 -27 -7.5 -151.5t-7.5 -202.5q0 -196 52 -280.5t159 -84.5q113 0 171.5 90.5t58.5 281.5q0 227 -100 451q99 21 184 43l9 -7q56 -173 56 -360q0 -273 -113 -441.5t-307 -168.5
q-182 0 -266 112t-84 367q0 54 4 153t4 148zM554 1433h206l-220 -405h-75z" />
    <glyph glyph-name="omegatonos" unicode="&#x3ce;" horiz-adv-x="1444" 
d="M622 619q95 20 189 45l10 -8q-25 -165 -25 -307q0 -115 43.5 -185.5t121.5 -70.5q98 0 150.5 96t52.5 244q0 140 -42 252t-117 220l75 33q120 -74 201 -208t81 -283q0 -186 -111.5 -330.5t-280.5 -144.5q-87 0 -155 55.5t-96 150.5h-5q-39 -101 -113.5 -153.5
t-174.5 -52.5q-160 0 -257.5 121.5t-97.5 299.5q0 160 83 310t218 235l80 -33q-181 -200 -181 -455q0 -153 55 -255.5t151 -102.5q80 0 126 69.5t46 181.5q0 136 -27 276zM746 1433h206l-220 -405h-75z" />
    <glyph glyph-name="uni0400" unicode="&#x400;" horiz-adv-x="1189" 
d="M346 1396h243q224 0 473 4l6 -8l-58 -309l-40 -7l-62 231h-462v-550h91q104 0 232 2q26 1 34 26l35 135l54 2q-3 -140 -3 -207q0 -65 3 -204l-54 -4l-36 137q-8 26 -31 27q-130 2 -235 2h-90v-364q0 -111 2 -219h480l122 254l45 8l-22 -348l-7 -7q-259 3 -478 3h-238
q-121 0 -248 -3l-4 43l123 37q25 7 27 31q1 40 1.5 89.5t0.5 109.5v811q0 51 -0.5 92t-1.5 74q-1 26 -24 34l-124 39l-2 43q129 -4 248 -4zM353 1668l137 118l326 -244l-26 -46l-437 157v15zM186 1400z" />
    <glyph glyph-name="uni0401" unicode="&#x401;" horiz-adv-x="1189" 
d="M346 1396h243q224 0 473 4l6 -8l-58 -309l-40 -7l-62 231h-462v-550h91q104 0 232 2q26 1 34 26l35 135l54 2q-3 -140 -3 -207q0 -65 3 -204l-54 -4l-36 137q-8 26 -31 27q-130 2 -235 2h-90v-364q0 -111 2 -219h480l122 254l45 8l-22 -348l-7 -7q-259 3 -478 3h-238
q-121 0 -248 -3l-4 43l123 37q25 7 27 31q1 40 1.5 89.5t0.5 109.5v811q0 51 -0.5 92t-1.5 74q-1 26 -24 34l-124 39l-2 43q129 -4 248 -4zM506 1635q0 -52 -31.5 -83.5t-81.5 -31.5q-47 0 -77 29.5t-30 77.5q0 53 31.5 83t82.5 30q47 0 76.5 -27.5t29.5 -77.5zM926 1635
q0 -52 -31.5 -83.5t-81.5 -31.5q-47 0 -77 29.5t-30 77.5q0 53 31.5 83t82.5 30q47 0 76.5 -27.5t29.5 -77.5zM186 1400z" />
    <glyph glyph-name="uni0402" unicode="&#x402;" horiz-adv-x="1518" 
d="M530 1307h-353l-89 -266l-40 -7l-26 358l7 8q246 -4 471 -4h272q224 0 473 4l7 -8l-63 -351l-40 -7l-64 273h-359v-531q135 25 256 25q224 0 350 -96.5t126 -284.5q0 -201 -128 -324.5t-334 -123.5q-85 0 -173 21q20 94 49 176l7 3q107 -87 135 -103q28 -15 44 -15
q89 0 141.5 99t52.5 232q0 161 -88.5 242.5t-269.5 81.5q-81 0 -168 -12v-388q0 -68 0.5 -144.5t1.5 -165.5q-42 1 -98 1q-63 0 -128 -0.5t-144 -2.5l-4 43l148 44q25 8 26 31q1 38 1.5 86t0.5 108v998z" />
    <glyph glyph-name="uni0403" unicode="&#x403;" horiz-adv-x="1126" 
d="M446 307q0 -118 2 -194q1 -24 26 -31l138 -42l2 -43q-145 3 -264 3t-248 -3l-4 43l123 37q26 8 27 31q2 81 2 199v811q0 51 -0.5 92t-1.5 74q-1 26 -24 34l-124 39l-2 43q129 -4 248 -4h235q246 0 474 4l6 -8l-69 -367l-40 -7l-76 289h-430v-1000zM841 1653l-436 -157
l-27 46l326 244l137 -118v-15zM180 1400z" />
    <glyph glyph-name="uni0404" unicode="&#x404;" horiz-adv-x="1363" 
d="M1141 1055l-67 251q-126 35 -233 35q-267 0 -396.5 -155.5t-136.5 -419.5h672v-93h-673q6 -293 143.5 -460.5t423.5 -167.5q97 0 195 30l129 269l45 8l-21 -338l-6 -8q-197 -45 -366 -45q-377 0 -564 173.5t-187 522.5q0 382 202 574t587 192q168 0 347 -41l6 -8
l-60 -312z" />
    <glyph glyph-name="uni0405" unicode="&#x405;" horiz-adv-x="1044" 
d="M760 1309q-105 35 -193 35q-132 0 -210.5 -64t-78.5 -178q0 -65 27.5 -114t74 -86t105.5 -66t122 -57q69 -30 134 -63.5t117.5 -78.5t84 -108t31.5 -147q0 -199 -139.5 -304t-386.5 -105q-159 0 -352 54l-6 8l49 340l45 7l70 -284q106 -42 217 -42q149 0 232.5 66
t83.5 188q0 64 -27 112.5t-72.5 83.5t-103.5 63.5t-120 56.5q-70 30 -136 65t-119.5 81.5t-85.5 114t-32 157.5q0 181 135.5 280t359.5 99q158 0 331 -37l7 -7l-59 -312l-40 -7z" />
    <glyph glyph-name="uni0406" unicode="&#x406;" horiz-adv-x="696" 
d="M446 307q0 -60 0.5 -109t1.5 -89q1 -25 35 -34l113 -35l2 -43q-129 3 -248 3q-121 0 -248 -3l-4 43l123 37q25 7 27 31q1 40 1.5 89.5t0.5 109.5v811q0 51 -0.5 92t-1.5 74q-1 26 -24 34l-124 39l-2 43q129 -4 248 -4q120 0 248 4l4 -43l-124 -37q-24 -6 -26 -31
q-1 -35 -1.5 -76.5t-0.5 -90.5v-815z" />
    <glyph glyph-name="uni0407" unicode="&#x407;" horiz-adv-x="696" 
d="M446 307q0 -60 0.5 -109t1.5 -89q1 -25 35 -34l113 -35l2 -43q-129 3 -248 3q-121 0 -248 -3l-4 43l123 37q25 7 27 31q1 40 1.5 89.5t0.5 109.5v811q0 51 -0.5 92t-1.5 74q-1 26 -24 34l-124 39l-2 43q129 -4 248 -4q120 0 248 4l4 -43l-124 -37q-24 -6 -26 -31
q-1 -35 -1.5 -76.5t-0.5 -90.5v-815zM249 1635q0 -52 -31.5 -83.5t-81.5 -31.5q-47 0 -77 29.5t-30 77.5q0 53 31.5 83t82.5 30q47 0 76.5 -27.5t29.5 -77.5zM669 1635q0 -52 -31.5 -83.5t-81.5 -31.5q-47 0 -77 29.5t-30 77.5q0 53 31.5 83t82.5 30q47 0 76.5 -27.5
t29.5 -77.5zM-71 1400z" />
    <glyph glyph-name="uni0408" unicode="&#x408;" horiz-adv-x="640" 
d="M83 1400q129 -4 248 -4t247 4l5 -43l-124 -37q-25 -6 -27 -31q-1 -35 -1.5 -76.5t-0.5 -90.5v-906q0 -98 -7.5 -178.5t-26.5 -143.5t-53.5 -112.5t-87.5 -88t-128 -67.5t-178 -53l-15 50q104 44 163.5 97t90 121t39 153t8.5 192v932q0 51 -0.5 92t-1.5 74q-1 26 -24 34
l-124 39z" />
    <glyph glyph-name="uni0409" unicode="&#x409;" horiz-adv-x="1951" 
d="M665 1305q-6 -156 -23.5 -312.5t-52 -310.5t-88 -304t-132.5 -294q-15 -25 -28.5 -44t-35.5 -31.5t-55 -18.5t-85 -6q-80 0 -186 18l-4 43l58 11q36 6 60.5 14t45 19.5t39.5 28.5t43 44q61 67 109.5 154.5t86 186.5t65 204t44.5 206.5t25 196.5t8 173q0 23 -32 32
l-153 42l-2 43q135 -4 214 -4h511q119 0 247 4l5 -43l-123 -37q-26 -8 -28 -32q-1 -40 -1.5 -89t-0.5 -109v-297q88 8 161 8q261 0 397.5 -99t136.5 -279q0 -208 -146.5 -318.5t-400.5 -110.5q-50 0 -110 3t-133 3q-121 0 -248 -3l-4 43l123 37q26 8 27 31q1 40 1.5 89.5
t0.5 109.5v998h-336zM1196 712v-623q55 -17 141 -17q167 0 252.5 84t85.5 244q0 161 -89.5 239t-278.5 78q-48 0 -111 -5z" />
    <glyph glyph-name="uni040A" unicode="&#x40a;" horiz-adv-x="2104" 
d="M1349 1118v-325q88 8 160 8q262 0 398.5 -99t136.5 -279q0 -208 -146.5 -318.5t-400.5 -110.5q-51 0 -110.5 3t-133.5 3q-121 0 -237 -3l-4 43l113 35q25 8 26 33q1 40 1.5 89.5t0.5 109.5v385h-707v-385q0 -118 2 -198q1 -27 26 -34l111 -35l3 -43q-119 3 -238 3
t-248 -3l-4 43l123 37q26 8 27 31q2 81 2 199v811q0 100 -2 166q-1 26 -24 34l-124 39l-2 43q129 -4 248 -4q120 0 237 4l5 -43l-114 -35q-25 -6 -26 -31q-2 -72 -2 -169v-339h707v339q0 97 -2 169q-1 25 -26 31l-111 35l-2 43q122 -4 241 -4t244 4l4 -43l-126 -39
q-23 -8 -24 -34q-2 -66 -2 -166zM1349 712v-623q54 -17 140 -17q167 0 253 84t86 244q0 161 -90 239t-279 78q-47 0 -110 -5z" />
    <glyph glyph-name="uni040B" unicode="&#x40b;" horiz-adv-x="1649" 
d="M1090 1307h-364v-552q196 58 348 58q193 0 293 -89.5t100 -265.5v-180q0 -50 0.5 -91t1.5 -75q1 -26 24 -33l124 -39l2 -43q-129 3 -248 3t-237 -3l-4 43l113 35q24 6 26 30q2 37 2.5 79t0.5 90v139q0 139 -73.5 212.5t-236.5 73.5q-122 0 -236 -25v-365q0 -60 0.5 -108
t1.5 -86q2 -24 26 -31l148 -44l2 -43q-156 3 -274 3q-123 0 -278 -3l2 43l148 44q24 7 26 31q1 38 1.5 86t0.5 108v998h-353l-89 -266l-40 -7l-26 358l7 8q246 -4 471 -4h277q225 0 474 4l6 -8l-63 -351l-40 -7z" />
    <glyph glyph-name="uni040C" unicode="&#x40c;" horiz-adv-x="1374" 
d="M446 651v-344q0 -60 0.5 -108t1.5 -87q1 -31 26 -39l111 -33l3 -43q-119 3 -238 3q-121 0 -248 -3l-4 43l123 37q25 7 27 31q1 40 1.5 89.5t0.5 109.5v811q0 51 -0.5 92t-1.5 74q-1 26 -24 34l-124 39l-2 43q66 -2 127 -3t121 -1t118.5 1t118.5 3l5 -43l-114 -35
q-25 -6 -26 -31q-1 -36 -1.5 -78t-0.5 -91v-383h105q46 0 82.5 3t67 14.5t55 33t46 58.5t40.5 91t39 131q20 80 35.5 136t30.5 92.5t31 57t37 30t50 11.5t70 2q85 0 183 -8l4 -62q-69 -2 -116.5 -20.5t-82 -53t-61 -85t-54.5 -114.5q-21 -47 -43 -93t-47 -87.5t-54.5 -76.5
t-65.5 -60q72 -106 132 -207t111 -186q48 -79 87.5 -139t73.5 -94q18 -17 35 -29t35 -20.5t38 -14.5t46 -12l3 -44q-72 -9 -120 -9q-41 0 -72 2t-55.5 8t-44 15.5t-37.5 24.5q-45 33 -89 98t-92 153q-39 69 -79.5 144t-88.5 148q-14 21 -24 35.5t-21.5 23t-26 12t-37.5 3.5
h-126zM966 1653l-436 -157l-27 46l326 244l137 -118v-15zM305 1400z" />
    <glyph glyph-name="uni040D" unicode="&#x40d;" horiz-adv-x="1634" 
d="M446 261v-152q0 -26 28 -34l111 -35l3 -43q-119 3 -238 3t-248 -3l-4 43l123 37q26 8 27 31q2 81 2 199v811q0 100 -2 166q-1 26 -24 34l-124 39l-2 43q129 -4 248 -4q120 0 237 4l5 -43l-114 -35q-25 -6 -26 -31q-2 -72 -2 -169v-717l743 788v98q0 23 -28 31l-111 35
l-3 43q122 -4 242 -4q119 0 244 4l4 -43l-126 -39q-23 -8 -24 -34q-3 -66 -3 -166v-811q0 -118 3 -199q1 -23 27 -31l121 -37l2 -43q-133 3 -252 3t-233 -3l-5 43l114 35q25 7 26 34l2 198v742zM567 1668l137 118l326 -244l-26 -46l-437 157v15zM400 1400z" />
    <glyph glyph-name="uni040E" unicode="&#x40e;" horiz-adv-x="1295" 
d="M896 1400q108 -4 220 -4q110 0 213 4l4 -43l-101 -32q-22 -7 -37.5 -17.5t-27 -25.5t-21 -35.5t-18.5 -48.5q-54 -145 -107 -282.5t-109 -272t-116.5 -268.5t-127.5 -270q-27 -56 -47 -90.5t-46.5 -55t-63.5 -28t-97 -7.5q-86 0 -186 15l-4 43l63 12q68 12 117 39.5
t88 68.5t72.5 95t72.5 119l-453 882q-13 25 -24 46t-24 37.5t-29.5 28.5t-41.5 19l-91 28l-2 43q92 -4 245 -4q120 0 284 4l4 -43l-94 -27q-42 -10 -42 -45q0 -24 16.5 -58.5t40.5 -78.5l321 -627q72 160 128 311t110 301q24 67 35 102t11 55q0 16 -8 25t-28 14l-97 25z
M516 1779v-137q0 -11 13 -20t35.5 -15t53 -9t66.5 -3t66 3t52 9t34 15t12 20v137q19 12 39.5 18t38.5 6q44 0 70.5 -29t26.5 -71q0 -57 -35 -93.5t-87 -58t-112 -30t-109 -8.5t-108.5 8.5t-111 30t-85.5 58t-34 93.5q0 42 26.5 71t70.5 29q18 0 38.5 -6t39.5 -18z" />
    <glyph glyph-name="uni040F" unicode="&#x40f;" horiz-adv-x="1558" 
d="M1110 1287q-1 28 -26 35l-111 35l-2 43q118 -4 237 -4q120 0 248 4l4 -43l-123 -37q-26 -9 -27 -32q-2 -81 -2 -198v-783q0 -118 2 -199q1 -23 27 -31l121 -37l2 -43q-132 3 -252 3h-338l-63 -422l-54 -7l-66 429h-341q-119 0 -244 -3l-4 43l126 39q23 7 24 33
q2 66 2 166v812q0 117 -2 198q-1 23 -27 32l-121 37l-2 43q133 -4 252 -4t233 4l5 -43l-114 -35q-25 -7 -26 -35q-2 -80 -2 -197v-999h667v999q0 117 -3 197z" />
    </font>
</defs>
</svg>
