<?xml version="1.0" standalone="no"?>
<!DOCTYPE svg PUBLIC "-//W3C//DTD SVG 1.1//EN" "http://www.w3.org/Graphics/SVG/1.1/DTD/svg11.dtd" >
<svg xmlns="http://www.w3.org/2000/svg" xmlns:xlink="http://www.w3.org/1999/xlink" version="1.1">
<metadata>
Created by FontForge 20170731 at Mon Aug 12 08:00:55 2013
 By Aleksey,,,
Copyright (c) 2013 by Cyreal (www.cyreal.org, a@cyreal.org). All rights reserved.
</metadata>
<defs>
<font id="Lora-Regular" horiz-adv-x="1274" >
  <font-face 
    font-family="Lora"
    font-weight="400"
    font-stretch="normal"
    units-per-em="2048"
    panose-1="2 0 5 3 0 0 0 2 0 4"
    ascent="1638"
    descent="-410"
    x-height="1024"
    cap-height="1434"
    bbox="-248 -556 2576 1980"
    underline-thickness="102"
    underline-position="-307"
    unicode-range="U+000D-FB02"
  />
<missing-glyph horiz-adv-x="1083" 
d="M102 1024h848v-1024h-848v1024zM272 77h508v870h-508v-870z" />
    <glyph glyph-name=".notdef" horiz-adv-x="1083" 
d="M102 1024h848v-1024h-848v1024zM272 77h508v870h-508v-870z" />
    <glyph glyph-name=".null" horiz-adv-x="539" 
 />
    <glyph glyph-name="glyph2" horiz-adv-x="0" 
 />
    <glyph glyph-name="nonmarkingreturn" unicode="&#xd;" horiz-adv-x="539" 
 />
    <glyph glyph-name="space" unicode=" " horiz-adv-x="539" 
 />
    <glyph glyph-name="exclam" unicode="!" horiz-adv-x="545" 
d="M391 98q0 -27 -10 -51t-27 -42t-38.5 -28t-45.5 -10t-45.5 10t-38 28t-26 42t-9.5 51q0 28 10 52.5t26.5 42.5t38.5 28.5t46 10.5q25 0 47 -10.5t38 -28.5t25 -42.5t9 -52.5zM309 471h-76l-80 845q-2 27 4.5 54t21.5 48.5t38 35t55 13.5q33 0 56 -13.5t37.5 -35t20 -48.5
t3.5 -54z" />
    <glyph glyph-name="quotedbl" unicode="&#x22;" horiz-adv-x="709" 
d="M144.376 1006l-17.7471 461h160.662l-16.8145 -461h-126.101zM437.376 1006l-17.7471 461h160.662l-16.8145 -461h-126.101z" />
    <glyph glyph-name="numbersign" unicode="#" horiz-adv-x="1700" 
d="M315 -33l93 398h-340l33 122h335l112 474h-345l33 122h341l91 384h135l-88 -384h435l91 384h135l-88 -384h343v-2l-31 -120h-340l-107 -474h342l-32 -122h-337l-90 -398h-148l93 398h-429l-90 -398h-147zM579 487h430l112 474h-434z" />
    <glyph glyph-name="dollar" unicode="$" horiz-adv-x="1083" 
d="M227 -27h-110v433h71q6 -95 34.5 -162.5t77 -111t115.5 -64t148 -20.5q60 0 110 19t86 52.5t56 80.5t20 103q0 71 -31.5 124t-83 95.5t-117.5 78t-134.5 71.5t-134.5 76t-117.5 91t-83 117t-31.5 154q0 32 9 70.5t28 77.5t49.5 76t73.5 66t99.5 47t127.5 20v239h111
l-2 -240q58 -6 115 -25t112 -61l-8 87h102v-448h-75q-5 74 -22.5 141t-55 117.5t-98 80.5t-150.5 30q-65 0 -112 -21t-77.5 -54.5t-45.5 -77t-15 -88.5q0 -67 32 -118t84 -92.5t118.5 -77.5t135.5 -72.5t135.5 -77t118.5 -92t84 -117.5t32 -152q0 -72 -24.5 -137.5
t-74.5 -117.5t-125 -85.5t-175 -40.5l-1 -280h-106l-2 280q-36 1 -74 8.5t-75 19.5t-71.5 27.5t-62.5 33.5z" />
    <glyph glyph-name="percent" unicode="%" horiz-adv-x="1782" 
d="M250 1103q0 -49 8.5 -107.5t31 -109.5t61.5 -85t100 -34q56 0 93 27.5t59.5 69.5t32 93t9.5 99q0 51 -9.5 110.5t-32 110t-61 84t-95.5 33.5q-58 0 -96 -31t-60.5 -75.5t-31.5 -95t-9 -89.5zM1500 1385l-1162 -1420l-87 72l1156 1430zM74 1070q0 72 24 142t71.5 126.5
t116.5 91.5t159 37q95 2 166 -30.5t117.5 -86t69.5 -122.5t23 -139q0 -79 -29.5 -152t-80.5 -128.5t-119.5 -88.5t-146.5 -33q-92 0 -161 32t-116 85.5t-70.5 122.5t-23.5 143zM1534 331q0 33 -3.5 70.5t-12.5 75t-24 72t-37 61t-53 42t-71 15.5q-56 0 -93 -27t-59.5 -69
t-32 -93t-9.5 -99q0 -52 10 -111t34 -109.5t63 -84t96 -33.5q58 0 95 30.5t58.5 75.5t30 95t8.5 89zM1710 364q0 -71 -24 -141.5t-71 -127t-116 -92t-159 -36.5q-95 -2 -166.5 30.5t-118.5 86.5t-70.5 122.5t-23.5 139.5q0 79 30 151.5t81.5 128t120.5 88.5t147 33
q91 0 160.5 -32t116 -85.5t70 -122.5t23.5 -143z" />
    <glyph glyph-name="ampersand" unicode="&#x26;" horiz-adv-x="1423" 
d="M1121 547q2 -41 -7 -100t-35 -125q23 -21 48.5 -44t54.5 -49q93 -83 159.5 -122t98.5 -39v-68h-190q-20 0 -84.5 38.5t-170.5 130.5q-33 -42 -75.5 -79t-97 -64t-121 -43t-147.5 -16q-89 0 -175.5 22t-154 70t-109 124.5t-41.5 185.5q0 66 22.5 124.5t64.5 109.5
t101.5 93.5t133.5 74.5q-41 51 -71 97.5t-49 92t-27.5 91t-8.5 93.5q1 73 29.5 132.5t78.5 101.5t119.5 65t151.5 23q78 0 141 -22t107.5 -61t69 -91.5t24.5 -112.5q0 -57 -18 -110t-58 -103.5t-104 -99t-157 -95.5q39 -42 81 -85t84 -87q21 -23 42.5 -44.5t46.5 -46
t55.5 -53.5t70.5 -66q10 36 14.5 69t4.5 61q0 35 -7 70.5t-24.5 65t-47.5 48.5t-75 21v68h358v-84l-170 7q32 -28 47 -70t17 -99zM871 283q-139 135 -244 238.5t-179 188.5q-49 -29 -81.5 -69.5t-52 -83.5t-27.5 -84.5t-8 -72.5q0 -84 26 -145.5t68 -101.5t96 -60.5
t111 -22.5q64 -3 117 8.5t96 33t76.5 51.5t59.5 65q-29 25 -58 55zM412 1161q0 -44 12.5 -87.5t35 -86t53 -84.5t66.5 -81q115 75 170 168t55 183q0 49 -13 91t-37.5 72t-61 47t-83.5 17q-42 0 -78.5 -15.5t-62.5 -46t-41 -75t-15 -102.5z" />
    <glyph glyph-name="quotesingle" unicode="'" horiz-adv-x="426" 
d="M146 1006l-19 461h172l-18 -461h-135z" />
    <glyph glyph-name="parenleft" unicode="(" horiz-adv-x="625" 
d="M280 489q0 -289 75.5 -538t233.5 -459l-51 -47q-51 47 -105 110.5t-105.5 141.5t-98 169t-81 191.5t-55 209t-20.5 222.5t20.5 224t55 213.5t81 197t98 174t105.5 146.5t105 112l51 -47q-159 -212 -234 -470.5t-75 -549.5z" />
    <glyph glyph-name="parenright" unicode=")" horiz-adv-x="625" 
d="M346 512q0 289 -75.5 538t-233.5 459l51 47q51 -47 105 -110.5t105.5 -141.5t98 -169t81 -191.5t55 -209t20.5 -222.5t-20.5 -224t-55 -213.5t-81 -197t-98 -174t-105.5 -146.5t-105 -112l-51 47q159 212 234 470.5t75 549.5z" />
    <glyph glyph-name="asterisk" unicode="*" horiz-adv-x="1065" 
d="M559 1041q54 34 119 66t128 63q22 11 48 18t50 6t43 -12.5t27 -37.5q5 -15 5 -28q0 -12 -5.5 -25t-23 -27.5t-42.5 -23.5t-50 -15q-33 -6 -69 -13t-72 -12.5t-71.5 -10t-66.5 -5.5q50 -40 101.5 -91t99.5 -102q19 -20 32.5 -42t19 -40t5.5 -31q0 -15 -6 -30t-25 -29
q-22 -16 -43 -14.5t-39.5 14t-35 33t-29.5 41.5q-16 30 -34 63t-35 66t-32 65.5t-26 61.5q-12 -29 -27 -61.5t-32 -65.5t-34.5 -66t-33.5 -63q-12 -21 -28 -41.5t-35 -33t-40.5 -14t-44.5 14.5q-18 15 -23.5 28.5t-5.5 30.5q0 12 5 30.5t19 41.5t30 41q48 51 99 103t102 90
q-32 1 -67.5 5.5t-72 10t-72.5 12.5t-69 13q-24 5 -49 14t-43 23.5t-24 29t-6 25.5q0 13 5 27q9 27 28 38.5t42.5 12t49 -6.5t48.5 -18q63 -29 129.5 -61.5t118.5 -67.5q-18 60 -28.5 134t-18.5 143q-3 24 -2 50.5t9.5 48.5t25 36t45.5 14q28 0 44.5 -14t24 -36t8 -48.5
t-2.5 -50.5q-8 -69 -18.5 -143t-28.5 -134z" />
    <glyph glyph-name="plus" unicode="+" horiz-adv-x="1055" 
d="M72 711l389 -2v403h132v-403l391 -2v-115l-391 -2v-422h-132v421l-389 -1v123z" />
    <glyph glyph-name="comma" unicode="," horiz-adv-x="518" 
d="M186 -325q17 21 36 57t33.5 80t22.5 92.5t2 95.5q-29 -13 -55.5 -11t-46.5 15t-31.5 35t-11.5 49q0 57 33 88t80 31q35 0 62 -14.5t45.5 -39.5t28 -59t9.5 -73t-11 -91.5t-31 -106.5t-48 -104.5t-62 -84.5z" />
    <glyph glyph-name="hyphen" unicode="-" horiz-adv-x="1001" 
d="M137 727h727v-135l-727 -8v143z" />
    <glyph glyph-name="period" unicode="." horiz-adv-x="504" 
d="M370 98q0 -27 -10 -51t-26.5 -42t-38 -28t-45.5 -10t-45.5 10t-38 28t-26 42t-9.5 51q0 28 10 52.5t26.5 42.5t38.5 28.5t46 10.5q25 0 46.5 -10.5t37.5 -28.5t25 -42.5t9 -52.5z" />
    <glyph glyph-name="slash" unicode="/" horiz-adv-x="1413" 
d="M1372 1473l-1210 -2029l-119 75l1197 2037z" />
    <glyph glyph-name="zero" unicode="0" horiz-adv-x="1272" 
d="M326 753q0 -71 5.5 -151t19.5 -158.5t37.5 -150.5t59.5 -126.5t85.5 -87t115.5 -32.5q58 0 103 26t78.5 70.5t56 105.5t36 131t19.5 146t6 151q0 83 -6 168t-20 164t-37 148.5t-57 121t-80.5 81t-106.5 29.5q-59 0 -105.5 -26t-81.5 -71t-59 -106.5t-39.5 -132
t-22.5 -147.5t-7 -153zM115 711q0 86 13 175.5t40 173.5t69.5 158t101.5 129.5t135.5 87.5t171.5 32q99 0 175.5 -31.5t133.5 -86t96 -127.5t63 -155.5t34.5 -171.5t10.5 -174t-12 -174t-38.5 -172.5t-67.5 -158t-99 -130t-134 -87.5t-171 -32q-104 0 -183.5 31.5
t-137.5 85.5t-96.5 126.5t-62 155.5t-33 171t-9.5 174z" />
    <glyph glyph-name="one" unicode="1" horiz-adv-x="745" 
d="M508 223q0 -40 -0.5 -76t-5.5 -65l172 8v-90h-522v68q53 2 87.5 19t54.5 47t28 72t8 95l-2 967h-4l-246 -159l-41 60l400 298h69z" />
    <glyph glyph-name="two" unicode="2" horiz-adv-x="1100" 
d="M260 1242q20 -22 28.5 -45.5t8.5 -46.5q0 -13 -5 -30t-17 -31.5t-31 -24.5t-47 -9q-46 2 -70 34.5t-24 78.5q0 43 27 95.5t81 97.5t134 75.5t186 30.5q81 0 158.5 -19t138 -62.5t97 -115t36.5 -175.5q0 -52 -22 -111t-70 -127t-124.5 -145.5t-185.5 -167.5
q-70 -57 -128 -112t-101 -104.5t-69.5 -93t-33.5 -79.5l363 -10q75 -2 137.5 -2.5t108 11.5t71 42.5t25.5 90.5h62l-13 -287h-887q0 108 34.5 192t91 155.5t129 137.5t149.5 139q133 127 192.5 236t59.5 210q0 57 -11.5 113.5t-40.5 102t-77.5 73.5t-122.5 28
q-42 0 -80.5 -11.5t-70 -31t-54 -46t-33.5 -56.5z" />
    <glyph glyph-name="three" unicode="3" horiz-adv-x="1141" 
d="M275 1239q18 -20 25.5 -41.5t7.5 -42.5q0 -12 -5 -28t-16 -29.5t-29 -23t-44 -8.5q-44 2 -66.5 32.5t-22.5 73.5q0 42 25.5 93.5t77.5 96.5t130.5 75t184.5 30q82 0 156.5 -19.5t131.5 -62t91 -110t34 -164.5q0 -49 -17 -97.5t-56 -93.5t-103.5 -83.5t-158.5 -67.5v-2
q97 -10 174.5 -42t131.5 -82.5t83 -117.5t29 -146q0 -104 -43 -181.5t-114.5 -128.5t-165 -76.5t-193.5 -25.5q-111 0 -192.5 26.5t-135 67.5t-79.5 90.5t-26 94.5q0 46 24 78.5t70 34.5q28 1 46.5 -8t29.5 -23t15.5 -31t4.5 -31q0 -21 -6.5 -41.5t-15.5 -40.5
q10 -35 34.5 -59.5t58.5 -40t74 -23t82 -7.5q73 0 132.5 20t101.5 59.5t64.5 97.5t22.5 134q0 67 -14.5 131t-55 113t-111.5 78t-183 27q-34 0 -74 -3v92h84q81 0 135 29.5t87 73.5t47 94.5t14 92.5q0 63 -11.5 117t-39.5 93t-74.5 61.5t-116.5 22.5q-46 0 -86.5 -13.5
t-72 -35t-52.5 -48t-29 -51.5z" />
    <glyph glyph-name="four" unicode="4" horiz-adv-x="1110" 
d="M834 223q0 -42 -1 -78t-7 -67l158 6v-84h-516v68h16q52 4 84 23.5t50 53t24 79.5t6 102v69h-623v101l740 971h69v-949l207 -2v-121h-207v-172zM160 528l488 -6v653h-4z" />
    <glyph glyph-name="five" unicode="5" horiz-adv-x="1114" 
d="M274 187q6 -38 33 -65.5t64 -44.5t79 -24.5t78 -5.5q75 3 128.5 33t88 78t50.5 109t16 126q0 38 -3.5 83t-14.5 90t-32.5 86.5t-56.5 74t-86.5 51.5t-123.5 19q-26 0 -62 -5t-73.5 -14t-73.5 -22.5t-62 -30.5l-57 53l-5 656h532q58 0 97 8t62.5 24t33.5 41t10 60h57
l-12 -271l-686 -14l1 -450q50 20 128 38.5t169 18.5q126 0 215.5 -40.5t146 -106t83 -147.5t26.5 -165q0 -114 -41.5 -200.5t-111 -145t-160.5 -88t-191 -29.5q-98 0 -175 26.5t-130 67.5t-81 90.5t-28 94.5q0 46 24 78.5t70 34.5q28 1 46.5 -8t29.5 -23t15.5 -31t4.5 -31
q0 -20 -6 -41t-16 -38z" />
    <glyph glyph-name="six" unicode="6" horiz-adv-x="1184" 
d="M608 803q-48 0 -95 -18.5t-87.5 -50t-71 -72.5t-45.5 -85q5 -97 22.5 -192t52 -170t89 -121.5t135.5 -46.5q72 0 123.5 28.5t83.5 76t47 109.5t15 130q0 38 -4 83.5t-14.5 91.5t-29.5 88.5t-49 75.5t-72.5 53t-99.5 20zM879 1271q-6 18 -22.5 39t-42.5 39t-61 29.5
t-77 11.5q-78 0 -135.5 -36t-98 -94t-66 -131t-40.5 -147t-21.5 -142.5t-7.5 -117.5q25 34 59.5 65.5t78 55.5t95 38t111.5 14q123 0 206 -42.5t133.5 -109.5t72 -148t21.5 -159q0 -96 -36.5 -181.5t-100.5 -149t-152 -101t-191 -37.5q-137 0 -230 49.5t-151 141.5
t-83 222.5t-25 293.5q0 61 9 143.5t32 170.5t62.5 174t101.5 153.5t148.5 109.5t203.5 42q91 0 159 -26.5t113 -65.5t67.5 -84.5t22.5 -83.5q0 -44 -21.5 -74.5t-65.5 -32.5q-26 -1 -44 7t-29 21t-16 28.5t-5 28.5q0 20 6.5 43t19.5 43z" />
    <glyph glyph-name="seven" unicode="7" horiz-adv-x="944" 
d="M400 -33q-41 3 -56.5 28.5t-15.5 62.5q0 33 14.5 83.5t35.5 107.5t45 116t44 110q28 72 66.5 169t82.5 206t93 223t100 220l-541 -3q-83 -1 -128.5 -38.5t-45.5 -121.5h-49v304h858v-140q-50 -102 -89.5 -197t-73 -188t-62.5 -187t-56 -193.5t-53.5 -207.5t-56.5 -228
q-6 -25 -15.5 -48.5t-22.5 -41t-31.5 -28t-42.5 -8.5z" />
    <glyph glyph-name="eight" unicode="8" horiz-adv-x="1151" 
d="M984 1136q0 -61 -22 -114t-60 -98t-88 -81.5t-107 -64.5q68 -40 130 -89t109 -104.5t75 -117.5t28 -128q0 -97 -40 -167t-107 -115.5t-154.5 -67.5t-182.5 -22q-72 0 -150 17t-143.5 56.5t-108 104.5t-42.5 162q0 69 26 129.5t69.5 112.5t99.5 96.5t116 82.5
q-78 46 -132 92.5t-87.5 92.5t-48.5 91.5t-15 90.5q0 97 39 167t101 115.5t139.5 67.5t155.5 22t150 -22t127.5 -64t89 -103.5t33.5 -141.5zM509 690q-56 -41 -96 -85.5t-66 -90t-39 -89t-15 -81.5q-4 -65 14.5 -119t54.5 -93t89 -60.5t118 -22.5q133 -2 206 65t73 188
q0 53 -17.5 105.5t-57 102t-104.5 95t-160 85.5zM340 1140q0 -56 22.5 -104.5t62 -89.5t93.5 -73t116 -54q92 63 140 139.5t50 154.5q2 132 -62.5 202t-173.5 72q-61 1 -107 -20t-77.5 -55.5t-47.5 -79t-16 -92.5z" />
    <glyph glyph-name="nine" unicode="9" horiz-adv-x="1184" 
d="M569 629q48 0 95.5 18.5t88 49.5t71 71.5t44.5 85.5q-5 96 -21.5 191.5t-51 171.5t-90 123.5t-138.5 47.5q-66 0 -116 -29t-83 -78t-50 -112t-17 -131q0 -38 4 -83.5t14.5 -90.5t29.5 -87.5t49 -75.5t72 -52.5t99 -19.5zM308 155q7 -22 22 -42t40 -35t61 -24t85 -9
q78 0 134.5 33t96 87t64 123.5t38 143.5t18 145.5t3.5 130.5q-26 -34 -60 -65t-77 -54.5t-95 -37.5t-112 -14q-82 0 -145.5 19.5t-111 53t-80 78.5t-53 95.5t-29.5 104t-9 105.5q0 100 34 186.5t97 150.5t152.5 100.5t200.5 36.5q144 0 237.5 -56t147.5 -154.5t75 -232.5
t21 -289q0 -75 -7.5 -160.5t-28 -170.5t-58 -164t-97 -139t-144.5 -96.5t-202 -37.5q-101 -1 -171.5 23.5t-115 62t-65 82t-20.5 85.5q0 44 22.5 74.5t66.5 32.5q25 1 42.5 -7.5t28.5 -22t16 -29.5t5 -29q0 -42 -27 -84z" />
    <glyph glyph-name="colon" unicode=":" horiz-adv-x="512" 
d="M376 98q0 -27 -10 -51t-26.5 -42t-38 -28t-45.5 -10t-45.5 10t-38 28t-26 42t-9.5 51q0 28 10 52.5t26.5 42.5t38.5 28.5t46 10.5q25 0 46.5 -10.5t37.5 -28.5t25 -42.5t9 -52.5zM376 923q0 -27 -10 -51t-26.5 -42t-38 -28t-45.5 -10t-45.5 10t-38 28t-26 42t-9.5 51
q0 28 10 52.5t26.5 42.5t38.5 28.5t46 10.5q25 0 46.5 -10.5t37.5 -28.5t25 -42.5t9 -52.5z" />
    <glyph glyph-name="semicolon" unicode=";" horiz-adv-x="539" 
d="M194 -325q17 21 36 57t33.5 80t22.5 92.5t2 95.5q-29 -13 -55.5 -11t-46.5 15t-31.5 35t-11.5 49q0 57 33 88t80 31q35 0 62 -14.5t45.5 -39.5t28 -59t9.5 -73t-11 -91.5t-31 -106.5t-48 -104.5t-62 -84.5zM382 923q0 -27 -10 -51t-26.5 -42t-38 -28t-45.5 -10t-45.5 10
t-38 28t-26 42t-9.5 51q0 28 10 52.5t26.5 42.5t38.5 28.5t46 10.5q25 0 46.5 -10.5t37.5 -28.5t25 -42.5t9 -52.5z" />
    <glyph glyph-name="less" unicode="&#x3c;" horiz-adv-x="1110" 
d="M70 709l912 405v-127l-773 -340l773 -342v-131l-912 397v138z" />
    <glyph glyph-name="equal" unicode="=" horiz-adv-x="1212" 
d="M150 510l912 -4v-119l-912 -4v127zM150 895l912 -4v-119l-912 -4v127z" />
    <glyph glyph-name="greater" unicode="&#x3e;" horiz-adv-x="1108" 
d="M1039 579.043l-911.944 -404.975v126.992l772.953 339.979l-772.953 341.979v130.992l911.944 -396.976v-137.992z" />
    <glyph glyph-name="question" unicode="?" horiz-adv-x="971" 
d="M226 1242q11 -18 17 -38t6 -42q0 -13 -5.5 -29t-16.5 -29.5t-29 -22t-43 -7.5q-44 2 -65.5 32.5t-21.5 74.5q0 45 28.5 95.5t82 92.5t130 70t173.5 28q118 0 199 -32t129.5 -83t68 -115t15.5 -128q-4 -69 -39.5 -128t-86.5 -110t-109 -95.5t-107.5 -83.5t-82 -75
t-32.5 -70q0 -12 4.5 -24.5t14.5 -22t26.5 -15.5t40.5 -6q14 0 35.5 3.5t40.5 11.5l24 -72q-32 -19 -77.5 -28t-83.5 -9q-30 0 -59.5 7.5t-52.5 23.5t-37.5 42t-14.5 64q0 46 29 86.5t73 80t95.5 82t96.5 93t75.5 112t33.5 139.5q1 55 -10.5 104.5t-40.5 87t-78 59
t-121 21.5q-44 0 -83.5 -13.5t-69.5 -35t-49 -47t-23 -49.5zM585 88q0 -25 -8 -47t-22.5 -38.5t-34.5 -26t-44 -9.5q-21 0 -41 8t-35.5 24t-25 38t-9.5 51q0 25 9.5 47t25 38.5t35.5 26t41 9.5q23 0 43 -9.5t34.5 -26t23 -38.5t8.5 -47z" />
    <glyph glyph-name="at" unicode="@" horiz-adv-x="1630" 
d="M1005 907q-48 19 -127 19q-72 0 -126 -44.5t-89.5 -114.5t-53.5 -155t-18 -166q0 -103 28 -164t81 -61q37 0 73.5 31t70.5 83.5t63 121.5t50.5 145t34 154.5t13.5 150.5zM1544 651q0 -107 -22.5 -189t-58.5 -141.5t-82.5 -98t-103.5 -64.5t-128 -26q-33 0 -73.5 12
t-69.5 43.5t-37.5 68.5t-8.5 76q0 32 4.5 69.5t15.5 96.5h-4q-38 -117 -78.5 -187t-81.5 -107.5t-79.5 -49t-71.5 -11.5q-43 0 -82.5 16.5t-69.5 51t-47.5 88.5t-17.5 129q0 112 31 213.5t92 178t151 122t207 45.5q24 0 52 -1.5t57.5 -4.5t58 -8t53.5 -12
q-8 -70 -17.5 -141.5t-17.5 -139.5t-15 -129.5t-10.5 -101.5t-3.5 -80q0 -42 8 -78t22.5 -55.5t33.5 -26.5t35 -7q38 0 71.5 20.5t65.5 66t54.5 124t22.5 173.5q0 184 -44.5 303.5t-118 190.5t-168.5 105.5t-222 33.5q-51 1 -128 -14.5t-162 -65.5t-154 -142t-105.5 -210.5
t-36.5 -247.5q0 -111 22.5 -201.5t63 -161.5t96.5 -123.5t122 -87t144 -53t145 -18.5q90 0 132 5t109.5 24t129 58t115.5 103l49 -51q-119 -127 -258 -177.5t-274 -50.5q-142 0 -239 24t-180.5 71.5t-146.5 114t-104.5 147.5t-62.5 173.5t-21 190.5q0 86 19 175t57 173
t96.5 159t138 133t169 90t159 40t115.5 8q102 0 192 -20t171 -65.5t142 -109t101.5 -138t61 -156.5t20.5 -164z" />
    <glyph glyph-name="A" unicode="A" horiz-adv-x="1282" 
d="M262 223q-8 -24 -14 -43t-12 -35t-12 -31t-13 -32l160 8v-90h-383v68q46 0 75 18.5t49 52.5t36.5 81t37.5 104l422 1149h49l457 -1166q9 -21 18.5 -50.5t18 -60.5t13 -61t3.5 -53l140 8v-90h-469v68q57 1 84 21t34 49t0 62t-18 62l-72 192l-533 -12q-22 -63 -39 -115.5
t-32 -103.5zM510 942q-47 -132 -82.5 -232.5t-63.5 -179.5h474l-146 392l-92 252h-4z" />
    <glyph glyph-name="B" unicode="B" 
d="M254 1190q0 56 1.5 96t5.5 66l-148 -9v91q113 2 226 3t237 1q119 0 213 -21t158.5 -64t97.5 -106t33 -160q-1 -50 -22 -100t-63 -93t-105.5 -76t-147.5 -48v-4q113 0 198 -27.5t142 -76t85.5 -115.5t28.5 -146q0 -94 -36.5 -168.5t-101 -126t-153 -79t-192.5 -27.5h-598
v68q58 1 87 20.5t41 54t12.5 82t0.5 105.5v860zM586 1364q-50 0 -80 -10t-46.5 -33.5t-21.5 -61.5t-5 -94v-381l149 4q88 2 147.5 29t95.5 70.5t51 95.5t15 115q0 78 -30 134t-74 83.5t-97 38t-104 10.5zM426 82q24 -2 57 -3t65.5 -1h58.5h36q79 0 144 20t111.5 59t72 97
t25.5 135q0 94 -29 156t-77.5 99t-112.5 52t-134 15q-61 0 -111 -1.5t-99 -4.5v-463q0 -56 -1.5 -95t-5.5 -65z" />
    <glyph glyph-name="C" unicode="C" horiz-adv-x="1432" 
d="M819 1383q-109 0 -204.5 -46.5t-166.5 -132t-112 -207.5t-41 -272q0 -97 19.5 -182.5t55.5 -158t86 -130t111 -97.5t131 -61.5t146 -21.5q67 0 133.5 15t128 45t115.5 74t96 101l53 -43q-66 -91 -141.5 -149t-152 -91.5t-150 -46t-136.5 -12.5q-154 0 -282 56.5
t-220 154.5t-143 230.5t-51 285.5q0 96 19.5 191t59 180.5t98.5 159t138 127.5t178 84.5t218 30.5q116 0 217 -31t196 -94l-10 110h111v-475h-74q-11 96 -45.5 171.5t-89 127.5t-128.5 79.5t-163 27.5z" />
    <glyph glyph-name="D" unicode="D" horiz-adv-x="1526" 
d="M433 242q0 -56 -1.5 -95t-5.5 -65q41 -2 78 -3t66.5 -1h49.5h26q132 0 240 49t184.5 135.5t118.5 204.5t42 256q0 145 -39.5 262.5t-120.5 201t-204.5 128.5t-292.5 45q-58 0 -87 -18t-41 -50.5t-12.5 -77.5t-0.5 -100v-872zM596 1436q186 0 339.5 -43t264 -132
t171.5 -225t61 -321q0 -94 -22 -183.5t-66 -169t-109.5 -146t-152 -114.5t-194.5 -75t-236 -27h-539v68q58 2 87 21t41 52t12.5 78.5t0.5 99.5v885q0 42 1.5 79.5t5.5 68.5l-148 -9v91z" />
    <glyph glyph-name="E" unicode="E" 
d="M433 236q0 -57 -1.5 -95.5t-5.5 -64.5l392 6q67 1 121 16.5t92.5 52t59.5 97t21 151.5h70l-12 -399h-1057v68q49 1 77.5 15.5t42.5 39.5t17.5 59.5t3.5 76.5v60v885q0 42 1.5 79.5t5.5 68.5l-148 -9v91h985l10 -359h-67q0 88 -20.5 144t-56 88t-83.5 43.5t-104 11.5
l-189 -3q-57 -3 -88.5 -18t-46.5 -44.5t-17.5 -74.5t-2.5 -108v-330h384l-15 177h91v-431h-67q0 60 -10.5 95.5t-33 55t-57 25.5t-83.5 6h-29t-180 -7v-469z" />
    <glyph glyph-name="F" unicode="F" horiz-adv-x="1122" 
d="M433 244q0 -56 -1.5 -96t-5.5 -66l209 8v-90h-522v68q58 2 87 21t41 52t12.5 78.5t0.5 99.5v885q0 42 1.5 79.5t5.5 68.5l-148 -9v91h950l11 -359h-68q0 91 -22.5 147.5t-61 88t-90 42t-109.5 9.5l-149 -4q-57 -2 -86.5 -21.5t-41.5 -53t-12.5 -79t-0.5 -98.5v-354h356
l-15 177h91v-431h-67q0 60 -10.5 95.5t-33 55t-57 25.5t-83.5 6h-29t-152 -7v-429z" />
    <glyph glyph-name="G" unicode="G" horiz-adv-x="1559" 
d="M1368 74h-56q-34 0 -90 -12t-131 -41q-32 -12 -70 -22t-77.5 -17t-78.5 -11t-73 -4q-154 0 -282 49.5t-220 142t-143 226t-51 301.5q0 96 19.5 191.5t59 182t98.5 161t138.5 129.5t179 86t218.5 31q55 0 112 -8t112 -22.5t106 -35.5t94 -47l-9 98h113v-469h-74
q-7 96 -43 171t-94.5 126t-136 78t-166.5 27q-109 0 -205 -48.5t-167 -135t-112.5 -206t-41.5 -262.5q0 -145 40 -267.5t112.5 -211t173.5 -138.5t222 -50q41 0 86 6t90.5 18t90 31.5t84.5 46.5v448l-144 -8v90h463v-67q-38 0 -64 -14.5t-42 -37t-24.5 -50t-12 -54.5
t-4 -50.5t-0.5 -37.5v-313z" />
    <glyph glyph-name="H" unicode="H" horiz-adv-x="1597" 
d="M1166 693l-733 -9v-440q0 -56 -1.5 -96t-5.5 -66l148 8v-90h-461v68q58 2 87 21t41 52t12.5 78.5t0.5 99.5v885q0 42 1.5 79.5t5.5 68.5l-148 -9v91h461v-68q-58 -2 -87 -21.5t-41 -52.5t-12.5 -78t-0.5 -100v-340h733v430q0 86 6 148l-148 -9v91h461v-68
q-57 -2 -86.5 -21.5t-41.5 -52.5t-12.5 -78t-0.5 -100v-870q0 -110 -6 -162l147 8v-90h-461v68q58 2 87.5 21t41.5 52t12.5 78.5t0.5 99.5v374z" />
    <glyph glyph-name="I" unicode="I" horiz-adv-x="686" 
d="M254 1204q0 42 1.5 79.5t5.5 68.5l-148 -9v91h461v-68q-58 -2 -87 -21.5t-41 -52.5t-12.5 -78t-0.5 -100v-870q0 -56 -1.5 -96t-5.5 -66l148 8v-90h-461v68q58 2 87 21t41 52t12.5 78.5t0.5 99.5v885z" />
    <glyph glyph-name="J" unicode="J" horiz-adv-x="764" 
d="M165 83q6 -9 16.5 -15.5t22.5 -10.5t23 -5t19 -1q30 1 53 14t38 41t22.5 72t7.5 107v1067l-209 -9v91h545v-68q-51 0 -82 -15.5t-48 -43t-22.5 -64.5t-5.5 -80v-663q0 -144 -19 -245.5t-59 -165.5t-103.5 -93t-151.5 -29q-43 0 -82 10t-69 29t-47.5 46t-17.5 61
q0 20 5.5 38.5t16.5 33.5t24 22.5t24 10t26 2.5q18 0 35 -8t27.5 -21.5t15.5 -30t5 -31.5q0 -10 -2.5 -22.5t-7.5 -23.5z" />
    <glyph glyph-name="K" unicode="K" horiz-adv-x="1364" 
d="M254 1204q0 42 1.5 79.5t5.5 68.5l-148 -9v91h461v-68q-58 -2 -87 -21.5t-41 -52.5t-12.5 -78t-0.5 -100v-336h153l256 404q13 20 29.5 43t35 46t39.5 44.5t42 38.5l-125 -4v84h440v-68q-65 -5 -118 -17.5t-101 -42t-95.5 -81t-99.5 -135.5l-200 -320q29 -18 52 -38.5
t43 -42.5t38 -45.5t37 -47.5l229 -305q58 -78 100 -122.5t76 -67t63 -28t62 -5.5v-68h-250q-15 0 -38 16.5t-50.5 44.5t-58 64.5t-60.5 75.5l-245 331q-39 51 -78 97t-76 69l-100 -2v-452q0 -56 -1.5 -96t-5.5 -66l148 8v-90h-461v68q58 2 87 21t41 52t12.5 78.5t0.5 99.5
v885z" />
    <glyph glyph-name="L" unicode="L" horiz-adv-x="1184" 
d="M433 236q0 -56 -1.5 -95t-5.5 -65l383 6q64 1 113.5 20.5t82.5 60.5t50 105.5t17 155.5h69l-12 -424h-1016v68q58 2 87 21t41 52t12.5 78.5t0.5 99.5v885q0 42 1.5 79.5t5.5 68.5l-148 -9v91h461v-68q-58 -2 -87 -21.5t-41 -52.5t-12.5 -78t-0.5 -100v-878z" />
    <glyph glyph-name="M" unicode="M" horiz-adv-x="1880" 
d="M129 1434h313q71 -161 135.5 -310t126.5 -293.5t123.5 -288t126.5 -292.5h4q12 28 25.5 62t27.5 70t27.5 70t24.5 62q89 224 186.5 451t192.5 469h303v-68q-39 1 -67 -10.5t-46 -37.5t-25.5 -69t-3.5 -106l54 -932q2 -36 3 -68.5t1 -59.5l149 7v-90h-459v68q48 1 76 17.5
t42.5 47.5t17.5 75.5t0 102.5l-53 873q-6 -15 -13 -31.5t-14 -34.5l-461 -1138h-61q-67 150 -135 300t-134.5 302t-131 306.5t-124.5 313.5l-2 -90q-2 -49 -3.5 -112.5t-4 -135.5t-4.5 -150t-4 -157t-4 -155.5t-3 -145.5q-1 -46 -2 -91t-6 -83l154 8v-90h-391v68
q48 1 75 16.5t41.5 41t18.5 59t6 71.5l45 1095l-147 -5v88z" />
    <glyph glyph-name="N" unicode="N" horiz-adv-x="1561" 
d="M1332 -33h-99l-889 1195h-3l7 -877q0 -53 -0.5 -103.5t-3.5 -99.5l148 8v-90h-375v68q47 0 74 16.5t40.5 40.5t17 52t3.5 52l2 1123l-137 -9v91h244l872 -1167h2l2 937q0 86 6 148l-147 -9v91h377v-68q-58 -2 -86.5 -21.5t-40 -52.5t-11 -78t0.5 -100z" />
    <glyph glyph-name="O" unicode="O" horiz-adv-x="1626" 
d="M295 754q0 -76 14 -157.5t42.5 -159.5t72 -148.5t103 -123t134 -83.5t166.5 -31q84 0 154 25.5t126 70t98 105t70 130t42.5 148.5t14.5 148q0 74 -16 164t-47 168.5t-76 147t-104 119t-131.5 79.5t-157.5 29q-126 0 -221 -56t-158 -146t-94.5 -202.5t-31.5 -226.5z
M94 717q0 86 19 175t58 172.5t98 156.5t138 128t179 86.5t221 31.5q125 0 227.5 -32t183.5 -86.5t140.5 -128t99 -157t59 -172.5t19.5 -174t-19.5 -173.5t-58 -172t-97.5 -157t-138.5 -128.5t-179 -87t-220.5 -32q-130 0 -234.5 31t-185.5 84.5t-139.5 126t-96 155.5
t-55.5 173.5t-18 179.5z" />
    <glyph glyph-name="P" unicode="P" horiz-adv-x="1240" 
d="M506 539h-31.5t-41.5 1v-296q0 -56 -1.5 -96t-5.5 -66l189 10v-92h-502v68q58 2 87 21t41 52t12.5 78.5t0.5 99.5v885q0 42 1.5 79.5t5.5 68.5l-148 -9v91q108 2 222 2.5t235 0.5q298 0 453 -100q166 -109 166 -319q0 -43 -9.5 -95t-38.5 -107.5t-79.5 -106t-127 -88
t-182.5 -60t-246 -22.5zM433 625q38 -5 66.5 -6t66.5 -1q87 0 164.5 26t135 75.5t91 120.5t33.5 161q0 97 -31 165t-87 110.5t-134 61.5t-172 19q-55 0 -82.5 -17.5t-39 -49.5t-11.5 -76.5v-99.5v-489z" />
    <glyph glyph-name="Q" unicode="Q" horiz-adv-x="1630" 
d="M94 717q0 86 19 175t58 172.5t98 156.5t138 128t179 86.5t221 31.5q125 0 227.5 -32t183.5 -86.5t140.5 -128t99 -157t59 -172.5t19.5 -174t-19.5 -173.5t-58 -172t-97.5 -157t-138.5 -128.5t-179.5 -87q-26 -8 -53 -14q5 -1 9 -1q36 -1 68.5 -6t65.5 -18.5t69 -38.5
t80 -66q71 -66 120 -111t85 -72.5t64 -39t58 -11.5v-67h-65q-56 0 -99 2t-82 12.5t-78 33.5t-87 66q-69 62 -120 116.5t-94.5 95t-84.5 64t-90 23.5q-122 2 -221 31q-104 31 -185 84.5t-139.5 126t-96 155.5t-55.5 173.5t-18 179.5zM295 754q0 -76 14 -157.5t42.5 -159.5
t72 -148.5t103 -123t134 -83.5t166.5 -31q84 0 154 25.5t126 70t98 105t70 130t42.5 148.5t14.5 148q0 74 -16 164t-47 168.5t-76 147t-104 119t-131.5 79.5t-157.5 29q-126 0 -221 -56t-158 -146t-94.5 -202.5t-31.5 -226.5z" />
    <glyph glyph-name="R" unicode="R" horiz-adv-x="1286" 
d="M572 640q-34 -2 -69 -1.5t-70 3.5v-398q0 -56 -1.5 -96t-5.5 -66l148 8v-90h-461v68q58 2 87 21t41 52t12.5 78.5t0.5 99.5v885q0 42 1.5 79.5t5.5 68.5l-148 -9v91q116 2 233 3t236 -1q148 -3 253.5 -28.5t173 -72.5t99 -114t31.5 -152q0 -60 -16 -122.5t-59 -118.5
t-117.5 -100t-191.5 -68q40 -29 72 -74t70 -105l140 -219q26 -41 50 -76.5t52.5 -61.5t64 -41t83.5 -15v-68h-258q-30 26 -54 52t-45.5 54t-41.5 57.5t-42 63.5l-137 219q-14 22 -29 47.5t-32 51.5t-36 50.5t-40 44.5zM433 720q32 -2 61.5 -3.5t65.5 0.5q84 3 153.5 21.5
t120 57.5t78.5 100.5t28 150.5q0 154 -88.5 232.5t-277.5 78.5q-58 0 -87 -17.5t-41 -49.5t-12.5 -77t-0.5 -100v-394z" />
    <glyph glyph-name="S" unicode="S" horiz-adv-x="1161" 
d="M237 -16h-106l-12 436h79q6 -91 39 -159.5t86.5 -114.5t124.5 -69.5t152 -23.5q60 0 113.5 16.5t94 49t64 80.5t23.5 110q0 75 -33 129t-87.5 95.5t-124 75t-141.5 67t-141.5 71t-124 87t-87.5 115.5t-33 157q0 35 8 75t26.5 80t49 77.5t76.5 66t109 45.5t146 17
q40 0 85 -5t91.5 -17t92.5 -32.5t88 -51.5l-8 88h104v-449h-74q-5 74 -28.5 143.5t-68.5 123t-111 86t-156 32.5q-64 0 -113 -19.5t-82 -52.5t-50 -76.5t-17 -91.5q0 -70 33.5 -121.5t88.5 -91.5t125 -73t143 -66.5t143 -72t125 -89t88.5 -117.5t33.5 -158q0 -85 -32 -156.5
t-93 -123t-150.5 -80.5t-203.5 -29q-46 0 -94.5 6.5t-96 19.5t-92 33t-82.5 46z" />
    <glyph glyph-name="T" unicode="T" horiz-adv-x="1311" 
d="M1186 1001q-2 91 -14 158.5t-42 112t-81 66.5t-130 22l-173 -1l-3 -1115q0 -110 -6 -162l170 8v-90h-481v68q57 2 86 22t41 53.5t12 78.5v97l3 1038l-212 -1q-65 0 -109.5 -21.5t-72.5 -65.5t-40.5 -110.5t-12.5 -157.5h-76l12 433h1194l12 -433h-77z" />
    <glyph glyph-name="U" unicode="U" horiz-adv-x="1540" 
d="M1332 639q-1 -134 -29.5 -255.5t-93 -214t-169.5 -147.5t-259 -55q-164 0 -275 43t-178.5 132.5t-96.5 227.5t-29 328v416q0 27 0.5 60t2 66t2.5 62.5t3 49.5l-147 -6v88h460v-68q-52 0 -80.5 -17.5t-42 -42.5t-16 -53t-2.5 -49v-516q0 -76 6 -150.5t22.5 -141.5t46 -124
t76.5 -99t114 -65.5t159 -23.5q111 0 190.5 40t131 112.5t76 172.5t26.5 220l8 575q0 86 6 148l-147 -9v91h381v-68q-58 -2 -87.5 -21.5t-41.5 -52.5t-12.5 -78t-0.5 -100z" />
    <glyph glyph-name="V" unicode="V" horiz-adv-x="1337" 
d="M-8 1434h475v-68l-2 -2q-51 -3 -81.5 -19t-42 -44t-5.5 -67.5t27 -90.5q24 -61 47 -118.5t46.5 -115.5t48 -118t52.5 -125q25 -58 49.5 -114t46 -107t40 -96t30.5 -79h4q273 770 319 902t70 180l-157 -9v91h415v-68q-45 -2 -79 -13t-60 -34.5t-47 -61t-55.5 -134.5
t-86 -239t-95 -261.5t-101.5 -278t-133 -364.5h-57l-465 1089q-23 52 -38 93.5t-25.5 75t-16 60.5t-8.5 50l-115 -5v91z" />
    <glyph glyph-name="W" unicode="W" horiz-adv-x="2038" 
d="M14 1434h497v-68q-60 -3 -94.5 -15t-48.5 -38t-10.5 -67.5t20.5 -102.5q57 -187 143.5 -437.5t101.5 -293t30 -90.5h4q10 34 22 73t23.5 76t68.5 214t84.5 261t52 159.5t105.5 332.5h66q100 -316 126 -392t122.5 -364t125.5 -385h5q212 642 259.5 789.5t63 188t35.5 75.5
l-164 -7v91h416v-68q-52 -6 -86 -18.5t-60.5 -44.5t-51 -89t-176.5 -513t-249 -721h-61l-383 1095l-361 -1095h-59q-383 1143 -397.5 1184.5t-25 74.5t-17.5 59.5t-11 49.5l-116 -5v91z" />
    <glyph glyph-name="X" unicode="X" horiz-adv-x="1329" 
d="M18 1434h530v-68l-90 -4q-56 -3 -76.5 -18.5t-20 -38.5t16 -52t33.5 -57q73 -112 144 -211.5t111 -154.5q274 394 297.5 425.5t44 56.5t36.5 40l-172 -9v91h403v-68q-49 -7 -93 -35t-84 -68t-75.5 -88t-299.5 -422l360 -477l141 -190l119 4v-90h-502v68q59 -3 87 10.5
t34 36t-5.5 50t-29.5 52.5l-300 398q-241 -357 -280.5 -416.5t-89.5 -118.5l170 10v-90h-403v68q49 10 86 30.5t69 51t62 71.5t65 92l265 381q-89 126 -198.5 279t-138 195t-48 73t-31.5 55t-23 52l-114 -5v91z" />
    <glyph glyph-name="Y" unicode="Y" horiz-adv-x="1298" 
d="M581 553l-355 563q-53 82 -78 137.5t-33 94.5l-127 -5v91h528v-68q-71 0 -108 -16.5t-47.5 -46t3 -70.5t44.5 -90q38 -61 72 -115.5t68 -107.5t70.5 -108t80.5 -116h4q229 436 273 516t58 101t29 37l-162 -7v91h418v-68q-51 -3 -91 -20t-75 -49.5t-67.5 -81
t-326.5 -601.5q-1 -99 -1.5 -234.5t0.5 -135.5q0 -110 -6 -162l170 8v-90h-481v68q57 2 86 22t41 53.5t12 78.5v97z" />
    <glyph glyph-name="Z" unicode="Z" horiz-adv-x="1249" 
d="M88 94q58 81 131 184t163.5 234.5t198 295.5t234.5 366q29 46 61 92.5t70 91.5l-522 -8q-61 -3 -106 -23.5t-75 -62t-45 -104.5t-15 -150h-70l12 424h1016v-72l-735 -1116q-23 -33 -41.5 -58t-35 -45t-32 -36t-31.5 -31l498 8q67 1 125.5 21t101 61.5t67 104.5t24.5 149
h69l-12 -420h-1051v94z" />
    <glyph glyph-name="bracketleft" unicode="[" horiz-adv-x="735" 
d="M164 1546h543v-123l-390 -6l-9 -1810l403 -6v-123h-549z" />
    <glyph glyph-name="backslash" unicode="\" horiz-adv-x="1413" 
d="M43.084 1473l1209.93 -2029l118.993 75l-1196.93 2037z" />
    <glyph glyph-name="bracketright" unicode="]" horiz-adv-x="735" 
d="M572 -522h-543v123l390 6l9 1810l-403 6v123h549z" />
    <glyph glyph-name="asciicircum" unicode="^" horiz-adv-x="1686" 
d="M936 1467l627 -573h-181l-545 500l-546 -490h-168l631 563h182z" />
    <glyph glyph-name="underscore" unicode="_" horiz-adv-x="1493" 
d="M117 -102l1259 -9v-116h-1259v125z" />
    <glyph glyph-name="grave" unicode="`" horiz-adv-x="516" 
d="M137 1405q-26 27 -35 50q-3 7 -6 17t-3 21q0 13 3.5 24t13.5 24t25.5 19.5t32 6.5t39 -11.5t45.5 -44.5l172 -276l-57 -47z" />
    <glyph glyph-name="a" unicode="a" horiz-adv-x="1057" 
d="M694 501q-47 -2 -97.5 -8.5t-99 -20t-91.5 -34.5t-75 -50t-50 -67t-16 -86q1 -38 14.5 -66.5t35 -47t49.5 -28t60 -9.5q41 0 77 8t68.5 23.5t63 37.5t61.5 51v297zM132 811q0 51 30 96t84 78.5t128.5 52.5t162.5 19q172 0 253.5 -91t80.5 -289l-2 -460q0 -32 -1.5 -64.5
t-6.5 -74.5l145 8v-86h-293q-6 35 -9 61t-5 55q-69 -69 -150.5 -109t-172.5 -40q-77 0 -134.5 18.5t-95.5 51.5t-57 77.5t-19 95.5q0 63 27.5 115t74 92.5t108.5 70t131.5 48.5t142 27.5t141.5 7.5v128q0 53 -6 103t-26.5 91t-64 65t-100.5 24q-33 0 -63 -5.5t-59 -18.5
t-52.5 -34t-38.5 -50q15 -17 20.5 -37.5t5.5 -39.5q0 -12 -5 -27.5t-15.5 -29t-27 -22t-44.5 -8.5q-40 0 -63.5 29.5t-23.5 71.5z" />
    <glyph glyph-name="b" unicode="b" horiz-adv-x="1192" 
d="M155 1280q0 32 0.5 62t5.5 71l-145 -8v86q67 0 111.5 4.5t72.5 12.5t44 17.5t28 20.5h59v-611q57 57 135.5 89.5t175.5 32.5q98 0 182.5 -36.5t147 -104t98 -164t35.5 -216.5q0 -131 -44.5 -236t-118 -179t-170 -114t-199.5 -40q-35 0 -74 5.5t-79 20t-78 38.5t-70 61
l-49 -92h-72zM579 956q-68 0 -134 -31.5t-114 -84.5v-518q0 -82 20 -134.5t54 -83t77.5 -42t90.5 -11.5q74 0 133.5 31.5t101 89t64 137.5t22.5 177q0 103 -19.5 189.5t-58.5 148.5t-98 97t-139 35z" />
    <glyph glyph-name="c" unicode="c" horiz-adv-x="1090" 
d="M838 871q-14 36 -41 57.5t-58.5 33.5t-63 15.5t-52.5 3.5q-70 0 -130.5 -28.5t-104.5 -83.5t-69.5 -137t-25.5 -188q0 -102 25.5 -188.5t71.5 -149t111 -97.5t144 -35q48 0 95 13.5t89 37.5t77.5 56t60.5 69l53 -41q-41 -64 -93.5 -109.5t-110 -75t-116 -43.5t-110.5 -14
q-104 0 -196 35.5t-161 103t-109 165.5t-40 223q0 71 17.5 140t50.5 131.5t80 116t106.5 92.5t130 61t149.5 22q85 0 155 -21t120 -56t77 -80.5t27 -95.5q0 -44 -24.5 -75.5t-70.5 -32.5q-27 -1 -45 8.5t-29 23.5t-16 30.5t-5 29.5q0 20 6.5 42t24.5 41z" />
    <glyph glyph-name="d" unicode="d" horiz-adv-x="1225" 
d="M1026 217q0 -32 -1.5 -64.5t-6.5 -74.5l145 8v-86h-293q-5 30 -8 56t-5 51q-59 -64 -142.5 -102t-186.5 -38q-95 0 -175.5 36t-140 103t-93 162.5t-33.5 214.5q0 125 39.5 230.5t109.5 182t166.5 119t210.5 42.5q34 0 68 -5t65.5 -13t58.5 -18t47 -21l1 280q0 32 0.5 62
t5.5 71l-145 -8v86q67 0 111 4.5t72 12.5t43.5 17.5t27.5 20.5h59v-1329zM602 68q34 0 69 10t67.5 28t61 42.5t51.5 53.5q-1 25 -1 53v60l1 590q-49 38 -107 54.5t-119 16.5q-77 0 -139 -34t-105.5 -96.5t-63.5 -142.5t-20 -201q0 -83 22.5 -168.5t61 -143t94 -90
t127.5 -32.5z" />
    <glyph glyph-name="e" unicode="e" horiz-adv-x="1110" 
d="M604 977q-120 0 -198 -70.5t-103 -228.5h522q0 54 -12 107.5t-38.5 96t-68.5 69t-102 26.5zM1018 604l-721 -12q-1 -118 18 -214t60 -164t105.5 -105t154.5 -37q48 0 98 13t96.5 35.5t85.5 54t65 67.5l50 -41q-42 -64 -97.5 -108.5t-115 -72.5t-119.5 -40.5t-112 -12.5
q-106 0 -197.5 38t-158.5 109t-105.5 171t-38.5 225q0 108 37 206.5t105 174.5t163 121t211 45q85 0 160.5 -28t132.5 -84t90 -141.5t33 -199.5z" />
    <glyph glyph-name="f" unicode="f" horiz-adv-x="692" 
d="M645 1447q-15 20 -40.5 28t-47.5 8q-48 0 -79 -21.5t-49 -56.5t-25.5 -78.5t-7.5 -87.5v-215h276v-80l-276 -5l2 -722q0 -41 -1 -72.5t-8 -66.5l129 6v-84h-417v61q47 0 71.5 18.5t35.5 51.5t12 79t1 101l-2 624l-168 -3v92h168v43q0 114 19.5 204.5t63.5 153.5t114.5 97
t171.5 34q33 0 71.5 -8.5t71 -27t54.5 -47t22 -68.5q0 -41 -24 -67t-61 -26q-26 0 -42 8.5t-26.5 21.5t-15 28t-4.5 27t2.5 24.5t8.5 25.5z" />
    <glyph glyph-name="g" unicode="g" horiz-adv-x="1133" 
d="M562 -67q-57 2 -110 5t-101 11q-57 -37 -87.5 -90t-30.5 -113q0 -51 24.5 -91.5t70 -69.5t110 -44.5t143.5 -15.5q88 0 157.5 18t117.5 48t73 69.5t25 83.5q0 57 -29.5 92.5t-82 56t-124 29t-156.5 11.5zM544 985q-55 0 -98 -22t-72.5 -61t-45 -92t-15.5 -114
q0 -74 16 -134.5t47 -104.5t76 -68t102 -24t99.5 21t71 58.5t43 89t14.5 111.5q0 67 -15 129t-45 108.5t-74.5 74.5t-103.5 28zM992 1065q-26 -4 -46 -16.5t-35 -31.5t-24.5 -41.5t-14.5 -45.5q51 -47 80.5 -110t29.5 -134q0 -87 -35.5 -159.5t-95.5 -125t-138.5 -81.5
t-164.5 -29q-38 0 -67.5 5t-69.5 5q-38 0 -69.5 -10t-53 -27.5t-28.5 -34t-7 -28.5t4 -25q7 -24 32.5 -39t66.5 -23.5t97.5 -12.5t127.5 -7q118 -5 211.5 -22.5t158.5 -53t99.5 -92t34.5 -139.5t-44.5 -146.5t-116 -107t-161 -66t-180.5 -22.5q-138 0 -235.5 24t-158.5 63.5
t-89 89t-28 100.5q0 47 18 86t45.5 70t61 53.5t64.5 36.5q-66 20 -104 57.5t-38 103.5q0 36 15 70.5t42 63.5t64.5 49t82.5 28q-47 22 -85 53.5t-65 71t-41.5 86.5t-14.5 101q0 92 37.5 167t98 128t138 81.5t157.5 28.5q69 0 136 -19.5t124 -57.5q15 43 41 80t58.5 63.5
t70.5 41.5t79 15q52 0 80.5 -27t28.5 -75q0 -12 -5 -27t-15.5 -28t-27.5 -22t-41 -8q-35 1 -57 21.5t-28 50.5z" />
    <glyph glyph-name="h" unicode="h" horiz-adv-x="1227" 
d="M192 1280q0 32 0.5 62t5.5 71l-145 -8v86q67 0 111.5 4.5t72.5 12.5t44 17.5t28 20.5h59v-624q34 28 74 53t83.5 43t89 28.5t89.5 10.5q89 0 153 -27.5t104.5 -84t60 -143t20.5 -203.5l2 -382q0 -41 -1 -72.5t-7 -66.5l129 6v-84h-418v61q47 0 71.5 18.5t35.5 51.5
t12.5 79t1.5 101v286q0 177 -56 264.5t-178 87.5q-35 0 -74 -10t-73.5 -27t-65 -40t-53.5 -50v-605q0 -41 -2 -72.5t-8 -66.5l129 6v-84h-418v61q47 0 72 18.5t36.5 51.5t13 79t1.5 101v969z" />
    <glyph glyph-name="i" unicode="i" horiz-adv-x="575" 
d="M211 778q0 32 1.5 62t6.5 71l-145 -8v86q67 0 111 4.5t72 12.5t43.5 17.5t27.5 20.5h59v-827q0 -41 -1 -72.5t-7 -66.5l129 6v-84h-418v61q47 0 71.5 18.5t35.5 51.5t12.5 79t1.5 101v467zM406 1368q0 -25 -9.5 -47t-24.5 -38.5t-35 -25.5t-42 -9t-42 9t-35.5 25.5
t-24 38.5t-8.5 47q0 26 9 48.5t24.5 39.5t35.5 26.5t43 9.5t42.5 -9.5t34.5 -26.5t23.5 -39.5t8.5 -48.5z" />
    <glyph glyph-name="j" unicode="j" horiz-adv-x="526" 
d="M-180 -441q0 38 24.5 67.5t63.5 29.5q25 0 42 -8.5t27.5 -21.5t15 -28.5t4.5 -27.5v-9.5t-1 -9.5q29 -12 52 -12q13 0 35 5.5t49 29.5q34 32 46.5 97.5t12.5 151.5l4 955q0 32 0.5 62t5.5 71l-145 -8v86q67 0 111.5 4.5t72.5 12t44 17.5t28 21h59v-1051
q0 -143 -29.5 -246.5t-82 -170.5t-123.5 -99t-154 -32q-42 0 -73 9.5t-50.5 25.5t-29 36.5t-9.5 42.5zM382 1368q0 -25 -9.5 -47t-24.5 -38.5t-35 -25.5t-42 -9t-42 9t-35.5 25.5t-24 38.5t-8.5 47q0 26 9 48.5t24.5 39.5t35.5 26.5t43 9.5t42.5 -9.5t34.5 -26.5t23.5 -39.5
t8.5 -48.5z" />
    <glyph glyph-name="k" unicode="k" horiz-adv-x="1100" 
d="M679 1024h373v-61q-52 -6 -99.5 -29.5t-89 -55.5t-76.5 -67l-63 -63l-159 -168q40 -19 69 -47t58 -64l145 -186q6 -8 20.5 -28t34 -44.5t43.5 -51t49.5 -48.5t51 -36t49.5 -14v-61h-186q-28 0 -55 16.5t-53.5 43.5t-53 61.5t-54.5 71.5q-81 110 -137 190.5t-96 118.5
l-84 -4v-281q0 -41 -1 -72.5t-7 -66.5l131 6v-84h-418v61q47 0 71.5 18.5t35 51.5t12.5 79t2 1070q0 32 0.5 62t5.5 71l-145 -8v86q67 0 111 4.5t72 12.5t43.5 17.5t27.5 20.5h59v-968h82l250 262q34 35 63 62.5t58 45.5l-140 -6v82z" />
    <glyph glyph-name="l" unicode="l" horiz-adv-x="557" 
d="M190 1280q0 32 0.5 62t5.5 71l-145 -8v86q67 0 111.5 4.5t72.5 12.5t44 17.5t28 20.5h59l2 -1329q0 -41 -2 -72.5t-8 -66.5l129 6v-84h-418v61q47 0 71.5 18.5t35.5 51.5t12.5 79t1.5 101v969z" />
    <glyph glyph-name="m" unicode="m" horiz-adv-x="1831" 
d="M211 778q0 32 1 65t7 68l-145 -8v86q67 0 109 4.5t67.5 12.5t39.5 17.5t26 20.5h59q2 -20 4 -46t4 -63q31 26 67 48.5t74.5 39t79 25.5t80.5 9q104 0 173 -37.5t108 -100.5q34 29 75 54t85 44t90 29.5t90 10.5q89 0 154.5 -26t108 -81.5t62 -142.5t17.5 -208l-2 -382
q0 -41 -1 -72.5t-7 -66.5l129 6v-84h-418v61q47 0 71.5 18.5t35.5 51.5t12.5 79t1.5 101v286q0 177 -56 264.5t-178 87.5q-64 0 -127.5 -29t-110.5 -72q21 -69 21 -149l-4 -482q0 -41 -1 -72.5t-7 -66.5l129 6v-84h-418v61q47 0 71.5 18.5t35 51.5t12 79t2.5 101l2 286
q1 176 -51.5 266t-173.5 90q-63 0 -124.5 -27.5t-104.5 -71.5q0 -24 0.5 -51.5t0.5 -58.5v-527q0 -41 -1 -72.5t-7 -66.5l129 6v-84h-418v61q47 0 71.5 18.5t35.5 51.5t12.5 79t1.5 101v467z" />
    <glyph glyph-name="n" unicode="n" horiz-adv-x="1243" 
d="M213 778q0 32 1 65t7 68l-145 -8v86q67 0 109 4.5t67.5 12.5t39.5 17.5t26 20.5h59q2 -23 4.5 -52.5t4.5 -71.5q33 29 72.5 54t82.5 43.5t88.5 29t89.5 10.5q178 0 260 -111.5t82 -346.5v-382q0 -41 -1 -72.5t-7 -66.5l129 6v-84h-418v61q47 0 71.5 18.5t35.5 51.5
t12.5 79t1.5 101v286q-2 177 -58 266.5t-178 89.5q-37 0 -74 -11t-71 -28.5t-64 -41.5t-52 -52q1 -18 1 -38.5v-41.5l-2 -523q0 -41 -1 -72.5t-7 -66.5l129 6v-84h-418v61q47 0 71.5 18.5t35 51.5t12 79t2.5 101z" />
    <glyph glyph-name="o" unicode="o" horiz-adv-x="1198" 
d="M598 979q-81 0 -138.5 -36t-94.5 -96t-54.5 -138t-17.5 -162q0 -95 19.5 -185t59.5 -159.5t100.5 -111.5t141.5 -42t136.5 36.5t90 96.5t49.5 137t15 158q0 92 -17 182t-54 161t-95.5 115t-140.5 44zM598 1057q108 0 202 -39.5t163.5 -109t110 -165t40.5 -206.5
q0 -119 -39.5 -223t-109 -181t-164 -121.5t-203.5 -44.5q-108 0 -201.5 38.5t-163 107.5t-109.5 164.5t-40 209.5q0 121 39.5 225.5t108.5 181t163 120t203 43.5z" />
    <glyph glyph-name="p" unicode="p" horiz-adv-x="1223" 
d="M196 778q0 32 1 65t7 68l-145 -8v86q67 0 109 4.5t67.5 12.5t39.5 17.5t25 20.5h60q2 -20 4 -47t4 -63q31 27 68.5 50t79 39t84.5 25t86 9q89 0 170.5 -35t143.5 -100.5t99 -160t37 -213.5q0 -87 -19.5 -164t-54.5 -141.5t-83.5 -115.5t-106.5 -86.5t-123.5 -54.5
t-134.5 -19q-142 0 -245 67l-1 -339q0 -41 -1 -72.5t-7 -66.5l129 6v-84h-418v61q47 0 71.5 18.5t35 51.5t12 79t2.5 101zM613 957q-36 0 -70 -9.5t-65 -25t-58.5 -36.5t-48.5 -44q0 -8 0.5 -18.5t0.5 -35.5v-70.5t-0.5 -122t-1 -190.5t-0.5 -276q51 -38 112 -59t128 -21
q73 0 131 35t99 97.5t63 148t22 187.5q0 83 -17.5 162t-55 141t-96.5 99.5t-143 37.5z" />
    <glyph glyph-name="q" unicode="q" horiz-adv-x="1180" 
d="M1028 -305q0 -41 -1 -72.5t-7 -66.5l129 6v-84h-418v61q47 0 71.5 18.5t35.5 51.5t12.5 79t1.5 101v307q-54 -61 -131.5 -95t-175.5 -34q-96 0 -179.5 37t-146 105t-98 164.5t-35.5 215.5q0 128 41.5 233t112.5 179.5t167 115t205 40.5q63 0 116 -13.5t97.5 -23.5
t80.5 -8t63 32h57zM618 68q68 0 130 35.5t104 94.5v537q0 62 -12 108.5t-40 77t-72.5 46t-110.5 15.5q-75 0 -134.5 -32t-100.5 -90.5t-63 -140t-22 -180.5t21.5 -184.5t63 -149.5t101 -100.5t135.5 -36.5z" />
    <glyph glyph-name="r" unicode="r" horiz-adv-x="887" 
d="M678 945q-39 1 -79 -14.5t-78.5 -45.5t-72.5 -72t-61 -93l2 -503q0 -41 -1 -72.5t-7 -66.5l129 6v-84h-420v61q47 0 71.5 18.5t35.5 51.5t12.5 79t1.5 101v468q0 32 1 64.5t7 67.5l-145 -6v84h63q44 0 73 4.5t48.5 12.5t32.5 17.5t25 20.5h59q3 -32 5.5 -79.5t4.5 -122.5
q23 38 59 76.5t81 69t97 50t107 19.5q28 0 54.5 -7.5t46 -23.5t31.5 -40t12 -58q0 -14 -5.5 -31t-18 -32t-31.5 -25t-47 -10q-23 0 -41.5 10t-31 25.5t-18 36t-2.5 43.5z" />
    <glyph glyph-name="s" unicode="s" horiz-adv-x="948" 
d="M474 47q39 0 78.5 9.5t72 29.5t53 50.5t20.5 72.5q0 49 -25.5 83.5t-67 61t-95 47.5t-109 43t-108.5 48.5t-94.5 62.5t-67 86t-25.5 119q0 43 16 94.5t56 96.5t107.5 75.5t170.5 30.5q28 0 59.5 -4t64.5 -14.5t66 -27.5t65 -42l-5 78h86v-359h-64q-4 53 -20.5 105
t-48 93.5t-79.5 67.5t-114 26q-48 0 -85 -12.5t-62.5 -34t-38.5 -49.5t-13 -59q0 -50 25.5 -86t67.5 -64t96 -50.5t110 -46t110 -50t96 -62.5t67.5 -84t25.5 -114q0 -77 -31 -134t-81.5 -94t-114 -55t-128.5 -18q-104 0 -183 27.5t-130 62.5l7 -71h-86l-12 352h63
q4 -64 29.5 -117.5t67 -92t95 -60t113.5 -21.5z" />
    <glyph glyph-name="t" unicode="t" horiz-adv-x="793" 
d="M43 1024q54 1 98 29.5t77.5 71t56.5 92.5t36 94h70q0 -82 -0.5 -153t-0.5 -134h345v-80l-345 -4q-1 -133 -1 -227t-0.5 -157t-0.5 -99.5t-0.5 -55.5t-0.5 -24.5v-6.5q0 -70 7.5 -123.5t25.5 -90t47.5 -55t74.5 -18.5q53 0 105 32t92 91l55 -45q-45 -68 -89.5 -106.5
t-84.5 -58t-74.5 -24.5t-60.5 -5q-31 0 -63.5 5t-64 19.5t-59 41t-48.5 68.5t-33 102t-11 142l4 592l-157 -1v88z" />
    <glyph glyph-name="u" unicode="u" horiz-adv-x="1223" 
d="M850 755q0 50 2 85.5t8 70.5l-147 -6v84h63q44 0 75 4.5t53 12.5t36.5 17.5t26.5 20.5h59l-2 -774q0 -16 -0.5 -40.5t-1.5 -51t-2.5 -53t-3.5 -47.5l147 8v-86h-293q-5 35 -8.5 64.5t-5.5 58.5q-32 -32 -71 -60.5t-82.5 -49.5t-89.5 -33.5t-91 -12.5q-84 0 -147 22.5
t-105 74.5t-63 137.5t-21 212.5v364q0 32 1 65t7 68l-141 -6v84h64q43 0 74 4.5t53 12.5t36.5 17.5t26.5 20.5h59v-624q0 -89 12 -154.5t38.5 -109t68.5 -64t103 -20.5q39 0 76.5 13t71.5 35t63.5 50t50.5 60v85v440z" />
    <glyph glyph-name="v" unicode="v" horiz-adv-x="1034" 
d="M561 -6h-82l-293 668q-25 58 -41.5 103t-26 79.5t-13.5 59t-5 42.5l-88 -6v84h377v-61q-47 0 -67.5 -19t-22.5 -50.5t10.5 -72.5t32.5 -86l157 -360q16 -35 31 -73.5t31 -77.5h2q11 30 23.5 64t24.5 68l163 449q17 49 34.5 86t26.5 55l-131 -6v84h324v-61
q-34 0 -59 -17.5t-47 -52t-44 -86.5t-49 -121z" />
    <glyph glyph-name="w" unicode="w" horiz-adv-x="1640" 
d="M12 1024h434v-61q-46 -2 -70 -18.5t-31.5 -45.5t-0.5 -69t24 -89l161 -484q236 700 257 767h84l273 -782q210 609 224.5 645.5t33.5 59.5l-119 -7v84h356v-61q-53 -3 -87 -15.5t-56 -33t-36.5 -49t-27.5 -65.5l-295 -806h-82l-268 775l-266 -775h-78l-268 786
q-23 65 -35.5 103.5t-17.5 62.5l-109 -6v84z" />
    <glyph glyph-name="x" unicode="x" horiz-adv-x="1085" 
d="M45 1024h422v-61q-46 -2 -72.5 -12t-31.5 -31.5t11 -56.5t54 -87l119 -162q256 313 278 334l-141 -8v84h336v-61q-42 -12 -73.5 -29.5t-60 -43t-288.5 -335.5l282 -351q24 -30 45.5 -59t44.5 -67l93 6v-84h-396v61q25 0 44 5.5t27.5 18t4 31.5t-25.5 46l-216 266
q-209 -286 -218.5 -298t-20.5 -24t-26 -28l157 6v-84h-344v61q31 8 55 21t45.5 33t298.5 379q-252 336 -274 379t-33 72l-96 -5v84z" />
    <glyph glyph-name="y" unicode="y" horiz-adv-x="1081" 
d="M264 -448q11 -5 23 -5q18 0 46.5 15.5t57.5 65.5q26 45 62.5 134.5t81.5 214.5q-347 743 -366 788t-31.5 79t-20 59t-10.5 42l-99 -5v84h424v-61l-9 -1q-43 -3 -65.5 -19t-27.5 -45.5t6 -77t281 -613.5q213 621 226.5 653t26 56t23.5 32l-141 -8v84h321v-61
q-38 -15 -65.5 -38.5t-48.5 -57t-39 -76.5t-293 -809q-47 -129 -86 -229.5t-81.5 -168.5t-93 -103.5t-118.5 -35.5q-32 0 -60 7.5t-49 23t-33 39t-12 54.5q0 19 6 37t17.5 32t28 22.5t36.5 8.5q24 0 40.5 -9t26.5 -23t14 -29.5t4 -27.5q0 -6 -0.5 -13.5t-2.5 -14.5z" />
    <glyph glyph-name="z" unicode="z" horiz-adv-x="1047" 
d="M82 0v84q620 798 635.5 816t29 32t23.5 20l-385 -6q-57 -1 -94 -24t-59.5 -62t-34.5 -91.5t-21 -111.5h-63l24 367h803v-66l-577 -759q-13 -17 -24.5 -31t-23.5 -27.5t-26 -27t-33 -29.5l395 -6q64 -1 107 22t71 63t43.5 94t24.5 116h60l-25 -373h-850z" />
    <glyph glyph-name="braceleft" unicode="{" horiz-adv-x="684" 
d="M192 537q44 -9 85.5 -30t73.5 -55.5t51.5 -83t19.5 -112.5q0 -24 -2 -56.5t-5 -69.5q-13 -152 -15 -177.5t-3 -42.5t-1.5 -29.5t-0.5 -25.5q0 -87 11 -153t39.5 -110.5t77.5 -67t124 -22.5h12v-57h-57q-105 0 -175.5 28t-112.5 83t-59.5 137t-17.5 190q0 45 3.5 97.5
t7 105.5t7 103t3.5 90q0 52 -9.5 91t-32 64.5t-60.5 38.5t-95 13h-47v106h47q57 0 95 11.5t60.5 35.5t32 61.5t9.5 90.5q0 81 -10.5 166.5t-10.5 176.5q0 108 17.5 187.5t59.5 131.5t112.5 77.5t175.5 25.5h57v-70h-23q-72 0 -118.5 -19t-74 -59t-38 -100.5t-10.5 -144.5
q0 -17 1 -37.5t3 -43.5l13 -139q5 -48 8 -80t2 -50q0 -64 -19.5 -111.5t-51.5 -80.5t-73.5 -52.5t-85.5 -27.5v-4v0z" />
    <glyph glyph-name="bar" unicode="|" horiz-adv-x="473" 
d="M315 1556l-8 -2111h-139l-6 2111h153z" />
    <glyph glyph-name="braceright" unicode="}" horiz-adv-x="684" 
d="M492 537v4q-44 8 -85.5 27.5t-73.5 52.5t-51.5 80.5t-19.5 111.5q-1 18 2 50t8 80l13 139q2 23 3 43.5t1 37.5q0 84 -10.5 144.5t-38 100.5t-74 59t-118.5 19h-23v70h57q105 0 175.5 -25.5t112.5 -77.5t59.5 -131.5t17.5 -187.5q0 -91 -10.5 -176.5t-10.5 -166.5
q0 -53 9.5 -90.5t32 -61.5t60.5 -35.5t95 -11.5h47v-106h-47q-57 0 -95 -13t-60.5 -38.5t-32 -64.5t-9.5 -91q0 -40 3.5 -90t7 -103t7 -105.5t3.5 -97.5q0 -108 -17.5 -190t-59.5 -137t-112.5 -83t-175.5 -28h-57v57h12q75 0 124 22.5t77.5 67t39.5 110.5t11 153
q0 13 -0.5 25.5t-1.5 29.5t-3 42.5t-15 177.5q-3 37 -5 69.5t-2 56.5q0 64 19.5 112.5t51.5 83t73.5 55.5t85.5 30z" />
    <glyph glyph-name="asciitilde" unicode="~" horiz-adv-x="1188" 
d="M391 627q-42 0 -76 -8t-64 -21.5t-57 -31.5t-55 -38v129q32 26 61.5 46.5t60 34.5t64 21t74.5 7q55 0 96 -11.5t73 -28.5t58.5 -37.5t54 -37.5t59 -28.5t73.5 -11.5q68 0 127.5 26.5t108.5 71.5v-129q-42 -48 -102.5 -77.5t-141.5 -29.5q-51 0 -90.5 11.5t-71.5 28.5
t-60 37t-57 37t-61.5 28.5t-73.5 11.5z" />
    <glyph glyph-name="uni00A0" unicode="&#xa0;" horiz-adv-x="539" 
 />
    <glyph glyph-name="exclamdown" unicode="&#xa1;" horiz-adv-x="498" 
d="M129.023 926.006q0 26.998 10 50.9971q9.99902 23.998 26.998 41.9971t38.498 27.999q21.498 9.99902 45.4971 9.99902q23.998 0 45.4971 -9.99902q21.499 -10 37.998 -27.999t25.998 -41.9971q9.49902 -23.999 9.49902 -50.9971q0 -27.998 -9.99902 -52.4971
q-9.99902 -24.498 -26.498 -42.4971t-38.498 -28.498q-21.998 -10.5 -45.9971 -10.5q-24.998 0 -46.9971 10.5q-21.999 10.499 -37.998 28.498t-24.998 42.4971q-9 24.499 -9 52.4971zM211.019 553.028h75.9961l79.9951 -844.948q1.99902 -26.998 -4.5 -53.9961
q-6.5 -26.999 -21.499 -48.4971q-14.999 -21.499 -37.9971 -34.998q-22.999 -13.499 -54.9971 -13.499q-32.998 0 -55.9971 13.499q-22.998 13.499 -37.4971 34.998q-14.499 21.498 -19.999 48.4971q-5.5 26.998 -3.5 53.9961z" />
    <glyph glyph-name="cent" unicode="&#xa2;" horiz-adv-x="1087" 
d="M828 873q-14 36 -41 57.5t-58.5 33.5t-62.5 15.5t-53 3.5q-70 0 -130.5 -28.5t-104.5 -84.5t-69.5 -138t-25.5 -188q0 -102 25.5 -189t71.5 -150t111 -98.5t144 -35.5q48 0 95 14t89 38t77.5 56.5t60.5 69.5l53 -41q-36 -56 -81.5 -98.5t-95.5 -72t-102 -47t-101 -23.5
l-1 -241h-119l-1 241q-92 11 -171 52t-138 108.5t-92.5 160t-33.5 206.5q0 95 31.5 188t89 170.5t138.5 132t180 72.5l-1 217h133l-2 -217q78 -5 141.5 -27t108.5 -56t69.5 -77.5t24.5 -90.5q0 -22 -6.5 -41.5t-18.5 -34.5t-29.5 -23.5t-40.5 -8.5q-27 0 -45 9t-29 23
t-16 30t-5 30q0 20 6.5 42t24.5 41z" />
    <glyph glyph-name="sterling" unicode="&#xa3;" horiz-adv-x="1122" 
d="M788 1288q-11 40 -52.5 70.5t-113.5 30.5q-58 0 -101.5 -24t-72.5 -64t-43.5 -92t-14.5 -109q0 -52 4.5 -99.5t11.5 -92t15.5 -87t17.5 -84.5h310v-98h-293q5 -37 8.5 -74.5t3.5 -77.5q0 -66 -29 -128t-77 -119q26 4 52.5 6t53.5 2q67 0 126.5 -19t111 -42.5t94.5 -42.5
t78 -19q46 0 75.5 31.5t34.5 97.5h64q-2 -62 -16.5 -114.5t-40.5 -91t-64.5 -60t-87.5 -21.5q-43 0 -83.5 14.5t-80 36.5t-78.5 47.5t-79.5 47.5t-83 36.5t-88.5 14.5q-21 0 -33 -2q-5 -39 -19 -74.5t-33.5 -62.5t-43 -42.5t-48.5 -15.5q-37 0 -57 23.5t-20 52.5
q0 28 13.5 55t37 51t56 42.5t71.5 29.5q23 36 38 83t15 104q0 66 -10.5 121t-25.5 110h-163v98h136q-15 60 -26 127t-11 154q0 102 28.5 185t78.5 141.5t119.5 90.5t152.5 32q90 0 151.5 -24t99 -60t53.5 -78t16 -77t-21.5 -62t-60.5 -27q-23 0 -38.5 8t-25.5 20t-14 26
t-4 26q0 11 4.5 31t21.5 38z" />
    <glyph glyph-name="currency" unicode="&#xa4;" horiz-adv-x="1096" 
d="M208 976l110 -138q46 37 103.5 58.5t127.5 21.5q69 0 125.5 -21t104.5 -59l111 138l83 -66l-126 -144q39 -53 59 -117t20 -128q0 -63 -18.5 -125t-55.5 -111l121 -137l-83 -66l-106 132q-45 -35 -104.5 -55.5t-131.5 -20.5t-130.5 20t-104.5 55l-105 -131l-83 66l120 136
q-37 51 -55 112.5t-18 124.5q0 64 20 128.5t59 117.5l-126 143zM549 845q-38 0 -68 -14.5t-52.5 -38t-38 -54t-25 -63t-13.5 -64t-4 -57.5q0 -49 8.5 -107.5t31 -109.5t61.5 -85t100 -34t100 34t61.5 85t31 109.5t8.5 107.5q0 39 -10 89.5t-33 95t-61.5 75.5t-96.5 31z" />
    <glyph glyph-name="yen" unicode="&#xa5;" horiz-adv-x="1444" 
d="M388 648h202l-295 468q-53 82 -78 137.5t-33 94.5l-127 -5v91h528v-68q-86 0 -123 -24t-37 -66q0 -28 13.5 -61t38.5 -72q38 -61 71.5 -115.5t67.5 -108t71 -108t81 -115.5h4q36 70 69 133.5t65 123.5t63.5 119.5t64.5 121.5q7 15 17.5 35t23.5 42t27.5 42.5t29.5 36.5
l-162 -7v91h418v-68q-51 -3 -91 -20t-75 -49.5t-67.5 -81t-67.5 -113.5l-242 -457h249v-88l-267 -2l-1 -130l268 -1v-88l-268 -2q0 -90 1 -90q0 -110 -6 -162l170 8v-90h-481v68q48 1 76 16t42 39.5t17.5 58.5t3.5 75v75h-261v94h262v127h-262v95z" />
    <glyph glyph-name="brokenbar" unicode="&#xa6;" horiz-adv-x="498" 
d="M325 1556l-8 -767h-139l-6 767h153zM325 207l-8 -762h-139l-6 762h153z" />
    <glyph glyph-name="section" unicode="&#xa7;" horiz-adv-x="1092" 
d="M236 698q0 -74 27 -130t72 -100.5t103 -81t119.5 -71t122 -70.5t110.5 -80q35 45 53 104t18 116q0 73 -27.5 129t-72.5 100t-103 80.5t-119.5 71t-122 70.5t-110.5 80q-35 -46 -52.5 -103.5t-17.5 -114.5zM170 -205q0 20 6.5 39t18.5 33.5t29 23.5t38 9q23 0 38.5 -8.5
t25.5 -21.5t14 -29.5t4 -32.5q0 -11 -6 -30t-17 -33q2 -26 19.5 -49.5t45.5 -42.5t64.5 -30t76.5 -11q70 0 118.5 21t78 53t42.5 70t13 72q0 58 -30 104.5t-79.5 86.5t-112.5 77t-128.5 75.5t-128.5 82t-112.5 97t-79.5 120t-30 151.5q0 43 12 88.5t35.5 89t57 85t76.5 77.5
q-39 45 -62.5 104.5t-23.5 125.5q0 35 8 76t26 81t47.5 77.5t72.5 66.5t100 46t131 17q82 0 149.5 -22.5t115.5 -58.5t74.5 -81.5t26.5 -91.5q0 -19 -5.5 -36t-16.5 -30t-26.5 -21t-36.5 -8q-26 0 -42 8.5t-25.5 21t-14 27t-4.5 27.5q0 12 5.5 34t19.5 35q-10 25 -30 47
t-47.5 37.5t-61.5 24.5t-73 9q-71 0 -119 -22t-77.5 -55.5t-42.5 -72.5t-13 -73q0 -58 30 -104.5t79.5 -86.5t112.5 -77t129 -75.5t129 -82t112.5 -97t79.5 -120t30 -151.5q0 -44 -12 -89.5t-35.5 -89.5t-57 -85.5t-76.5 -77.5q38 -45 61.5 -100.5t23.5 -127.5
q0 -33 -8.5 -72t-27 -79t-48 -77t-72.5 -66t-99.5 -46.5t-129.5 -17.5q-90 0 -158.5 23.5t-114 61t-69 84t-23.5 93.5z" />
    <glyph glyph-name="dieresis" unicode="&#xa8;" horiz-adv-x="793" 
d="M327 1369q0 -25 -8.5 -47t-22.5 -38.5t-32.5 -26t-38.5 -9.5q-21 0 -39.5 9.5t-32.5 26t-22 38.5t-8 47t8.5 48t22.5 39.5t33 26.5t39 10q22 0 40.5 -10t32 -26.5t21 -39.5t7.5 -48zM669 1369q0 -25 -8.5 -47t-22.5 -38.5t-32.5 -26t-38.5 -9.5q-21 0 -39.5 9.5t-32.5 26
t-22 38.5t-8 47t8.5 48t22.5 39.5t33 26.5t39 10q22 0 40.5 -10t32 -26.5t21 -39.5t7.5 -48z" />
    <glyph glyph-name="copyright" unicode="&#xa9;" horiz-adv-x="1796" 
d="M90 713q0 113 27.5 218t78 196.5t123 166.5t163 129t196 83.5t223.5 29.5q119 0 225 -29.5t196 -83.5t162 -129t122 -166.5t77 -196.5t27 -218q0 -112 -29 -216t-81.5 -194.5t-126.5 -165t-164.5 -127.5t-194.5 -82.5t-217 -29.5q-182 0 -331 61t-254.5 170t-163.5 258
t-58 326zM228 713q0 -94 21 -183.5t61 -169t98.5 -145.5t133.5 -114t165.5 -74.5t195.5 -26.5q102 0 191.5 26.5t164 74.5t133.5 114t99.5 145.5t62 169t21.5 183.5q0 95 -22 185.5t-63.5 170.5t-101 147.5t-135 116.5t-165.5 76t-191 27q-100 0 -188.5 -27t-163 -76
t-133.5 -116.5t-100 -147.5t-62.5 -170.5t-21.5 -185.5zM924 1116q-59 0 -116 -24.5t-102 -72.5t-72.5 -120t-27.5 -166q0 -85 26.5 -157.5t74.5 -125t114.5 -82.5t147.5 -30q34 0 73.5 10.5t79 30t76.5 47.5t66 63l61 -71q-45 -62 -99.5 -102.5t-110 -64t-109 -33
t-96.5 -9.5q-107 0 -197.5 38.5t-157 106t-104 159t-37.5 196.5q0 60 14.5 122t42.5 119.5t70 108t98 88t125.5 59t151.5 21.5q75 0 144 -23t123 -61l-7 74h102v-345h-82q-8 67 -31.5 113.5t-59.5 75.5t-82 42t-99 13z" />
    <glyph glyph-name="ordfeminine" unicode="&#xaa;" horiz-adv-x="838" 
d="M511 1102q-46 0 -91.5 -9t-82 -27t-59 -46t-22.5 -66q0 -33 15 -52.5t32.5 -27.5t32 -8.5l14.5 -0.5q42 0 82.5 20.5t75.5 55.5zM144 1278q0 35 20 69t55.5 60.5t84 43t106.5 16.5q111 0 170 -59t59 -186l-2 -228q-1 -64 14.5 -93.5t43.5 -29.5q13 0 36 17l23 -39
q-9 -12 -23.5 -23.5t-32.5 -21t-37.5 -15.5t-37.5 -6q-27 0 -46.5 7.5t-32 20t-20 28t-11.5 31.5q-38 -42 -87.5 -66.5t-113.5 -24.5q-100 0 -150.5 43t-50.5 109q0 62 37.5 106.5t96 73t129.5 42t138 13.5v70q0 31 -3 60.5t-16 52t-39 36t-72 13.5q-19 0 -38.5 -5.5
t-36.5 -16t-29.5 -25t-18.5 -31.5q17 -20 17 -50q0 -10 -3.5 -21t-11.5 -20.5t-20.5 -16t-31.5 -6.5q-30 0 -47.5 21.5t-17.5 50.5z" />
    <glyph glyph-name="guillemotleft" unicode="&#xab;" horiz-adv-x="1085" 
d="M65.0625 540.035v7.99902l560.966 574.965l62.9961 -64.9961l-402.976 -517.968v-4l398.976 -485.971l-64.9961 -64.9961zM501.035 546.034v6l405.976 398.976l64.9961 -60.9961l-247.984 -331.98v-3.99902l243.984 -335.979l-65.9961 -60.9971z" />
    <glyph glyph-name="logicalnot" unicode="&#xac;" horiz-adv-x="1212" 
d="M150 705l912 -5v-378h-105l-7 259l-800 -3v127z" />
    <glyph glyph-name="uni00AD" unicode="&#xad;" horiz-adv-x="1001" 
d="M137 727h727v-135l-727 -8v143z" />
    <glyph glyph-name="registered" unicode="&#xae;" horiz-adv-x="1798" 
d="M90 713q0 113 27 218.5t78 197t123 166.5t162.5 128.5t196.5 83t224 29.5q120 0 226.5 -29.5t196.5 -83t161.5 -128.5t121.5 -166.5t76.5 -197t26.5 -218.5t-28.5 -217.5t-81 -195t-126.5 -165t-164 -127t-194.5 -81.5t-218.5 -29q-183 0 -331.5 60.5t-254.5 169
t-163.5 258t-57.5 327.5zM230 713q0 -95 20.5 -184.5t60.5 -168.5t98 -144.5t132.5 -113t165.5 -74t196 -26.5q103 0 192.5 26.5t164 74t133 113t99 144.5t62 168.5t21.5 184.5t-22 185.5t-63 171t-101 148t-135 116t-165 75.5t-192 27q-101 0 -189.5 -27t-162.5 -75.5
t-132.5 -116t-99 -148t-62 -171t-21.5 -185.5zM764 461q0 -35 -1 -60.5t-3 -44.5l102 4v-81h-348v69q37 1 57.5 13t29.5 33.5t10.5 51.5t1.5 66v535q0 27 0.5 52.5t3.5 45.5l-103 -10v86q32 1 72.5 2.5t84 3t87 2.5t82.5 1q113 0 195 -20t134.5 -56t77.5 -86t25 -110
q0 -34 -12 -74t-41 -78.5t-76.5 -71t-119.5 -52.5v-2q17 -8 39 -27.5t48 -56.5q58 -87 96 -137.5t65.5 -77t48 -34t42.5 -7.5v-70h-178q-31 8 -67 50t-87 114q-45 63 -84 122.5t-70 104.5q-15 -3 -43 -3q-20 0 -39 1t-30 3v-201zM764 748h2q17 -2 35 -3t36 -1q22 0 51.5 3.5
t60 12.5t60 24t52.5 38t37 55t14 75q0 46 -19 81.5t-50.5 59.5t-72.5 36.5t-84 12.5q-48 0 -73 -12.5t-36 -35t-12 -54.5t-1 -71v-221z" />
    <glyph glyph-name="macron" unicode="&#xaf;" horiz-adv-x="727" 
d="M92 1434h543v-115l-543 -8v123z" />
    <glyph glyph-name="degree" unicode="&#xb0;" horiz-adv-x="829" 
d="M225 1148q0 -42 13.5 -81t38.5 -69t60 -47.5t78 -17.5q42 0 77 17.5t60 47.5t38.5 69t13.5 81t-13.5 81t-38.5 69.5t-60.5 48.5t-78.5 18q-42 0 -76.5 -18t-59.5 -48.5t-38.5 -69.5t-13.5 -81zM96 1148q0 67 25.5 125t69.5 101t102.5 68t123.5 25q72 0 130.5 -25t100 -68
t63.5 -101t22 -125t-26 -125t-70 -101.5t-102.5 -68.5t-123.5 -25q-72 0 -130 25t-99.5 68.5t-63.5 101.5t-22 125z" />
    <glyph glyph-name="plusminus" unicode="&#xb1;" horiz-adv-x="1180" 
d="M133 737l389 -2v322h132v-322l391 -2v-115l-391 -2v-340h-132v339l-389 -1v123zM1045 6h-912v106l912 9v-115z" />
    <glyph glyph-name="twosuperior" unicode="&#xb2;" horiz-adv-x="788" 
d="M239 1311q19 -17 19 -47q0 -9 -3 -19.5t-10.5 -19.5t-19 -15t-28.5 -6q-26 0 -42 19t-16 47q0 30 16.5 64.5t48.5 64t79.5 49t109.5 19.5q48 0 92 -13t78.5 -40t55 -68t20.5 -98q0 -30 -8 -62.5t-33.5 -70.5t-73 -83.5t-125.5 -102.5q-137 -100 -162 -187l173 -4
q21 -1 41 -1.5t37 -0.5q27 0 49 3t37 12t23.5 25.5t8.5 43.5h43v-193h-524q0 64 19.5 116.5t52.5 98.5t76.5 86.5t91.5 79.5q43 35 68.5 68.5t39.5 64t18.5 57.5t4.5 48q0 66 -33 106.5t-96 40.5q-25 0 -46.5 -7t-38.5 -18t-28 -26t-15 -31z" />
    <glyph glyph-name="threesuperior" unicode="&#xb3;" horiz-adv-x="758" 
d="M111 808q0 32 17.5 53.5t49.5 21.5q16 0 27.5 -6t19 -15.5t10.5 -21.5t3 -23t-4.5 -23t-11.5 -21q3 -21 15 -35.5t30 -24t40 -14t45 -4.5q40 0 70 15t49.5 39.5t29.5 55t10 62.5q0 25 -6 55.5t-23.5 58t-53.5 45.5t-85 18q-26 0 -57 -2v65h24q59 0 93 17t51 41t21.5 49
t4.5 42q0 25 -6.5 50.5t-21.5 46t-39.5 33.5t-60.5 13q-53 0 -83.5 -26t-36.5 -56q18 -18 18 -45q0 -9 -3 -19.5t-10.5 -19.5t-19 -15t-28.5 -6q-27 0 -42 20.5t-15 46.5q0 28 15.5 60.5t45.5 61t75.5 47.5t105.5 19q53 0 96.5 -14t74 -40t47.5 -63t17 -82q0 -26 -11 -53.5
t-32.5 -52.5t-54 -45t-75.5 -31v-2q53 -5 93 -24t67 -48t40.5 -66.5t13.5 -78.5q0 -50 -19.5 -94t-56 -77t-90 -52t-120.5 -19q-62 0 -109 16t-79 42.5t-48.5 59t-16.5 65.5z" />
    <glyph glyph-name="acute" unicode="&#xb4;" horiz-adv-x="516" 
d="M149 1188l-57 47l172 276q23 33 45.5 44.5t39 11.5t32 -6.5t25.5 -19.5t13.5 -24t3.5 -24q0 -11 -3 -21t-6 -17q-9 -23 -35 -50z" />
    <glyph glyph-name="mu" unicode="&#xb5;" horiz-adv-x="1257" 
d="M1006 1024l-2 -735q0 -53 6.5 -89.5t18.5 -59t29 -32.5t38 -10q19 0 38.5 7.5t47.5 27.5l23 -31q-13 -18 -34 -38.5t-47.5 -37t-58.5 -27.5t-67 -11q-38 0 -64.5 10.5t-45.5 28.5t-30 41t-17 47q-29 -30 -65.5 -57t-77.5 -47.5t-85 -32t-88 -11.5q-78 0 -134 44t-98 122
q11 -112 22.5 -190t22.5 -131.5t21 -87.5t17 -58t11.5 -43.5t4.5 -43.5q0 -20 -6 -40t-17.5 -35.5t-29 -25.5t-41.5 -10q-57 0 -81 47.5t-24 129.5l2 1379h172v-541q0 -87 9 -162.5t33.5 -130.5t67 -86.5t109.5 -31.5q38 0 73.5 11.5t67.5 31.5t58.5 46.5t46.5 56.5v806h174
z" />
    <glyph glyph-name="paragraph" unicode="&#xb6;" horiz-adv-x="1026" 
d="M823 1434l-4 -1956h-143l4 1872l-179 -6l-5 -1866h-144l5 1359q-51 4 -102.5 21.5t-93 53t-67.5 90.5t-26 134q0 73 25 129t66 93.5t93 56.5t107 19h464z" />
    <glyph glyph-name="periodcentered" unicode="&#xb7;" horiz-adv-x="512" 
d="M376 671q0 -27 -10 -51t-26.5 -42t-38 -28t-45.5 -10t-45.5 10t-38 28t-26 42t-9.5 51q0 28 10 52.5t26.5 42.5t38.5 28.5t46 10.5q25 0 46.5 -10.5t37.5 -28.5t25 -42.5t9 -52.5z" />
    <glyph glyph-name="cedilla" unicode="&#xb8;" horiz-adv-x="598" 
d="M369 -116q63 0 100 -36t37 -99q0 -41 -20 -74t-53 -58.5t-75.5 -44t-87 -31.5t-88 -21.5t-78.5 -13.5l-12 69q52 9 97 23.5t78 34t52 44t19 54.5q0 33 -19 47t-46 14q-23 0 -48 -8t-45 -22l-69 34l59 220h115l-56 -168q29 18 67 27t73 9z" />
    <glyph glyph-name="onesuperior" unicode="&#xb9;" horiz-adv-x="580" 
d="M155 674q31 0 51 12t31 32t15 47.5t4 59.5v494h-5l-127 -76l-32 58l228 166h51l2 -705q0 -23 -1 -43t-3 -37l104 4v-70h-318v58v0z" />
    <glyph glyph-name="ordmasculine" unicode="&#xba;" horiz-adv-x="858" 
d="M425 1398q-38 0 -73.5 -21t-58 -55t-34.5 -79.5t-12 -98.5q0 -58 11.5 -111t35 -93.5t59 -64.5t84.5 -24q45 0 78.5 19.5t56.5 53.5t34.5 79.5t11.5 97.5q0 58 -11 112t-34 95t-58 65.5t-90 24.5zM434 1467q71 0 130.5 -24.5t103 -68.5t68.5 -105.5t25 -135.5
q0 -78 -24.5 -143t-68.5 -112t-105 -73t-134 -26q-71 0 -131.5 24.5t-104.5 68t-69.5 103.5t-25.5 132q0 76 25.5 142t70.5 114.5t106.5 76t133.5 27.5z" />
    <glyph glyph-name="guillemotright" unicode="&#xbb;" horiz-adv-x="1083" 
d="M1020 568v-8l-561 -575l-63 65l403 518v4l-399 486l65 65zM584 562v-6l-406 -399l-65 61l248 332v4l-244 336l66 61z" />
    <glyph glyph-name="onequarter" unicode="&#xbc;" horiz-adv-x="1563" 
d="M1278 1402l-969 -1435l-77 53l956 1447zM156 674q31 0 51 12t31 32t15 47.5t4 59.5v494h-5l-127 -76l-32 58l228 166h51l2 -705q0 -23 -1 -43t-3 -37l104 4v-70h-318v58v0zM1460 0h-301v59q31 1 51 11.5t31 28t15 42t4 54.5v20h-347v61l408 566h54v-553h116v-74h-115
v-149l84 4v-70zM1009 296l250 -4v351h-2z" />
    <glyph glyph-name="onehalf" unicode="&#xbd;" horiz-adv-x="1642" 
d="M1276 1402l-969 -1435l-77 53l956 1447zM154 674q31 0 51 12t31 32t15 47.5t4 59.5v494h-5l-127 -76l-32 58l228 166h51l2 -705q0 -23 -1 -43t-3 -37l104 4v-70h-318v58v0zM1140 684q19 -17 19 -47q0 -9 -3 -19.5t-10.5 -19.5t-19 -15t-28.5 -6q-26 0 -42 19t-16 47
q0 30 16.5 64.5t48.5 64t79.5 49t109.5 19.5q48 0 92 -13t78.5 -40t55 -68t20.5 -98q0 -30 -8 -62.5t-33.5 -70.5t-73 -83.5t-125.5 -102.5q-137 -100 -162 -187l173 -4q21 -1 41 -1.5t37 -0.5q27 0 49 3t37 12t23.5 25.5t8.5 43.5h43v-193h-524q0 64 19.5 116.5t52.5 98.5
t76.5 86.5t91.5 79.5q43 35 68.5 68.5t39.5 64t18.5 57.5t4.5 48q0 66 -33 106.5t-96 40.5q-25 0 -46.5 -7t-38.5 -18t-28 -26t-15 -31z" />
    <glyph glyph-name="threequarters" unicode="&#xbe;" horiz-adv-x="1649" 
d="M1396 1402l-969 -1435l-77 53l956 1447zM72 808q0 32 17.5 53.5t49.5 21.5q16 0 27.5 -6t19 -15.5t10.5 -21.5t3 -23t-4.5 -23t-11.5 -21q3 -21 15 -35.5t30 -24t40 -14t45 -4.5q40 0 70 15t49.5 39.5t29.5 55t10 62.5q0 25 -6 55.5t-23.5 58t-53.5 45.5t-85 18
q-26 0 -57 -2v65h24q59 0 93 17t51 41t21.5 49t4.5 42q0 25 -6.5 50.5t-21.5 46t-39.5 33.5t-60.5 13q-53 0 -83.5 -26t-36.5 -56q18 -18 18 -45q0 -9 -3 -19.5t-10.5 -19.5t-19 -15t-28.5 -6q-27 0 -42 20.5t-15 46.5q0 28 15.5 60.5t45.5 61t75.5 47.5t105.5 19
q53 0 96.5 -14t74 -40t47.5 -63t17 -82q0 -26 -11 -53.5t-32.5 -52.5t-54 -45t-75.5 -31v-2q53 -5 93 -24t67 -48t40.5 -66.5t13.5 -78.5q0 -50 -19.5 -94t-56 -77t-90 -52t-120.5 -19q-62 0 -109 16t-79 42.5t-48.5 59t-16.5 65.5zM1582 0h-301v59q31 1 51 11.5t31 28
t15 42t4 54.5v20h-347v61l408 566h54v-553h116v-74h-115v-149l84 4v-70zM1131 296l250 -4v351h-2z" />
    <glyph glyph-name="questiondown" unicode="&#xbf;" horiz-adv-x="956" 
d="M737.014 -217.924q-10.999 17.998 -16.999 37.9971q-5.99902 19.999 -5.99902 41.998q0 12.999 5.49902 28.998q5.5 15.999 16.499 29.498q11 13.499 28.998 21.999q17.999 8.49902 42.998 7.49902q43.9971 -2 65.4961 -32.498q21.498 -30.498 21.498 -74.4951
q0 -44.9971 -28.498 -95.4941t-81.9951 -92.4941q-53.4971 -41.998 -129.992 -69.9961t-173.489 -27.998q-117.992 0 -198.987 31.998t-129.492 82.9941q-48.4971 50.9971 -67.9961 114.993t-15.499 127.992q4 68.9961 39.4971 127.992q35.498 58.9971 86.4951 109.993
q50.9971 50.9971 108.993 95.4941q57.9971 44.498 107.493 83.4951q49.4971 38.998 81.9951 74.9961q32.498 35.9971 32.498 69.9951q0 11.999 -4.49902 24.499q-4.5 12.499 -14.5 21.998q-9.99902 9.5 -26.498 15.499q-16.499 6 -40.4971 6q-13.999 0 -35.498 -3.5
t-40.498 -11.499l-23.998 71.9951q31.998 18.999 77.4951 27.999q45.4971 8.99902 83.4951 8.99902q29.998 0 59.4961 -7.49902q29.498 -7.5 52.4971 -23.499q22.998 -15.999 37.498 -41.9971q14.499 -25.999 14.499 -63.9961q0 -45.9971 -28.999 -86.4951
q-28.998 -40.4971 -72.9951 -79.9951q-43.9971 -39.4971 -95.4941 -81.9951q-51.4971 -42.4971 -96.4941 -92.9941t-75.4951 -111.993t-33.498 -139.491q-1 -54.9971 10.499 -104.494t40.498 -86.9941q28.998 -37.498 77.9951 -58.9971q48.9971 -21.498 120.992 -21.498
q43.9971 0 83.4951 13.499q39.4971 13.499 69.4961 34.998q29.998 21.498 48.9971 46.9971q18.998 25.498 22.998 49.4971zM378.036 936.006q0 24.998 7.99902 46.9971q8 21.998 22.499 38.4971t34.4971 25.999q19.999 9.49902 43.998 9.49902q20.998 0 40.9971 -8
q19.999 -7.99902 35.498 -23.998t24.998 -37.998q9.5 -21.998 9.5 -50.9961q0 -24.999 -9.5 -46.998q-9.49902 -21.998 -24.998 -38.4971t-35.498 -25.999q-19.999 -9.49902 -40.9971 -9.49902q-22.999 0 -42.998 9.49902q-19.998 9.5 -34.4971 25.999t-22.999 38.4971
q-8.49902 21.999 -8.49902 46.998z" />
    <glyph glyph-name="Agrave" unicode="&#xc0;" horiz-adv-x="1282" 
d="M262 223q-8 -24 -14 -43t-12 -35t-12 -31t-13 -32l160 8v-90h-383v68q46 0 75 18.5t49 52.5t36.5 81t37.5 104l422 1149h49l457 -1166q9 -21 18.5 -50.5t18 -60.5t13 -61t3.5 -53l140 8v-90h-469v68q57 1 84 21t34 49t0 62t-18 62l-72 192l-533 -12q-22 -63 -39 -115.5
t-32 -103.5zM510 942q-47 -132 -82.5 -232.5t-63.5 -179.5h474l-146 392l-92 252h-4zM336 1739q-35 21 -49 42t-17 39t2 31.5t10 20.5q3 4 13.5 12.5t28 12t42 -2.5t54.5 -32l258 -246l-45 -60z" />
    <glyph glyph-name="Aacute" unicode="&#xc1;" horiz-adv-x="1282" 
d="M262 223q-8 -24 -14 -43t-12 -35t-12 -31t-13 -32l160 8v-90h-383v68q46 0 75 18.5t49 52.5t36.5 81t37.5 104l422 1149h49l457 -1166q9 -21 18.5 -50.5t18 -60.5t13 -61t3.5 -53l140 8v-90h-469v68q57 1 84 21t34 49t0 62t-18 62l-72 192l-533 -12q-22 -63 -39 -115.5
t-32 -103.5zM510 942q-47 -132 -82.5 -232.5t-63.5 -179.5h474l-146 392l-92 252h-4zM630 1556l-45 60l258 246q30 26 54.5 32t42 2.5t28 -12t13.5 -12.5q5 -7 10 -20.5t2 -31.5t-17 -39t-49 -42z" />
    <glyph glyph-name="Acircumflex" unicode="&#xc2;" horiz-adv-x="1282" 
d="M262 223q-8 -24 -14 -43t-12 -35t-12 -31t-13 -32l160 8v-90h-383v68q46 0 75 18.5t49 52.5t36.5 81t37.5 104l422 1149h49l457 -1166q9 -21 18.5 -50.5t18 -60.5t13 -61t3.5 -53l140 8v-90h-469v68q57 1 84 21t34 49t0 62t-18 62l-72 192l-533 -12q-22 -63 -39 -115.5
t-32 -103.5zM510 942q-47 -132 -82.5 -232.5t-63.5 -179.5h474l-146 392l-92 252h-4zM634 1907h5l376 -289l-45 -70l-340 181h-4l-348 -179l-41 66z" />
    <glyph glyph-name="Atilde" unicode="&#xc3;" horiz-adv-x="1282" 
d="M262 223q-8 -24 -14 -43t-12 -35t-12 -31t-13 -32l160 8v-90h-383v68q46 0 75 18.5t49 52.5t36.5 81t37.5 104l422 1149h49l457 -1166q9 -21 18.5 -50.5t18 -60.5t13 -61t3.5 -53l140 8v-90h-469v68q57 1 84 21t34 49t0 62t-18 62l-72 192l-533 -12q-22 -63 -39 -115.5
t-32 -103.5zM510 942q-47 -132 -82.5 -232.5t-63.5 -179.5h474l-146 392l-92 252h-4zM448 1737q-44 0 -78.5 -33t-72.5 -90l-70 39q18 45 44.5 83t57 66t64 44.5t66.5 17.5q40 0 72.5 -10.5t59.5 -26.5t50.5 -35t46.5 -35t46.5 -26.5t51.5 -10.5q27 0 51 11t44.5 29t38 42
t32.5 51l66 -32q-22 -63 -50 -107t-60 -71t-66 -39.5t-68 -12.5q-40 0 -72.5 11t-60.5 27t-52.5 35t-48 35t-46 27t-46.5 11z" />
    <glyph glyph-name="Adieresis" unicode="&#xc4;" horiz-adv-x="1282" 
d="M262 223q-8 -24 -14 -43t-12 -35t-12 -31t-13 -32l160 8v-90h-383v68q46 0 75 18.5t49 52.5t36.5 81t37.5 104l422 1149h49l457 -1166q9 -21 18.5 -50.5t18 -60.5t13 -61t3.5 -53l140 8v-90h-469v68q57 1 84 21t34 49t0 62t-18 62l-72 192l-533 -12q-22 -63 -39 -115.5
t-32 -103.5zM510 942q-47 -132 -82.5 -232.5t-63.5 -179.5h474l-146 392l-92 252h-4zM932 1718q0 -27 -9 -50.5t-24.5 -41t-36 -27.5t-42.5 -10q-23 0 -43 10t-35 27.5t-24 41t-9 50.5t9 51t25 42t36 28.5t43 10.5t43 -10.5t35 -28.5t23.5 -42t8.5 -51zM564 1718
q0 -27 -9 -50.5t-24.5 -41t-36 -27.5t-42.5 -10q-23 0 -43 10t-35 27.5t-24 41t-9 50.5t9 51t25 42t36 28.5t43 10.5t43 -10.5t35 -28.5t23.5 -42t8.5 -51z" />
    <glyph glyph-name="Aring" unicode="&#xc5;" horiz-adv-x="1286" 
d="M264 223q-8 -24 -14 -43t-12 -35t-12 -31t-13 -32l160 8v-90h-383v68q46 0 75 18.5t49 52.5t36.5 81t37.5 104l422 1149h49l457 -1166q9 -21 18.5 -50.5t18 -60.5t13 -61t3.5 -53l140 8v-90h-469v68q57 1 84 21t34 49t0 62t-18 62l-72 192l-533 -12q-22 -63 -39 -115.5
t-32 -103.5zM512 942q-47 -132 -82.5 -232.5t-63.5 -179.5h474l-146 392l-92 252h-4zM622 1847q-48 -3 -77 -42t-29 -105q0 -74 32.5 -119t87.5 -45q21 0 41 9.5t35 27.5t24 43.5t9 58.5q0 85 -32.5 128.5t-83.5 43.5h-7zM629 1917q41 0 82 -12.5t74.5 -39t55 -66.5
t23.5 -95q0 -56 -19.5 -100t-52 -75.5t-74 -48t-85.5 -16.5t-86.5 13t-75.5 40.5t-53.5 69.5t-20.5 100q0 52 20.5 94.5t53.5 72.5t74.5 46.5t83.5 16.5z" />
    <glyph glyph-name="AE" unicode="&#xc6;" horiz-adv-x="1944" 
d="M1496 530q0 67 -13.5 104t-42.5 54t-74.5 20t-109.5 3l-154 -8q0 -518 -1.5 -556.5t-4.5 -64.5l403 -6q65 0 117.5 17t89 55t56.5 99.5t20 151.5h70l-12 -399h-1057v74h16q40 3 64.5 16t38 36.5t18 58t4.5 81.5v187l-499 -11l-241 -360l156 8v-90h-383v68q41 0 74 18
t61 45.5t51 60.5t783 1161l-184 -10v91h1027l9 -359h-67q0 88 -20.5 144t-56 88t-83.5 43.5t-104 11.5h-13l-176 -4q-58 -2 -89.5 -17t-46.5 -44.5t-17.5 -74.5t-2.5 -108v-330h152q64 0 110 5t75.5 24t43 57.5t13.5 106.5h67v-447h-67zM924 530v661l-441 -661h441z" />
    <glyph glyph-name="Ccedilla" unicode="&#xc7;" horiz-adv-x="1434" 
d="M619 -454q52 9 97.5 25t79.5 37t53.5 47.5t19.5 56.5q0 35 -19.5 50t-46.5 15q-22 0 -46 -7.5t-44 -20.5l-73 34l48 191q-133 19 -242 81.5t-187 158t-120.5 218t-42.5 262.5q0 96 19.5 191t59 180.5t98.5 159t138 127.5t178 84.5t218 30.5q117 0 217 -31t196 -94
l-10 110h111v-475h-74q-11 96 -45.5 171.5t-89 127.5t-128.5 79.5t-163 27.5q-109 0 -204.5 -46.5t-166.5 -132t-112 -207.5t-41 -272q0 -145 43 -264.5t117.5 -205.5t174.5 -133.5t214 -47.5q67 0 133.5 15t128 45t115.5 74t96 101l53 -43q-65 -90 -138.5 -147.5
t-148.5 -90.5t-147.5 -46.5t-136.5 -14.5l-39 -124q15 9 33 15.5t36.5 10t35.5 5.5t29 2q39 0 68.5 -11.5t49 -31t29.5 -46t10 -57.5q0 -42 -21.5 -76t-57 -61.5t-80 -48.5t-91.5 -36t-92 -25t-80 -15z" />
    <glyph glyph-name="Egrave" unicode="&#xc8;" 
d="M433 236q0 -57 -1.5 -95.5t-5.5 -64.5l392 6q67 1 121 16.5t92.5 52t59.5 97t21 151.5h70l-12 -399h-1057v68q49 1 77.5 15.5t42.5 39.5t17.5 59.5t3.5 76.5v60v885q0 42 1.5 79.5t5.5 68.5l-148 -9v91h985l10 -359h-67q0 88 -20.5 144t-56 88t-83.5 43.5t-104 11.5
l-189 -3q-57 -3 -88.5 -18t-46.5 -44.5t-17.5 -74.5t-2.5 -108v-330h384l-15 177h91v-431h-67q0 60 -10.5 95.5t-33 55t-57 25.5t-83.5 6h-29t-180 -7v-469zM410 1739q-35 21 -49 42t-17 39t2 31.5t10 20.5q3 4 13.5 12.5t28 12t42 -2.5t54.5 -32l258 -246l-45 -60z" />
    <glyph glyph-name="Eacute" unicode="&#xc9;" 
d="M433 236q0 -57 -1.5 -95.5t-5.5 -64.5l392 6q67 1 121 16.5t92.5 52t59.5 97t21 151.5h70l-12 -399h-1057v68q49 1 77.5 15.5t42.5 39.5t17.5 59.5t3.5 76.5v60v885q0 42 1.5 79.5t5.5 68.5l-148 -9v91h985l10 -359h-67q0 88 -20.5 144t-56 88t-83.5 43.5t-104 11.5
l-189 -3q-57 -3 -88.5 -18t-46.5 -44.5t-17.5 -74.5t-2.5 -108v-330h384l-15 177h91v-431h-67q0 60 -10.5 95.5t-33 55t-57 25.5t-83.5 6h-29t-180 -7v-469zM592 1556l-45 60l258 246q30 26 54.5 32t42 2.5t28 -12t13.5 -12.5q5 -7 10 -20.5t2 -31.5t-17 -39t-49 -42z" />
    <glyph glyph-name="Ecircumflex" unicode="&#xca;" 
d="M433 236q0 -57 -1.5 -95.5t-5.5 -64.5l392 6q67 1 121 16.5t92.5 52t59.5 97t21 151.5h70l-12 -399h-1057v68q49 1 77.5 15.5t42.5 39.5t17.5 59.5t3.5 76.5v60v885q0 42 1.5 79.5t5.5 68.5l-148 -9v91h985l10 -359h-67q0 88 -20.5 144t-56 88t-83.5 43.5t-104 11.5
l-189 -3q-57 -3 -88.5 -18t-46.5 -44.5t-17.5 -74.5t-2.5 -108v-330h384l-15 177h91v-431h-67q0 60 -10.5 95.5t-33 55t-57 25.5t-83.5 6h-29t-180 -7v-469zM678 1907h5l376 -289l-45 -70l-340 181h-4l-348 -179l-41 66z" />
    <glyph glyph-name="Edieresis" unicode="&#xcb;" 
d="M433 236q0 -57 -1.5 -95.5t-5.5 -64.5l392 6q67 1 121 16.5t92.5 52t59.5 97t21 151.5h70l-12 -399h-1057v68q49 1 77.5 15.5t42.5 39.5t17.5 59.5t3.5 76.5v60v885q0 42 1.5 79.5t5.5 68.5l-148 -9v91h985l10 -359h-67q0 88 -20.5 144t-56 88t-83.5 43.5t-104 11.5
l-189 -3q-57 -3 -88.5 -18t-46.5 -44.5t-17.5 -74.5t-2.5 -108v-330h384l-15 177h91v-431h-67q0 60 -10.5 95.5t-33 55t-57 25.5t-83.5 6h-29t-180 -7v-469zM966 1718q0 -27 -9 -50.5t-24.5 -41t-36 -27.5t-42.5 -10q-23 0 -43 10t-35 27.5t-24 41t-9 50.5t9 51t25 42
t36 28.5t43 10.5t43 -10.5t35 -28.5t23.5 -42t8.5 -51zM598 1718q0 -27 -9 -50.5t-24.5 -41t-36 -27.5t-42.5 -10q-23 0 -43 10t-35 27.5t-24 41t-9 50.5t9 51t25 42t36 28.5t43 10.5t43 -10.5t35 -28.5t23.5 -42t8.5 -51z" />
    <glyph glyph-name="Igrave" unicode="&#xcc;" horiz-adv-x="684" 
d="M253 1204q0 42 1.5 79.5t5.5 68.5l-148 -9v91h461v-68q-58 -2 -87 -21.5t-41 -52.5t-12.5 -78t-0.5 -100v-870q0 -56 -1.5 -96t-5.5 -66l148 8v-90h-461v68q58 2 87 21t41 52t12.5 78.5t0.5 99.5v885zM102 1739q-35 21 -49 42t-17 39t2 31.5t10 20.5q3 4 13.5 12.5t28 12
t42 -2.5t54.5 -32l258 -246l-45 -60z" />
    <glyph glyph-name="Iacute" unicode="&#xcd;" horiz-adv-x="684" 
d="M254 1204q0 42 1.5 79.5t5.5 68.5l-148 -9v91h461v-68q-58 -2 -87 -21.5t-41 -52.5t-12.5 -78t-0.5 -100v-870q0 -56 -1.5 -96t-5.5 -66l148 8v-90h-461v68q58 2 87 21t41 52t12.5 78.5t0.5 99.5v885zM246 1556l-45 60l258 246q30 26 54.5 32t42 2.5t28 -12t13.5 -12.5
q5 -7 10 -20.5t2 -31.5t-17 -39t-49 -42z" />
    <glyph glyph-name="Icircumflex" unicode="&#xce;" horiz-adv-x="686" 
d="M359 1907h4l356 -289l-45 -70l-319 181h-4l-328 -179l-41 66zM253 1204q0 42 1.5 79.5t5.5 68.5l-148 -9v91h461v-68q-58 -2 -87 -21.5t-41 -52.5t-12.5 -78t-0.5 -100v-870q0 -56 -1.5 -96t-5.5 -66l148 8v-90h-461v68q58 2 87 21t41 52t12.5 78.5t0.5 99.5v885z" />
    <glyph glyph-name="Idieresis" unicode="&#xcf;" horiz-adv-x="684" 
d="M253 1204q0 42 1.5 79.5t5.5 68.5l-148 -9v91h461v-68q-58 -2 -87 -21.5t-41 -52.5t-12.5 -78t-0.5 -100v-870q0 -56 -1.5 -96t-5.5 -66l148 8v-90h-461v68q58 2 87 21t41 52t12.5 78.5t0.5 99.5v885zM635 1714q0 -26 -9.5 -49.5t-25 -41.5t-35.5 -27.5t-42 -9.5
t-42.5 9.5t-35.5 27.5t-24 41.5t-9 49.5q0 28 9.5 52t24.5 42t35.5 28t43.5 10t43 -10t35 -28t23.5 -42t8.5 -52zM309 1714q0 -26 -9.5 -49.5t-25 -41.5t-35.5 -27.5t-42 -9.5t-42.5 9.5t-35.5 27.5t-24 41.5t-9 49.5q0 28 9.5 52t24.5 42t35.5 28t43.5 10t43 -10t35 -28
t23.5 -42t8.5 -52z" />
    <glyph glyph-name="Eth" unicode="&#xd0;" horiz-adv-x="1528" 
d="M39 772h217v432q0 42 1.5 79.5t5.5 68.5l-148 -9v91l483 2q186 0 339.5 -43t264 -132t171.5 -225t61 -321q0 -94 -22 -183.5t-66 -169t-109.5 -146t-152 -114.5t-194.5 -75t-236 -27h-539v68q49 1 77.5 15.5t42.5 39.5t17.5 59.5t3.5 76.5v409l-217 -2v106zM684 772v-98
l-249 -4v-428q0 -57 -1.5 -95.5t-5.5 -64.5q45 -2 84 -3t68 -1h68q132 0 240 49t184.5 135.5t118.5 204.5t42 256q0 145 -39.5 262.5t-120.5 201t-204.5 128.5t-292.5 45q-50 0 -78 -13t-42 -37.5t-17.5 -59t-3.5 -76.5v-402h249z" />
    <glyph glyph-name="Ntilde" unicode="&#xd1;" horiz-adv-x="1563" 
d="M1332 -33h-99l-889 1195h-3l7 -877q0 -53 -0.5 -103.5t-3.5 -99.5l148 8v-90h-375v68q47 0 74 16.5t40.5 40.5t17 52t3.5 52l2 1123l-137 -9v91h244l872 -1167h2l2 937q0 86 6 148l-147 -9v91h377v-68q-58 -2 -86.5 -21.5t-40 -52.5t-11 -78t0.5 -100zM619 1737
q-44 0 -78.5 -33t-72.5 -90l-70 39q18 45 44.5 83t57 66t64 44.5t66.5 17.5q40 0 72.5 -10.5t59.5 -26.5t50.5 -35t46.5 -35t46.5 -26.5t51.5 -10.5q27 0 51 11t44.5 29t38 42t32.5 51l66 -32q-22 -63 -50 -107t-60 -71t-66 -39.5t-68 -12.5q-40 0 -72.5 11t-60.5 27
t-52.5 35t-48 35t-46 27t-46.5 11z" />
    <glyph glyph-name="Ograve" unicode="&#xd2;" horiz-adv-x="1626" 
d="M295 754q0 -76 14 -157.5t42.5 -159.5t72 -148.5t103 -123t134 -83.5t166.5 -31q84 0 154 25.5t126 70t98 105t70 130t42.5 148.5t14.5 148q0 74 -16 164t-47 168.5t-76 147t-104 119t-131.5 79.5t-157.5 29q-126 0 -221 -56t-158 -146t-94.5 -202.5t-31.5 -226.5z
M94 717q0 86 19 175t58 172.5t98 156.5t138 128t179 86.5t221 31.5q125 0 227.5 -32t183.5 -86.5t140.5 -128t99 -157t59 -172.5t19.5 -174t-19.5 -173.5t-58 -172t-97.5 -157t-138.5 -128.5t-179 -87t-220.5 -32q-130 0 -234.5 31t-185.5 84.5t-139.5 126t-96 155.5
t-55.5 173.5t-18 179.5zM606 1739q-35 21 -49 42t-17 39t2 31.5t10 20.5q3 4 13.5 12.5t28 12t42 -2.5t54.5 -32l258 -246l-45 -60z" />
    <glyph glyph-name="Oacute" unicode="&#xd3;" horiz-adv-x="1626" 
d="M295 754q0 -76 14 -157.5t42.5 -159.5t72 -148.5t103 -123t134 -83.5t166.5 -31q84 0 154 25.5t126 70t98 105t70 130t42.5 148.5t14.5 148q0 74 -16 164t-47 168.5t-76 147t-104 119t-131.5 79.5t-157.5 29q-126 0 -221 -56t-158 -146t-94.5 -202.5t-31.5 -226.5z
M94 717q0 86 19 175t58 172.5t98 156.5t138 128t179 86.5t221 31.5q125 0 227.5 -32t183.5 -86.5t140.5 -128t99 -157t59 -172.5t19.5 -174t-19.5 -173.5t-58 -172t-97.5 -157t-138.5 -128.5t-179 -87t-220.5 -32q-130 0 -234.5 31t-185.5 84.5t-139.5 126t-96 155.5
t-55.5 173.5t-18 179.5zM687 1556l-45 60l258 246q30 26 54.5 32t42 2.5t28 -12t13.5 -12.5q5 -7 10 -20.5t2 -31.5t-17 -39t-49 -42z" />
    <glyph glyph-name="Ocircumflex" unicode="&#xd4;" horiz-adv-x="1626" 
d="M295 754q0 -76 14 -157.5t42.5 -159.5t72 -148.5t103 -123t134 -83.5t166.5 -31q84 0 154 25.5t126 70t98 105t70 130t42.5 148.5t14.5 148q0 74 -16 164t-47 168.5t-76 147t-104 119t-131.5 79.5t-157.5 29q-126 0 -221 -56t-158 -146t-94.5 -202.5t-31.5 -226.5z
M94 717q0 86 19 175t58 172.5t98 156.5t138 128t179 86.5t221 31.5q125 0 227.5 -32t183.5 -86.5t140.5 -128t99 -157t59 -172.5t19.5 -174t-19.5 -173.5t-58 -172t-97.5 -157t-138.5 -128.5t-179 -87t-220.5 -32q-130 0 -234.5 31t-185.5 84.5t-139.5 126t-96 155.5
t-55.5 173.5t-18 179.5zM829 1907h5l376 -289l-45 -70l-340 181h-4l-348 -179l-41 66z" />
    <glyph glyph-name="Otilde" unicode="&#xd5;" horiz-adv-x="1626" 
d="M295 754q0 -76 14 -157.5t42.5 -159.5t72 -148.5t103 -123t134 -83.5t166.5 -31q84 0 154 25.5t126 70t98 105t70 130t42.5 148.5t14.5 148q0 74 -16 164t-47 168.5t-76 147t-104 119t-131.5 79.5t-157.5 29q-126 0 -221 -56t-158 -146t-94.5 -202.5t-31.5 -226.5z
M94 717q0 86 19 175t58 172.5t98 156.5t138 128t179 86.5t221 31.5q125 0 227.5 -32t183.5 -86.5t140.5 -128t99 -157t59 -172.5t19.5 -174t-19.5 -173.5t-58 -172t-97.5 -157t-138.5 -128.5t-179 -87t-220.5 -32q-130 0 -234.5 31t-185.5 84.5t-139.5 126t-96 155.5
t-55.5 173.5t-18 179.5zM653 1737q-44 0 -78.5 -33t-72.5 -90l-70 39q18 45 44.5 83t57 66t64 44.5t66.5 17.5q40 0 72.5 -10.5t59.5 -26.5t50.5 -35t46.5 -35t46.5 -26.5t51.5 -10.5q27 0 51 11t44.5 29t38 42t32.5 51l66 -32q-22 -63 -50 -107t-60 -71t-66 -39.5
t-68 -12.5q-40 0 -72.5 11t-60.5 27t-52.5 35t-48 35t-46 27t-46.5 11z" />
    <glyph glyph-name="Odieresis" unicode="&#xd6;" horiz-adv-x="1626" 
d="M295 754q0 -76 14 -157.5t42.5 -159.5t72 -148.5t103 -123t134 -83.5t166.5 -31q84 0 154 25.5t126 70t98 105t70 130t42.5 148.5t14.5 148q0 74 -16 164t-47 168.5t-76 147t-104 119t-131.5 79.5t-157.5 29q-126 0 -221 -56t-158 -146t-94.5 -202.5t-31.5 -226.5z
M94 717q0 86 19 175t58 172.5t98 156.5t138 128t179 86.5t221 31.5q125 0 227.5 -32t183.5 -86.5t140.5 -128t99 -157t59 -172.5t19.5 -174t-19.5 -173.5t-58 -172t-97.5 -157t-138.5 -128.5t-179 -87t-220.5 -32q-130 0 -234.5 31t-185.5 84.5t-139.5 126t-96 155.5
t-55.5 173.5t-18 179.5zM1108 1718q0 -27 -9 -50.5t-24.5 -41t-36 -27.5t-42.5 -10q-23 0 -43 10t-35 27.5t-24 41t-9 50.5t9 51t25 42t36 28.5t43 10.5t43 -10.5t35 -28.5t23.5 -42t8.5 -51zM740 1718q0 -27 -9 -50.5t-24.5 -41t-36 -27.5t-42.5 -10q-23 0 -43 10t-35 27.5
t-24 41t-9 50.5t9 51t25 42t36 28.5t43 10.5t43 -10.5t35 -28.5t23.5 -42t8.5 -51z" />
    <glyph glyph-name="multiply" unicode="&#xd7;" horiz-adv-x="1130" 
d="M111 279l363 356l-359 356l95 92l357 -356l374 367l82 -88l-369 -365l369 -367l-92 -92l-370 367l-362 -359z" />
    <glyph glyph-name="Oslash" unicode="&#xd8;" horiz-adv-x="1626" 
d="M92 717q0 86 19 175t58 172.5t98 156.5t138 128t179 86.5t221 31.5q125 0 227 -32q67 -21 125 -52l94 163l111 -69l-97 -165q50 -41 91 -92q60 -73 99.5 -156.5t59 -172.5t19.5 -174t-19.5 -173.5t-58 -172t-97.5 -157t-138.5 -128.5t-179 -87t-220.5 -32q-130 0 -235 31
q-41 12 -79 28l-112 -190l-98 62l106 183q-1 1 -2 1q-81 54 -139.5 126.5t-96 156t-55.5 173.5t-18 179zM293 754q0 -76 14 -157.5t42.5 -159.5t71.5 -149q26 -42 57 -77l614 1060l-8 7q-59 50 -131 78.5t-155 28.5q-126 0 -221 -56t-158 -146t-94.5 -202.5t-31.5 -226.5z
M1189 1161q-4 5 -7 10l-614 -1041q42 -28 90 -48q75 -31 167 -31q84 0 154 25.5t126 70t98 105t70.5 130t42.5 145.5t14 151q0 86 -16.5 172t-47.5 164.5t-77 146.5z" />
    <glyph glyph-name="Ugrave" unicode="&#xd9;" horiz-adv-x="1540" 
d="M1332 639q-1 -134 -29.5 -255.5t-93 -214t-169.5 -147.5t-259 -55q-164 0 -275 43t-178.5 132.5t-96.5 227.5t-29 328v416q0 27 0.5 60t2 66t2.5 62.5t3 49.5l-147 -6v88h460v-68q-52 0 -80.5 -17.5t-42 -42.5t-16 -53t-2.5 -49v-516q0 -76 6 -150.5t22.5 -141.5t46 -124
t76.5 -99t114 -65.5t159 -23.5q111 0 190.5 40t131 112.5t76 172.5t26.5 220l8 575q0 86 6 148l-147 -9v91h381v-68q-58 -2 -87.5 -21.5t-41.5 -52.5t-12.5 -78t-0.5 -100zM574 1739q-35 21 -49 42t-17 39t2 31.5t10 20.5q3 4 13.5 12.5t28 12t42 -2.5t54.5 -32l258 -246
l-45 -60z" />
    <glyph glyph-name="Uacute" unicode="&#xda;" horiz-adv-x="1540" 
d="M1332 639q-1 -134 -29.5 -255.5t-93 -214t-169.5 -147.5t-259 -55q-164 0 -275 43t-178.5 132.5t-96.5 227.5t-29 328v416q0 27 0.5 60t2 66t2.5 62.5t3 49.5l-147 -6v88h460v-68q-52 0 -80.5 -17.5t-42 -42.5t-16 -53t-2.5 -49v-516q0 -76 6 -150.5t22.5 -141.5t46 -124
t76.5 -99t114 -65.5t159 -23.5q111 0 190.5 40t131 112.5t76 172.5t26.5 220l8 575q0 86 6 148l-147 -9v91h381v-68q-58 -2 -87.5 -21.5t-41.5 -52.5t-12.5 -78t-0.5 -100zM747 1556l-45 60l258 246q30 26 54.5 32t42 2.5t28 -12t13.5 -12.5q5 -7 10 -20.5t2 -31.5t-17 -39
t-49 -42z" />
    <glyph glyph-name="Ucircumflex" unicode="&#xdb;" horiz-adv-x="1540" 
d="M1332 639q-1 -134 -29.5 -255.5t-93 -214t-169.5 -147.5t-259 -55q-164 0 -275 43t-178.5 132.5t-96.5 227.5t-29 328v416q0 27 0.5 60t2 66t2.5 62.5t3 49.5l-147 -6v88h460v-68q-52 0 -80.5 -17.5t-42 -42.5t-16 -53t-2.5 -49v-516q0 -76 6 -150.5t22.5 -141.5t46 -124
t76.5 -99t114 -65.5t159 -23.5q111 0 190.5 40t131 112.5t76 172.5t26.5 220l8 575q0 86 6 148l-147 -9v91h381v-68q-58 -2 -87.5 -21.5t-41.5 -52.5t-12.5 -78t-0.5 -100zM807 1907h5l376 -289l-45 -70l-340 181h-4l-348 -179l-41 66z" />
    <glyph glyph-name="Udieresis" unicode="&#xdc;" horiz-adv-x="1540" 
d="M1332 639q-1 -134 -29.5 -255.5t-93 -214t-169.5 -147.5t-259 -55q-164 0 -275 43t-178.5 132.5t-96.5 227.5t-29 328v416q0 27 0.5 60t2 66t2.5 62.5t3 49.5l-147 -6v88h460v-68q-52 0 -80.5 -17.5t-42 -42.5t-16 -53t-2.5 -49v-516q0 -76 6 -150.5t22.5 -141.5t46 -124
t76.5 -99t114 -65.5t159 -23.5q111 0 190.5 40t131 112.5t76 172.5t26.5 220l8 575q0 86 6 148l-147 -9v91h381v-68q-58 -2 -87.5 -21.5t-41.5 -52.5t-12.5 -78t-0.5 -100zM1103 1718q0 -27 -9 -50.5t-24.5 -41t-36 -27.5t-42.5 -10q-23 0 -43 10t-35 27.5t-24 41t-9 50.5
t9 51t25 42t36 28.5t43 10.5t43 -10.5t35 -28.5t23.5 -42t8.5 -51zM735 1718q0 -27 -9 -50.5t-24.5 -41t-36 -27.5t-42.5 -10q-23 0 -43 10t-35 27.5t-24 41t-9 50.5t9 51t25 42t36 28.5t43 10.5t43 -10.5t35 -28.5t23.5 -42t8.5 -51z" />
    <glyph glyph-name="Yacute" unicode="&#xdd;" horiz-adv-x="1298" 
d="M581 553l-355 563q-53 82 -78 137.5t-33 94.5l-127 -5v91h528v-68q-71 0 -108 -16.5t-47.5 -46t3 -70.5t44.5 -90q38 -61 72 -115.5t68 -107.5t70.5 -108t80.5 -116h4q229 436 273 516t58 101t29 37l-162 -7v91h418v-68q-51 -3 -91 -20t-75 -49.5t-67.5 -81
t-326.5 -601.5q-1 -99 -1.5 -234.5t0.5 -135.5q0 -110 -6 -162l170 8v-90h-481v68q57 2 86 22t41 53.5t12 78.5v97zM656 1556l-45 60l258 246q30 26 54.5 32t42 2.5t28 -12t13.5 -12.5q5 -7 10 -20.5t2 -31.5t-17 -39t-49 -42z" />
    <glyph glyph-name="Thorn" unicode="&#xde;" horiz-adv-x="1221" 
d="M254 1204q0 42 1.5 79.5t5.5 68.5l-148 -9v91h461v-68q-50 -2 -78 -16t-42 -39.5t-18 -60.5q-3 -30 -3 -66l110 2q303 0 464.5 -100t161.5 -309q0 -54 -13.5 -108t-45.5 -104t-85 -92.5t-130 -74.5t-175 -50t-259 -18h-28v-86q0 -57 -1.5 -96.5t-5.5 -65.5l148 8v-90
h-461v68q49 1 77.5 15.5t42.5 39.5t17.5 59.5t3.5 76.5v945zM487 1107q-27 -1 -54 -3v-690q22 -3 40 -4q22 -2 45 -2q115 0 200 25.5t140.5 73t83 115t27.5 150.5q0 165 -103 250.5t-311 85.5q-38 0 -68 -1z" />
    <glyph glyph-name="germandbls" unicode="&#xdf;" horiz-adv-x="1395" 
d="M398 217q0 -41 -1 -72.5t-8 -66.5l129 6v-84h-417v61q46 0 71 18.5t35.5 51.5t12 79t1.5 101l-2 625l-168 -4v92h168v2q0 114 31 211t93 168t154.5 111t214.5 40q38 0 88 -7t103 -26t103.5 -52.5t90.5 -87.5t64.5 -131t24.5 -182q0 -20 -1 -40.5t-5 -50.5q-25 2 -56 3.5
t-65 1.5q-46 0 -92 -6t-83.5 -23t-61 -48t-23.5 -82q0 -46 23 -81.5t61 -64.5t86.5 -54.5t99 -51t99 -54.5t86.5 -64.5t61 -80.5t23 -104q0 -78 -25.5 -135t-71 -94.5t-109.5 -55.5t-142 -18q-23 0 -52.5 4t-61.5 12t-63.5 20.5t-58.5 29.5l6 -49h-98v352h63q4 -64 23 -117
t52 -91.5t79.5 -59.5t106.5 -21q34 0 66.5 10.5t58 31.5t40.5 52t15 72q0 45 -22.5 79t-60 61.5t-85 50.5t-97 47t-97 52t-85 64t-60 83t-22.5 110q0 67 23.5 122t68.5 94t111.5 60t153.5 21h15v22q0 94 -15.5 159t-40.5 108.5t-57.5 68t-66 36.5t-59.5 15t-65 3
q-82 0 -147 -39.5t-99.5 -106.5t-48.5 -164.5t-14 -220.5z" />
    <glyph glyph-name="agrave" unicode="&#xe0;" horiz-adv-x="1057" 
d="M694 501q-47 -2 -97.5 -8.5t-99 -20t-91.5 -34.5t-75 -50t-50 -67t-16 -86q1 -38 14.5 -66.5t35 -47t49.5 -28t60 -9.5q41 0 77 8t68.5 23.5t63 37.5t61.5 51v297zM132 811q0 51 30 96t84 78.5t128.5 52.5t162.5 19q172 0 253.5 -91t80.5 -289l-2 -460q0 -32 -1.5 -64.5
t-6.5 -74.5l145 8v-86h-293q-6 35 -9 61t-5 55q-69 -69 -150.5 -109t-172.5 -40q-77 0 -134.5 18.5t-95.5 51.5t-57 77.5t-19 95.5q0 63 27.5 115t74 92.5t108.5 70t131.5 48.5t142 27.5t141.5 7.5v128q0 53 -6 103t-26.5 91t-64 65t-100.5 24q-33 0 -63 -5.5t-59 -18.5
t-52.5 -34t-38.5 -50q15 -17 20.5 -37.5t5.5 -39.5q0 -12 -5 -27.5t-15.5 -29t-27 -22t-44.5 -8.5q-40 0 -63.5 29.5t-23.5 71.5zM328 1405q-26 27 -35 50q-3 7 -6 17t-3 21q0 13 3.5 24t13.5 24t25.5 19.5t32 6.5t39 -11.5t45.5 -44.5l172 -276l-57 -47z" />
    <glyph glyph-name="aacute" unicode="&#xe1;" horiz-adv-x="1057" 
d="M694 501q-47 -2 -97.5 -8.5t-99 -20t-91.5 -34.5t-75 -50t-50 -67t-16 -86q1 -38 14.5 -66.5t35 -47t49.5 -28t60 -9.5q41 0 77 8t68.5 23.5t63 37.5t61.5 51v297zM132 811q0 51 30 96t84 78.5t128.5 52.5t162.5 19q172 0 253.5 -91t80.5 -289l-2 -460q0 -32 -1.5 -64.5
t-6.5 -74.5l145 8v-86h-293q-6 35 -9 61t-5 55q-69 -69 -150.5 -109t-172.5 -40q-77 0 -134.5 18.5t-95.5 51.5t-57 77.5t-19 95.5q0 63 27.5 115t74 92.5t108.5 70t131.5 48.5t142 27.5t141.5 7.5v128q0 53 -6 103t-26.5 91t-64 65t-100.5 24q-33 0 -63 -5.5t-59 -18.5
t-52.5 -34t-38.5 -50q15 -17 20.5 -37.5t5.5 -39.5q0 -12 -5 -27.5t-15.5 -29t-27 -22t-44.5 -8.5q-40 0 -63.5 29.5t-23.5 71.5zM453 1188l-57 47l172 276q23 33 45.5 44.5t39 11.5t32 -6.5t25.5 -19.5t13.5 -24t3.5 -24q0 -11 -3 -21t-6 -17q-9 -23 -35 -50z" />
    <glyph glyph-name="acircumflex" unicode="&#xe2;" horiz-adv-x="1057" 
d="M694 501q-47 -2 -97.5 -8.5t-99 -20t-91.5 -34.5t-75 -50t-50 -67t-16 -86q1 -38 14.5 -66.5t35 -47t49.5 -28t60 -9.5q41 0 77 8t68.5 23.5t63 37.5t61.5 51v297zM132 811q0 51 30 96t84 78.5t128.5 52.5t162.5 19q172 0 253.5 -91t80.5 -289l-2 -460q0 -32 -1.5 -64.5
t-6.5 -74.5l145 8v-86h-293q-6 35 -9 61t-5 55q-69 -69 -150.5 -109t-172.5 -40q-77 0 -134.5 18.5t-95.5 51.5t-57 77.5t-19 95.5q0 63 27.5 115t74 92.5t108.5 70t131.5 48.5t142 27.5t141.5 7.5v128q0 53 -6 103t-26.5 91t-64 65t-100.5 24q-33 0 -63 -5.5t-59 -18.5
t-52.5 -34t-38.5 -50q15 -17 20.5 -37.5t5.5 -39.5q0 -12 -5 -27.5t-15.5 -29t-27 -22t-44.5 -8.5q-40 0 -63.5 29.5t-23.5 71.5zM513 1593h4l305 -333l-55 -66l-260 223h-4l-265 -209l-51 60z" />
    <glyph glyph-name="atilde" unicode="&#xe3;" horiz-adv-x="1057" 
d="M694 501q-47 -2 -97.5 -8.5t-99 -20t-91.5 -34.5t-75 -50t-50 -67t-16 -86q1 -38 14.5 -66.5t35 -47t49.5 -28t60 -9.5q41 0 77 8t68.5 23.5t63 37.5t61.5 51v297zM132 811q0 51 30 96t84 78.5t128.5 52.5t162.5 19q172 0 253.5 -91t80.5 -289l-2 -460q0 -32 -1.5 -64.5
t-6.5 -74.5l145 8v-86h-293q-6 35 -9 61t-5 55q-69 -69 -150.5 -109t-172.5 -40q-77 0 -134.5 18.5t-95.5 51.5t-57 77.5t-19 95.5q0 63 27.5 115t74 92.5t108.5 70t131.5 48.5t142 27.5t141.5 7.5v128q0 53 -6 103t-26.5 91t-64 65t-100.5 24q-33 0 -63 -5.5t-59 -18.5
t-52.5 -34t-38.5 -50q15 -17 20.5 -37.5t5.5 -39.5q0 -12 -5 -27.5t-15.5 -29t-27 -22t-44.5 -8.5q-40 0 -63.5 29.5t-23.5 71.5zM363 1364q-38 0 -79.5 -20.5t-70.5 -65.5l-61 35q13 36 36.5 67.5t52.5 55.5t60 38t60 15q48 0 84 -17t66 -37.5t58 -37.5t62 -17q45 0 85 27
t64 72l60 -31q-17 -51 -41.5 -87.5t-53 -60.5t-58 -35.5t-56.5 -11.5q-48 0 -85 17.5t-68.5 38t-59 38t-55.5 17.5z" />
    <glyph glyph-name="adieresis" unicode="&#xe4;" horiz-adv-x="1057" 
d="M694 501q-47 -2 -97.5 -8.5t-99 -20t-91.5 -34.5t-75 -50t-50 -67t-16 -86q1 -38 14.5 -66.5t35 -47t49.5 -28t60 -9.5q41 0 77 8t68.5 23.5t63 37.5t61.5 51v297zM132 811q0 51 30 96t84 78.5t128.5 52.5t162.5 19q172 0 253.5 -91t80.5 -289l-2 -460q0 -32 -1.5 -64.5
t-6.5 -74.5l145 8v-86h-293q-6 35 -9 61t-5 55q-69 -69 -150.5 -109t-172.5 -40q-77 0 -134.5 18.5t-95.5 51.5t-57 77.5t-19 95.5q0 63 27.5 115t74 92.5t108.5 70t131.5 48.5t142 27.5t141.5 7.5v128q0 53 -6 103t-26.5 91t-64 65t-100.5 24q-33 0 -63 -5.5t-59 -18.5
t-52.5 -34t-38.5 -50q15 -17 20.5 -37.5t5.5 -39.5q0 -12 -5 -27.5t-15.5 -29t-27 -22t-44.5 -8.5q-40 0 -63.5 29.5t-23.5 71.5zM430 1369q0 -25 -8.5 -47t-22.5 -38.5t-32.5 -26t-38.5 -9.5q-21 0 -39.5 9.5t-32.5 26t-22 38.5t-8 47t8.5 48t22.5 39.5t33 26.5t39 10
q22 0 40.5 -10t32 -26.5t21 -39.5t7.5 -48zM772 1369q0 -25 -8.5 -47t-22.5 -38.5t-32.5 -26t-38.5 -9.5q-21 0 -39.5 9.5t-32.5 26t-22 38.5t-8 47t8.5 48t22.5 39.5t33 26.5t39 10q22 0 40.5 -10t32 -26.5t21 -39.5t7.5 -48z" />
    <glyph glyph-name="aring" unicode="&#xe5;" horiz-adv-x="1057" 
d="M694 501q-47 -2 -97.5 -8.5t-99 -20t-91.5 -34.5t-75 -50t-50 -67t-16 -86q1 -38 14.5 -66.5t35 -47t49.5 -28t60 -9.5q41 0 77 8t68.5 23.5t63 37.5t61.5 51v297zM132 811q0 51 30 96t84 78.5t128.5 52.5t162.5 19q172 0 253.5 -91t80.5 -289l-2 -460q0 -32 -1.5 -64.5
t-6.5 -74.5l145 8v-86h-293q-6 35 -9 61t-5 55q-69 -69 -150.5 -109t-172.5 -40q-77 0 -134.5 18.5t-95.5 51.5t-57 77.5t-19 95.5q0 63 27.5 115t74 92.5t108.5 70t131.5 48.5t142 27.5t141.5 7.5v128q0 53 -6 103t-26.5 91t-64 65t-100.5 24q-33 0 -63 -5.5t-59 -18.5
t-52.5 -34t-38.5 -50q15 -17 20.5 -37.5t5.5 -39.5q0 -12 -5 -27.5t-15.5 -29t-27 -22t-44.5 -8.5q-40 0 -63.5 29.5t-23.5 71.5zM515 1495q-35 0 -63 -31.5t-28 -91.5q0 -29 6.5 -54.5t19 -45t30.5 -30.5t41 -11q38 0 63 32.5t25 88.5q0 66 -24.5 104.5t-69.5 38.5z
M515 1559q36 0 71.5 -11t64 -34t47.5 -60.5t19 -79.5q0 -52 -16.5 -88t-44.5 -63t-63.5 -41.5t-73.5 -14.5t-74.5 11.5t-65 35.5t-46 60.5t-17.5 87.5q0 44 17.5 80t45.5 62t63.5 40.5t72.5 14.5z" />
    <glyph glyph-name="ae" unicode="&#xe6;" horiz-adv-x="1591" 
d="M707 219q-3 21 -6 55.5t-6 73t-5.5 77t-3.5 68.5q-69 -3 -143 -17t-136 -43.5t-102 -77t-40 -116.5q0 -47 16 -77t41 -47.5t54.5 -24.5t55.5 -7q85 0 151.5 36t123.5 100zM1125 977q-60 0 -102.5 -24t-70.5 -65t-44 -95t-23 -115h426q0 54 -6.5 107.5t-26.5 96t-56.5 69
t-96.5 26.5zM136 804q0 46 26 91.5t75.5 81.5t119.5 58t159 22q103 0 174.5 -46.5t108.5 -130.5q57 78 140.5 127.5t193.5 49.5q78 0 144 -25t114.5 -79.5t76 -140.5t28.5 -208l-625 -12q-3 -39 -3 -74q0 -108 23 -191.5t64 -140t97 -85.5t122 -29q48 0 88.5 13t75 35.5
t64 54t55.5 67.5l51 -41q-42 -64 -87.5 -108.5t-94 -72.5t-99 -40.5t-102.5 -12.5q-121 0 -215 46t-151 148h-2q-39 -53 -84 -90t-94 -60t-102 -33.5t-108 -10.5q-70 0 -125.5 18t-94 49.5t-59 75.5t-20.5 95q0 64 27 115t73 91t107 68.5t130 47t141.5 27.5t140.5 9v125
q0 55 -5.5 107.5t-26.5 94t-61.5 67t-109.5 25.5q-34 0 -66 -8.5t-59 -24.5t-47.5 -38.5t-31.5 -50.5q14 -13 21 -34t7 -33t-5 -27t-15.5 -28.5t-27.5 -22.5t-41 -9q-38 0 -61.5 26.5t-23.5 71.5z" />
    <glyph glyph-name="ccedilla" unicode="&#xe7;" horiz-adv-x="1094" 
d="M662 -116q63 0 100 -36t37 -99q0 -41 -20 -74t-53 -58.5t-75.5 -44t-87 -31.5t-88 -21.5t-78.5 -13.5l-12 69q52 9 97 23.5t78 34t52 44t19 54.5q0 33 -19 47t-46 14q-23 0 -48 -8t-45 -22l-69 34l50 188q-30 8 -58 18q-92 36 -161 103.5t-109 165.5t-40 223
q0 71 17.5 140t50.5 131.5t80 116t106.5 92.5t130 61t149.5 22q85 0 155 -21t120 -56t77 -81t27 -95q0 -22 -6.5 -41.5t-18.5 -34.5t-29 -23.5t-41 -8.5q-27 0 -45 9t-29 23t-16 30t-5 30q0 20 6.5 42t24.5 41q-14 36 -41 57.5t-58.5 33.5t-62.5 15.5t-53 3.5
q-70 0 -130.5 -28.5t-104.5 -83.5t-69.5 -137t-25.5 -188q0 -102 25.5 -188.5t71.5 -149t111 -97.5t144 -35q48 0 95 13.5t89 37.5t77.5 56t60.5 69l53 -41q-41 -64 -93.5 -109.5t-110 -75t-116 -43.5t-110.5 -14q-15 0 -30 1l-40 -120q29 18 67 27t73 9z" />
    <glyph glyph-name="egrave" unicode="&#xe8;" horiz-adv-x="1110" 
d="M604 977q-120 0 -198 -70.5t-103 -228.5h522q0 54 -12 107.5t-38.5 96t-68.5 69t-102 26.5zM1018 604l-721 -12q-1 -118 18 -214t60 -164t105.5 -105t154.5 -37q48 0 98 13t96.5 35.5t85.5 54t65 67.5l50 -41q-42 -64 -97.5 -108.5t-115 -72.5t-119.5 -40.5t-112 -12.5
q-106 0 -197.5 38t-158.5 109t-105.5 171t-38.5 225q0 108 37 206.5t105 174.5t163 121t211 45q85 0 160.5 -28t132.5 -84t90 -141.5t33 -199.5zM371 1405q-26 27 -35 50q-3 7 -6 17t-3 21q0 13 3.5 24t13.5 24t25.5 19.5t32 6.5t39 -11.5t45.5 -44.5l172 -276l-57 -47z" />
    <glyph glyph-name="eacute" unicode="&#xe9;" horiz-adv-x="1110" 
d="M604 977q-120 0 -198 -70.5t-103 -228.5h522q0 54 -12 107.5t-38.5 96t-68.5 69t-102 26.5zM1018 604l-721 -12q-1 -118 18 -214t60 -164t105.5 -105t154.5 -37q48 0 98 13t96.5 35.5t85.5 54t65 67.5l50 -41q-42 -64 -97.5 -108.5t-115 -72.5t-119.5 -40.5t-112 -12.5
q-106 0 -197.5 38t-158.5 109t-105.5 171t-38.5 225q0 108 37 206.5t105 174.5t163 121t211 45q85 0 160.5 -28t132.5 -84t90 -141.5t33 -199.5zM540 1188l-57 47l172 276q23 33 45.5 44.5t39 11.5t32 -6.5t25.5 -19.5t13.5 -24t3.5 -24q0 -11 -3 -21t-6 -17q-9 -23 -35 -50
z" />
    <glyph glyph-name="ecircumflex" unicode="&#xea;" horiz-adv-x="1110" 
d="M604 977q-120 0 -198 -70.5t-103 -228.5h522q0 54 -12 107.5t-38.5 96t-68.5 69t-102 26.5zM1018 604l-721 -12q-1 -118 18 -214t60 -164t105.5 -105t154.5 -37q48 0 98 13t96.5 35.5t85.5 54t65 67.5l50 -41q-42 -64 -97.5 -108.5t-115 -72.5t-119.5 -40.5t-112 -12.5
q-106 0 -197.5 38t-158.5 109t-105.5 171t-38.5 225q0 108 37 206.5t105 174.5t163 121t211 45q85 0 160.5 -28t132.5 -84t90 -141.5t33 -199.5zM601 1593h4l305 -333l-55 -66l-260 223h-4l-265 -209l-51 60z" />
    <glyph glyph-name="edieresis" unicode="&#xeb;" horiz-adv-x="1110" 
d="M604 977q-120 0 -198 -70.5t-103 -228.5h522q0 54 -12 107.5t-38.5 96t-68.5 69t-102 26.5zM1018 604l-721 -12q-1 -118 18 -214t60 -164t105.5 -105t154.5 -37q48 0 98 13t96.5 35.5t85.5 54t65 67.5l50 -41q-42 -64 -97.5 -108.5t-115 -72.5t-119.5 -40.5t-112 -12.5
q-106 0 -197.5 38t-158.5 109t-105.5 171t-38.5 225q0 108 37 206.5t105 174.5t163 121t211 45q85 0 160.5 -28t132.5 -84t90 -141.5t33 -199.5zM512 1369q0 -25 -8.5 -47t-22.5 -38.5t-32.5 -26t-38.5 -9.5q-21 0 -39.5 9.5t-32.5 26t-22 38.5t-8 47t8.5 48t22.5 39.5
t33 26.5t39 10q22 0 40.5 -10t32 -26.5t21 -39.5t7.5 -48zM854 1369q0 -25 -8.5 -47t-22.5 -38.5t-32.5 -26t-38.5 -9.5q-21 0 -39.5 9.5t-32.5 26t-22 38.5t-8 47t8.5 48t22.5 39.5t33 26.5t39 10q22 0 40.5 -10t32 -26.5t21 -39.5t7.5 -48z" />
    <glyph glyph-name="igrave" unicode="&#xec;" horiz-adv-x="575" 
d="M210 778q0 32 1.5 62t6.5 71l-145 -8v86q67 0 111 4.5t72 12.5t43.5 17.5t27.5 20.5h59v-827q0 -41 -1 -72.5t-7 -66.5l129 6v-84h-418v61q46 0 71 18.5t36 51.5t12.5 79t1.5 101v467zM53 1405q-26 27 -35 50q-3 7 -6 17t-3 21q0 13 3.5 24t13.5 24t25.5 19.5t32 6.5
t39 -11.5t45.5 -44.5l172 -276l-57 -47z" />
    <glyph glyph-name="iacute" unicode="&#xed;" horiz-adv-x="578" 
d="M212 778q0 32 1.5 62t6.5 71l-145 -8v86q67 0 111 4.5t72 12.5t43.5 17.5t27.5 20.5h59v-827q0 -41 -1 -72.5t-7 -66.5l129 6v-84h-418v61q46 0 71 18.5t36 51.5t12.5 79t1.5 101v467zM263 1188l-57 47l172 276q23 33 45.5 44.5t39 11.5t32 -6.5t25.5 -19.5t13.5 -24
t3.5 -24q0 -11 -3 -21t-6 -17q-9 -23 -35 -50z" />
    <glyph glyph-name="icircumflex" unicode="&#xee;" horiz-adv-x="575" 
d="M295 1593h4l275 -333l-56 -66l-229 213h-4l-234 -199l-51 60zM212 778q0 32 1.5 62t6.5 71l-145 -8v86q67 0 111 4.5t72 12.5t43.5 17.5t27.5 20.5h59v-827q0 -41 -1 -72.5t-7 -66.5l129 6v-84h-418v61q46 0 71 18.5t36 51.5t12.5 79t1.5 101v467z" />
    <glyph glyph-name="idieresis" unicode="&#xef;" horiz-adv-x="575" 
d="M212 778q0 32 1.5 62t6.5 71l-145 -8v86q67 0 111 4.5t72 12.5t43.5 17.5t27.5 20.5h59v-827q0 -41 -1 -72.5t-7 -66.5l129 6v-84h-418v61q46 0 71 18.5t36 51.5t12.5 79t1.5 101v467zM243 1368q0 -25 -8.5 -47t-22.5 -38.5t-32.5 -25.5t-38.5 -9q-21 0 -39.5 9
t-32.5 25.5t-22 38.5t-8 47q0 26 8.5 48.5t22.5 39.5t33 26.5t39 9.5q22 0 40.5 -9.5t32 -26.5t21 -39.5t7.5 -48.5zM530 1368q0 -25 -8.5 -47t-22.5 -38.5t-32.5 -25.5t-38.5 -9q-21 0 -39.5 9t-32.5 25.5t-22 38.5t-8 47q0 26 8.5 48.5t22.5 39.5t33 26.5t39 9.5
q22 0 40.5 -9.5t32 -26.5t21 -39.5t7.5 -48.5z" />
    <glyph glyph-name="eth" unicode="&#xf0;" horiz-adv-x="1145" 
d="M299 1274l119 141q-48 21 -99 35.5t-108 19.5l9 86q73 -4 138.5 -20t126.5 -42l111 130l59 -55l-90 -114q110 -62 196 -156.5t145 -211.5t90.5 -253.5t31.5 -276.5q0 -122 -28.5 -229t-89.5 -187.5t-155 -127t-225 -46.5q-92 0 -172.5 33.5t-140.5 96.5t-94.5 153.5
t-34.5 204.5q0 109 31 210.5t89 179.5t141.5 124.5t189.5 46.5q37 0 78 -7t79.5 -22.5t72 -41.5t56.5 -64h4q-15 61 -43 128t-69 132.5t-95.5 124.5t-123.5 104l-125 -158zM846 469q0 48 -5.5 101t-18 104.5t-33.5 98t-52 82t-72.5 56.5t-95.5 21q-67 0 -118.5 -35
t-86.5 -95t-53 -138.5t-18 -165.5q0 -110 20.5 -193.5t56.5 -140.5t85.5 -86t107.5 -29q56 0 107 26.5t89.5 79t62.5 131t24 183.5z" />
    <glyph glyph-name="ntilde" unicode="&#xf1;" horiz-adv-x="1241" 
d="M213 778q0 32 1 65t7 68l-145 -8v86q67 0 109 4.5t67.5 12.5t39.5 17.5t26 20.5h59q2 -23 4.5 -52.5t4.5 -71.5q33 29 72.5 54t82.5 43.5t88.5 29t89.5 10.5q178 0 260 -111.5t82 -346.5v-382q0 -41 -1 -72.5t-7 -66.5l129 6v-84h-418v61q47 0 71.5 18.5t35.5 51.5
t12.5 79t1.5 101v286q-2 177 -58 266.5t-178 89.5q-37 0 -74 -11t-71 -28.5t-64 -41.5t-52 -52q1 -18 1 -38.5v-41.5l-2 -523q0 -41 -1 -72.5t-7 -66.5l129 6v-84h-418v61q47 0 71.5 18.5t35 51.5t12 79t2.5 101zM490 1364q-38 0 -79.5 -20.5t-70.5 -65.5l-61 35
q13 36 36.5 67.5t52.5 55.5t60 38t60 15q48 0 84 -17t66 -37.5t58 -37.5t62 -17q45 0 85 27t64 72l60 -31q-17 -51 -41.5 -87.5t-53 -60.5t-58 -35.5t-56.5 -11.5q-48 0 -85 17.5t-68.5 38t-59 38t-55.5 17.5z" />
    <glyph glyph-name="ograve" unicode="&#xf2;" horiz-adv-x="1198" 
d="M598 979q-81 0 -138.5 -36t-94.5 -96t-54.5 -138t-17.5 -162q0 -95 19.5 -185t59.5 -159.5t100.5 -111.5t141.5 -42t136.5 36.5t90 96.5t49.5 137t15 158q0 92 -17 182t-54 161t-95.5 115t-140.5 44zM598 1057q108 0 202 -39.5t163.5 -109t110 -165t40.5 -206.5
q0 -119 -39.5 -223t-109 -181t-164 -121.5t-203.5 -44.5q-108 0 -201.5 38.5t-163 107.5t-109.5 164.5t-40 209.5q0 121 39.5 225.5t108.5 181t163 120t203 43.5zM409 1405q-26 27 -35 50q-3 7 -6 17t-3 21q0 13 3.5 24t13.5 24t25.5 19.5t32 6.5t39 -11.5t45.5 -44.5
l172 -276l-57 -47z" />
    <glyph glyph-name="oacute" unicode="&#xf3;" horiz-adv-x="1198" 
d="M598 979q-81 0 -138.5 -36t-94.5 -96t-54.5 -138t-17.5 -162q0 -95 19.5 -185t59.5 -159.5t100.5 -111.5t141.5 -42t136.5 36.5t90 96.5t49.5 137t15 158q0 92 -17 182t-54 161t-95.5 115t-140.5 44zM598 1057q108 0 202 -39.5t163.5 -109t110 -165t40.5 -206.5
q0 -119 -39.5 -223t-109 -181t-164 -121.5t-203.5 -44.5q-108 0 -201.5 38.5t-163 107.5t-109.5 164.5t-40 209.5q0 121 39.5 225.5t108.5 181t163 120t203 43.5zM540 1188l-57 47l172 276q23 33 45.5 44.5t39 11.5t32 -6.5t25.5 -19.5t13.5 -24t3.5 -24q0 -11 -3 -21
t-6 -17q-9 -23 -35 -50z" />
    <glyph glyph-name="ocircumflex" unicode="&#xf4;" horiz-adv-x="1198" 
d="M598 979q-81 0 -138.5 -36t-94.5 -96t-54.5 -138t-17.5 -162q0 -95 19.5 -185t59.5 -159.5t100.5 -111.5t141.5 -42t136.5 36.5t90 96.5t49.5 137t15 158q0 92 -17 182t-54 161t-95.5 115t-140.5 44zM598 1057q108 0 202 -39.5t163.5 -109t110 -165t40.5 -206.5
q0 -119 -39.5 -223t-109 -181t-164 -121.5t-203.5 -44.5q-108 0 -201.5 38.5t-163 107.5t-109.5 164.5t-40 209.5q0 121 39.5 225.5t108.5 181t163 120t203 43.5zM606 1593h4l305 -333l-55 -66l-260 223h-4l-265 -209l-51 60z" />
    <glyph glyph-name="otilde" unicode="&#xf5;" horiz-adv-x="1198" 
d="M598 979q-81 0 -138.5 -36t-94.5 -96t-54.5 -138t-17.5 -162q0 -95 19.5 -185t59.5 -159.5t100.5 -111.5t141.5 -42t136.5 36.5t90 96.5t49.5 137t15 158q0 92 -17 182t-54 161t-95.5 115t-140.5 44zM598 1057q108 0 202 -39.5t163.5 -109t110 -165t40.5 -206.5
q0 -119 -39.5 -223t-109 -181t-164 -121.5t-203.5 -44.5q-108 0 -201.5 38.5t-163 107.5t-109.5 164.5t-40 209.5q0 121 39.5 225.5t108.5 181t163 120t203 43.5zM465 1364q-38 0 -79.5 -20.5t-70.5 -65.5l-61 35q13 36 36.5 67.5t52.5 55.5t60 38t60 15q48 0 84 -17
t66 -37.5t58 -37.5t62 -17q45 0 85 27t64 72l60 -31q-17 -51 -41.5 -87.5t-53 -60.5t-58 -35.5t-56.5 -11.5q-48 0 -85 17.5t-68.5 38t-59 38t-55.5 17.5z" />
    <glyph glyph-name="odieresis" unicode="&#xf6;" horiz-adv-x="1198" 
d="M598 979q-81 0 -138.5 -36t-94.5 -96t-54.5 -138t-17.5 -162q0 -95 19.5 -185t59.5 -159.5t100.5 -111.5t141.5 -42t136.5 36.5t90 96.5t49.5 137t15 158q0 92 -17 182t-54 161t-95.5 115t-140.5 44zM598 1057q108 0 202 -39.5t163.5 -109t110 -165t40.5 -206.5
q0 -119 -39.5 -223t-109 -181t-164 -121.5t-203.5 -44.5q-108 0 -201.5 38.5t-163 107.5t-109.5 164.5t-40 209.5q0 121 39.5 225.5t108.5 181t163 120t203 43.5zM523 1369q0 -25 -8.5 -47t-22.5 -38.5t-32.5 -26t-38.5 -9.5q-21 0 -39.5 9.5t-32.5 26t-22 38.5t-8 47
t8.5 48t22.5 39.5t33 26.5t39 10q22 0 40.5 -10t32 -26.5t21 -39.5t7.5 -48zM865 1369q0 -25 -8.5 -47t-22.5 -38.5t-32.5 -26t-38.5 -9.5q-21 0 -39.5 9.5t-32.5 26t-22 38.5t-8 47t8.5 48t22.5 39.5t33 26.5t39 10q22 0 40.5 -10t32 -26.5t21 -39.5t7.5 -48z" />
    <glyph glyph-name="divide" unicode="&#xf7;" horiz-adv-x="541" 
d="M391 221q0 -27 -10 -51t-26.5 -42t-38 -28t-45.5 -10t-45.5 10t-38 28t-26 42t-9.5 51q0 28 10 52.5t26.5 42.5t38.5 28.5t46 10.5q25 0 46.5 -10.5t37.5 -28.5t25 -42.5t9 -52.5zM391 923q0 -27 -10 -51t-26.5 -42t-38 -28t-45.5 -10t-45.5 10t-38 28t-26 42t-9.5 51
q0 28 10 52.5t26.5 42.5t38.5 28.5t46 10.5q25 0 46.5 -10.5t37.5 -28.5t25 -42.5t9 -52.5z" />
    <glyph glyph-name="oslash" unicode="&#xf8;" horiz-adv-x="1198" 
d="M598 1057q137 0 252 -64l104 164l97 -63l-108 -167l20 -19q70 -69 110.5 -164t40.5 -207q0 -119 -39.5 -223t-109 -181t-164 -121.5t-203.5 -44.5q-66 0 -127 14t-115 43l-116 -178l-76 56l110 175q-88 69 -139 174t-51 236q0 121 39.5 225.5t108.5 181t163 120t203 43.5
zM598 979q-81 0 -138.5 -36t-94.5 -96t-54.5 -138t-17.5 -162q0 -89 17.5 -174.5t52.5 -154.5l423 672q-38 43 -83 66t-105 23zM614 49q81 0 136.5 36.5t90 96.5t49.5 137t15 158q0 46 -4.5 91.5t-12.5 90.5q-7 34 -16 65.5t-22 60.5l-425 -655q40 -40 86 -60.5t103 -20.5z
" />
    <glyph glyph-name="ugrave" unicode="&#xf9;" horiz-adv-x="1223" 
d="M850 755q0 50 2 85.5t8 70.5l-147 -6v84h63q44 0 75 4.5t53 12.5t36.5 17.5t26.5 20.5h59l-2 -774q0 -16 -0.5 -40.5t-1.5 -51t-2.5 -53t-3.5 -47.5l147 8v-86h-293q-5 35 -8.5 64.5t-5.5 58.5q-32 -32 -71 -60.5t-82.5 -49.5t-89.5 -33.5t-91 -12.5q-84 0 -147 22.5
t-105 74.5t-63 137.5t-21 212.5v364q0 32 1 65t7 68l-141 -6v84h64q43 0 74 4.5t53 12.5t36.5 17.5t26.5 20.5h59v-624q0 -89 12 -154.5t38.5 -109t68.5 -64t103 -20.5q39 0 76.5 13t71.5 35t63.5 50t50.5 60v85v440zM417 1405q-26 27 -35 50q-3 7 -6 17t-3 21q0 13 3.5 24
t13.5 24t25.5 19.5t32 6.5t39 -11.5t45.5 -44.5l172 -276l-57 -47z" />
    <glyph glyph-name="uacute" unicode="&#xfa;" horiz-adv-x="1223" 
d="M850 755q0 50 2 85.5t8 70.5l-147 -6v84h63q44 0 75 4.5t53 12.5t36.5 17.5t26.5 20.5h59l-2 -774q0 -16 -0.5 -40.5t-1.5 -51t-2.5 -53t-3.5 -47.5l147 8v-86h-293q-5 35 -8.5 64.5t-5.5 58.5q-32 -32 -71 -60.5t-82.5 -49.5t-89.5 -33.5t-91 -12.5q-84 0 -147 22.5
t-105 74.5t-63 137.5t-21 212.5v364q0 32 1 65t7 68l-141 -6v84h64q43 0 74 4.5t53 12.5t36.5 17.5t26.5 20.5h59v-624q0 -89 12 -154.5t38.5 -109t68.5 -64t103 -20.5q39 0 76.5 13t71.5 35t63.5 50t50.5 60v85v440zM582 1188l-57 47l172 276q23 33 45.5 44.5t39 11.5
t32 -6.5t25.5 -19.5t13.5 -24t3.5 -24q0 -11 -3 -21t-6 -17q-9 -23 -35 -50z" />
    <glyph glyph-name="ucircumflex" unicode="&#xfb;" horiz-adv-x="1223" 
d="M850 755q0 50 2 85.5t8 70.5l-147 -6v84h63q44 0 75 4.5t53 12.5t36.5 17.5t26.5 20.5h59l-2 -774q0 -16 -0.5 -40.5t-1.5 -51t-2.5 -53t-3.5 -47.5l147 8v-86h-293q-5 35 -8.5 64.5t-5.5 58.5q-32 -32 -71 -60.5t-82.5 -49.5t-89.5 -33.5t-91 -12.5q-84 0 -147 22.5
t-105 74.5t-63 137.5t-21 212.5v364q0 32 1 65t7 68l-141 -6v84h64q43 0 74 4.5t53 12.5t36.5 17.5t26.5 20.5h59v-624q0 -89 12 -154.5t38.5 -109t68.5 -64t103 -20.5q39 0 76.5 13t71.5 35t63.5 50t50.5 60v85v440zM622 1593h4l305 -333l-55 -66l-260 223h-4l-265 -209
l-51 60z" />
    <glyph glyph-name="udieresis" unicode="&#xfc;" horiz-adv-x="1223" 
d="M850 755q0 50 2 85.5t8 70.5l-147 -6v84h63q44 0 75 4.5t53 12.5t36.5 17.5t26.5 20.5h59l-2 -774q0 -16 -0.5 -40.5t-1.5 -51t-2.5 -53t-3.5 -47.5l147 8v-86h-293q-5 35 -8.5 64.5t-5.5 58.5q-32 -32 -71 -60.5t-82.5 -49.5t-89.5 -33.5t-91 -12.5q-84 0 -147 22.5
t-105 74.5t-63 137.5t-21 212.5v364q0 32 1 65t7 68l-141 -6v84h64q43 0 74 4.5t53 12.5t36.5 17.5t26.5 20.5h59v-624q0 -89 12 -154.5t38.5 -109t68.5 -64t103 -20.5q39 0 76.5 13t71.5 35t63.5 50t50.5 60v85v440zM556 1369q0 -25 -8.5 -47t-22.5 -38.5t-32.5 -26
t-38.5 -9.5q-21 0 -39.5 9.5t-32.5 26t-22 38.5t-8 47t8.5 48t22.5 39.5t33 26.5t39 10q22 0 40.5 -10t32 -26.5t21 -39.5t7.5 -48zM898 1369q0 -25 -8.5 -47t-22.5 -38.5t-32.5 -26t-38.5 -9.5q-21 0 -39.5 9.5t-32.5 26t-22 38.5t-8 47t8.5 48t22.5 39.5t33 26.5t39 10
q22 0 40.5 -10t32 -26.5t21 -39.5t7.5 -48z" />
    <glyph glyph-name="yacute" unicode="&#xfd;" horiz-adv-x="1081" 
d="M264 -448q11 -5 23 -5q18 0 46.5 15.5t57.5 65.5q26 45 62.5 134.5t81.5 214.5q-347 743 -366 788t-31.5 79t-20 59t-10.5 42l-99 -5v84h424v-61l-9 -1q-43 -3 -65.5 -19t-27.5 -45.5t6 -77t281 -613.5q213 621 226.5 653t26 56t23.5 32l-141 -8v84h321v-61
q-38 -15 -65.5 -38.5t-48.5 -57t-39 -76.5t-293 -809q-47 -129 -86 -229.5t-81.5 -168.5t-93 -103.5t-118.5 -35.5q-32 0 -60 7.5t-49 23t-33 39t-12 54.5q0 19 6 37t17.5 32t28 22.5t36.5 8.5q24 0 40.5 -9t26.5 -23t14 -29.5t4 -27.5q0 -6 -0.5 -13.5t-2.5 -14.5z
M585 1188l-57 47l172 276q23 33 45.5 44.5t39 11.5t32 -6.5t25.5 -19.5t13.5 -24t3.5 -24q0 -11 -3 -21t-6 -17q-9 -23 -35 -50z" />
    <glyph glyph-name="thorn" unicode="&#xfe;" horiz-adv-x="1182" 
d="M155 1280q0 32 1 65t7 68l-145 -8v86q67 0 110.5 4.5t71 12.5t43 17.5t27.5 20.5h59l-1 -599q63 51 143 80.5t165 29.5q93 0 176 -36t145.5 -103t99 -162.5t36.5 -214.5q0 -131 -41.5 -237t-112.5 -181t-166 -115.5t-202 -40.5q-72 0 -132.5 15.5t-111.5 48.5v-336
q0 -41 -1 -72.5t-7 -66.5l129 6v-84h-418v61q47 0 71.5 18.5t35 51.5t12 79t2.5 101zM567 957q-72 0 -133 -28.5t-106 -76.5l-1 -725q103 -78 240 -78q73 0 131 34t99 95t63 145.5t22 186.5q0 82 -18 162.5t-56 143.5t-97.5 102t-143.5 39z" />
    <glyph glyph-name="ydieresis" unicode="&#xff;" horiz-adv-x="1081" 
d="M264 -448q11 -5 23 -5q18 0 46.5 15.5t57.5 65.5q26 45 62.5 134.5t81.5 214.5q-347 743 -366 788t-31.5 79t-20 59t-10.5 42l-99 -5v84h424v-61l-9 -1q-43 -3 -65.5 -19t-27.5 -45.5t6 -77t281 -613.5q213 621 226.5 653t26 56t23.5 32l-141 -8v84h321v-61
q-38 -15 -65.5 -38.5t-48.5 -57t-39 -76.5t-293 -809q-47 -129 -86 -229.5t-81.5 -168.5t-93 -103.5t-118.5 -35.5q-32 0 -60 7.5t-49 23t-33 39t-12 54.5q0 19 6 37t17.5 32t28 22.5t36.5 8.5q24 0 40.5 -9t26.5 -23t14 -29.5t4 -27.5q0 -6 -0.5 -13.5t-2.5 -14.5z
M524 1369q0 -25 -8.5 -47t-22.5 -38.5t-32.5 -26t-38.5 -9.5q-21 0 -39.5 9.5t-32.5 26t-22 38.5t-8 47t8.5 48t22.5 39.5t33 26.5t39 10q22 0 40.5 -10t32 -26.5t21 -39.5t7.5 -48zM866 1369q0 -25 -8.5 -47t-22.5 -38.5t-32.5 -26t-38.5 -9.5q-21 0 -39.5 9.5t-32.5 26
t-22 38.5t-8 47t8.5 48t22.5 39.5t33 26.5t39 10q22 0 40.5 -10t32 -26.5t21 -39.5t7.5 -48z" />
    <glyph glyph-name="macton" unicode="&#x100;" horiz-adv-x="1282" 
d="M262 223q-8 -24 -14 -43t-12 -35t-12 -31t-13 -32l160 8v-90h-383v68q46 0 75 18.5t49 52.5t36.5 81t37.5 104l422 1149h49l457 -1166q9 -21 18.5 -50.5t18 -60.5t13 -61t3.5 -53l140 8v-90h-469v68q57 1 84 21t34 49t0 62t-18 62l-72 192l-533 -12q-22 -63 -39 -115.5
t-32 -103.5zM510 942q-47 -132 -82.5 -232.5t-63.5 -179.5h474l-146 392l-92 252h-4zM359 1844h543v-115l-543 -8v123z" />
    <glyph glyph-name="amacron" unicode="&#x101;" horiz-adv-x="1057" 
d="M694 501q-47 -2 -97.5 -8.5t-99 -20t-91.5 -34.5t-75 -50t-50 -67t-16 -86q1 -38 14.5 -66.5t35 -47t49.5 -28t60 -9.5q41 0 77 8t68.5 23.5t63 37.5t61.5 51v297zM132 811q0 51 30 96t84 78.5t128.5 52.5t162.5 19q172 0 253.5 -91t80.5 -289l-2 -460q0 -32 -1.5 -64.5
t-6.5 -74.5l145 8v-86h-293q-6 35 -9 61t-5 55q-69 -69 -150.5 -109t-172.5 -40q-77 0 -134.5 18.5t-95.5 51.5t-57 77.5t-19 95.5q0 63 27.5 115t74 92.5t108.5 70t131.5 48.5t142 27.5t141.5 7.5v128q0 53 -6 103t-26.5 91t-64 65t-100.5 24q-33 0 -63 -5.5t-59 -18.5
t-52.5 -34t-38.5 -50q15 -17 20.5 -37.5t5.5 -39.5q0 -12 -5 -27.5t-15.5 -29t-27 -22t-44.5 -8.5q-40 0 -63.5 29.5t-23.5 71.5zM242 1434h543v-115l-543 -8v123z" />
    <glyph glyph-name="Abreve" unicode="&#x102;" horiz-adv-x="1282" 
d="M262 223q-8 -24 -14 -43t-12 -35t-12 -31t-13 -32l160 8v-90h-383v68q46 0 75 18.5t49 52.5t36.5 81t37.5 104l422 1149h49l457 -1166q9 -21 18.5 -50.5t18 -60.5t13 -61t3.5 -53l140 8v-90h-469v68q57 1 84 21t34 49t0 62t-18 62l-72 192l-533 -12q-22 -63 -39 -115.5
t-32 -103.5zM510 942q-47 -132 -82.5 -232.5t-63.5 -179.5h474l-146 392l-92 252h-4zM942 1868q-48 -103 -127 -157t-173 -54t-173 54t-127 157l55 24q16 -21 41.5 -41t58 -35t69.5 -24.5t76 -9.5t76 9.5t69.5 24.5t58 35t41.5 41z" />
    <glyph glyph-name="abreve" unicode="&#x103;" horiz-adv-x="1057" 
d="M695 501q-47 -2 -97.5 -8.5t-99 -20t-91.5 -34.5t-75 -50t-50 -67t-16 -86q1 -38 14.5 -66.5t35 -47t49.5 -28t60 -9.5q41 0 77 8t68.5 23.5t63 37.5t61.5 51v297zM133 811q0 51 30 96t84 78.5t128.5 52.5t162.5 19q172 0 253.5 -91t80.5 -289l-2 -460q0 -32 -1.5 -64.5
t-6.5 -74.5l145 8v-86h-293q-6 35 -9 61t-5 55q-69 -69 -150.5 -109t-172.5 -40q-77 0 -134.5 18.5t-95.5 51.5t-57 77.5t-19 95.5q0 63 27.5 115t74 92.5t108.5 70t131.5 48.5t142 27.5t141.5 7.5v128q0 53 -6 103t-26.5 91t-64 65t-100.5 24q-33 0 -63 -5.5t-59 -18.5
t-52.5 -34t-38.5 -50q15 -17 20.5 -37.5t5.5 -39.5q0 -12 -5 -27.5t-15.5 -29t-27 -22t-44.5 -8.5q-40 0 -63.5 29.5t-23.5 71.5zM512 1237q-40 0 -81 14.5t-78.5 44t-68 74t-49.5 105.5l60 30q15 -28 38.5 -54t53 -45.5t63 -31.5t68.5 -12t68.5 12.5t62.5 33t52 47t38 54.5
l55 -24q-39 -108 -97 -169q-76 -79 -185 -79z" />
    <glyph glyph-name="Aogonek" unicode="&#x104;" horiz-adv-x="1282" 
d="M1155 0q-54 -20 -103 -47t-86 -62.5t-59 -78t-22 -93.5q0 -32 10.5 -58t27.5 -44t40 -28t49 -10q37 0 70.5 15.5t62.5 40.5l35 -37q-20 -24 -46.5 -47t-58 -41.5t-67 -29.5t-72.5 -11q-49 0 -89 15.5t-68.5 43t-44 66t-15.5 84.5q0 51 23.5 97.5t63 87t92.5 75.5t112 62
h-172v68q57 1 84 21t34 49t0 62t-18 62l-72 192l-533 -12q-22 -63 -39 -115.5t-32 -103.5q-8 -24 -14 -43t-12 -35t-12 -31t-13 -32l160 8v-90h-383v68q46 0 75 18.5t49 52.5t36.5 81t37.5 104l422 1149h49l457 -1166q9 -21 18.5 -50.5t18 -60.5t13 -61t3.5 -53l140 8v-90
h-152zM692 922l-92 252h-4l-86 -232q-47 -132 -82.5 -232.5t-63.5 -179.5h474z" />
    <glyph glyph-name="aogonek" unicode="&#x105;" horiz-adv-x="1057" 
d="M933 0q-50 -20 -93.5 -47t-76.5 -61t-52 -74.5t-19 -87.5q0 -32 10.5 -58t27.5 -44t40 -28t49 -10q37 0 70.5 15.5t62.5 40.5l35 -37q-20 -24 -46.5 -47t-58 -41.5t-67 -29.5t-72.5 -11q-49 0 -89 15.5t-68.5 43t-44 66t-15.5 84.5q0 48 21 92.5t57.5 84t85.5 73.5
t104 61h-81q-6 35 -9 61t-5 55q-69 -69 -150.5 -109t-172.5 -40q-77 0 -134.5 18.5t-95.5 51.5t-57 77.5t-19 95.5q0 63 27.5 115t74 92.5t108.5 70t131.5 48.5t142 27.5t141.5 7.5v128q0 53 -6 103t-26 89t-59 64t-106 27q-30 1 -61.5 -5t-60.5 -19t-52.5 -34t-38.5 -50
q15 -17 20.5 -37.5t5.5 -39.5q0 -12 -5 -27.5t-15.5 -29t-28.5 -22.5t-43 -8q-43 1 -65 30t-22 71q0 51 30 96t84 78.5t128.5 52.5t162.5 19q172 0 253.5 -91t78.5 -289v-460q0 -32 -1.5 -64.5t-6.5 -74.5l145 8v-86h-73zM694 204q-1 23 -1 50v56v21t0.5 43t0.5 58.5v68.5
q-47 -2 -97.5 -8.5t-99 -20t-91.5 -34.5t-75 -50t-50 -67t-16 -86q1 -38 14.5 -66.5t35 -47t49.5 -28t60 -9.5q41 0 77 8t68.5 23.5t63 37.5t61.5 51z" />
    <glyph glyph-name="Cacute" unicode="&#x106;" horiz-adv-x="1432" 
d="M819 1383q-109 0 -204.5 -46.5t-166.5 -132t-112 -207.5t-41 -272q0 -97 19.5 -182.5t55.5 -158t86 -130t111 -97.5t131 -61.5t146 -21.5q67 0 133.5 15t128 45t115.5 74t96 101l53 -43q-66 -91 -141.5 -149t-152 -91.5t-150 -46t-136.5 -12.5q-154 0 -282 56.5
t-220 154.5t-143 230.5t-51 285.5q0 96 19.5 191t59 180.5t98.5 159t138 127.5t178 84.5t218 30.5q116 0 217 -31t196 -94l-10 110h111v-475h-74q-11 96 -45.5 171.5t-89 127.5t-128.5 79.5t-163 27.5zM713 1556l-45 60l258 246q30 26 54.5 32t42 2.5t28 -12t13.5 -12.5
q5 -7 10 -20.5t2 -31.5t-17 -39t-49 -42z" />
    <glyph glyph-name="cacute" unicode="&#x107;" horiz-adv-x="1090" 
d="M838 871q-14 36 -41 57.5t-58.5 33.5t-63 15.5t-52.5 3.5q-70 0 -130.5 -28.5t-104.5 -83.5t-69.5 -137t-25.5 -188q0 -102 25.5 -188.5t71.5 -149t111 -97.5t144 -35q48 0 95 13.5t89 37.5t77.5 56t60.5 69l53 -41q-41 -64 -93.5 -109.5t-110 -75t-116 -43.5t-110.5 -14
q-104 0 -196 35.5t-161 103t-109 165.5t-40 223q0 71 17.5 140t50.5 131.5t80 116t106.5 92.5t130 61t149.5 22q85 0 155 -21t120 -56t77 -80.5t27 -95.5q0 -44 -24.5 -75.5t-70.5 -32.5q-27 -1 -45 8.5t-29 23.5t-16 30.5t-5 29.5q0 20 6.5 42t24.5 41zM529 1188l-57 47
l172 276q23 33 45.5 44.5t39 11.5t32 -6.5t25.5 -19.5t13.5 -24t3.5 -24q0 -11 -3 -21t-6 -17q-9 -23 -35 -50z" />
    <glyph glyph-name="Ccaron" unicode="&#x10c;" horiz-adv-x="1432" 
d="M820 1383q-109 0 -204.5 -46.5t-166.5 -132t-112 -207.5t-41 -272q0 -97 19.5 -182.5t55.5 -158t86 -130t111 -97.5t131 -61.5t146 -21.5q67 0 133.5 15t128 45t115.5 74t96 101l53 -43q-66 -91 -141.5 -149t-152 -91.5t-150 -46t-136.5 -12.5q-154 0 -282 56.5
t-220 154.5t-143 230.5t-51 285.5q0 96 19.5 191t59 180.5t98.5 159t138 127.5t178 84.5t218 30.5q116 0 217 -31t196 -94l-10 110h111v-475h-74q-11 96 -45.5 171.5t-89 127.5t-128.5 79.5t-163 27.5zM813 1528h-4l-377 289l45 69l340 -180h4l348 184l41 -65z" />
    <glyph glyph-name="ccaron" unicode="&#x10d;" horiz-adv-x="1090" 
d="M839 871q-14 36 -41 57.5t-58.5 33.5t-63 15.5t-52.5 3.5q-70 0 -130.5 -28.5t-104.5 -83.5t-69.5 -137t-25.5 -188q0 -102 25.5 -188.5t71.5 -149t111 -97.5t144 -35q48 0 95 13.5t89 37.5t77.5 56t60.5 69l53 -41q-41 -64 -93.5 -109.5t-110 -75t-116 -43.5t-110.5 -14
q-104 0 -196 35.5t-161 103t-109 165.5t-40 223q0 71 17.5 140t50.5 131.5t80 116t106.5 92.5t130 61t149.5 22q85 0 155 -21t120 -56t77 -80.5t27 -95.5q0 -44 -24.5 -75.5t-70.5 -32.5q-27 -1 -45 8.5t-29 23.5t-16 30.5t-5 29.5q0 20 6.5 42t24.5 41zM589 1174h-4
l-305 333l55 66l261 -223h4l264 227l51 -59z" />
    <glyph glyph-name="Dcaron" unicode="&#x10e;" horiz-adv-x="1526" 
d="M434 242q0 -56 -1.5 -95t-5.5 -65q41 -2 78 -3t66.5 -1h49.5h26q132 0 240 49t184.5 135.5t118.5 204.5t42 256q0 145 -39.5 262.5t-120.5 201t-204.5 128.5t-292.5 45q-58 0 -87 -18t-41 -50.5t-12.5 -77.5t-0.5 -100v-872zM597 1436q186 0 339.5 -43t264 -132
t171.5 -225t61 -321q0 -94 -22 -183.5t-66 -169t-109.5 -146t-152 -114.5t-194.5 -75t-236 -27h-539v68q58 2 87 21t41 52t12.5 78.5t0.5 99.5v885q0 42 1.5 79.5t5.5 68.5l-148 -9v91zM743 1528h-4l-377 289l45 69l340 -180h4l348 184l41 -65z" />
    <glyph glyph-name="dcaron" unicode="&#x10f;" horiz-adv-x="1358" 
d="M1377 1468q0 -8 -2 -30q-7 -77 -53 -155.5t-115 -147.5l-54 40q77 145 77 273q0 61 -19 140l141 -27q25 -51 25 -93zM1017 78l145 8v-86h-293q-10 57 -13 107q-60 -66 -145 -103t-184 -37q-126 0 -226.5 63.5t-158 180.5t-57.5 272q0 165 68 295.5t188 204.5t270 74
q64 0 130 -16.5t110 -40.5v280q0 78 6 133l-145 -8v86q84 0 134.5 7.5t75.5 19t44 28.5h59v-1329q0 -66 -8 -139zM624 976q-98 0 -172.5 -55.5t-115.5 -156t-41 -232.5q0 -135 35.5 -240t104.5 -164.5t166 -59.5q67 0 135 37t114 97l-1 53l1 60v590q-92 71 -226 71z" />
    <glyph glyph-name="Dcroat" unicode="&#x110;" horiz-adv-x="1528" 
d="M598 1436q185 1 339 -42.5t264.5 -132.5t171.5 -225t61 -321q0 -94 -22 -183.5t-66 -169t-109.5 -146t-152 -114.5t-194.5 -75t-236 -27h-539v68q58 2 87 21t41 52t12.5 78.5t0.5 99.5v350l-217 -3v106h217v432q0 42 1.5 79.5t5.5 68.5l-148 -9v93h483zM435 242
q0 -56 -1.5 -95t-5.5 -65q41 -2 78 -3t66.5 -1h49.5h26q132 0 240 49t184.5 135.5t118.5 204.5t42 256q0 145 -39.5 262.5t-120.5 201t-204.5 128.5t-292.5 45q-58 0 -87 -18t-41 -50.5t-12.5 -77.5t-0.5 -100v-342h249v-98l-249 -3v-429z" />
    <glyph glyph-name="dcroat" unicode="&#x111;" horiz-adv-x="1225" 
d="M1026 217q0 -32 -1.5 -64.5t-6.5 -74.5l145 8v-86h-293q-5 30 -8 56t-5 51q-59 -64 -142.5 -102t-186.5 -38q-95 0 -175.5 36t-140 103t-93 162.5t-33.5 214.5q0 125 39.5 230.5t109.5 182t166.5 119t210.5 42.5q69 0 134 -17.5t106 -39.5v197l-330 -4v93h330
q0 30 0.5 59t5.5 68l-145 -8v86q67 0 111 4.5t72 12.5t43.5 17.5t27.5 20.5h59v-260h159v-85l-159 -2v-982zM851 905q-49 38 -107 54.5t-119 16.5q-77 0 -139 -34t-105.5 -96.5t-65.5 -150t-18 -193.5q3 -95 24 -174.5t59.5 -137t94 -90t127.5 -32.5q34 0 69 10t67.5 28
t61 42.5t51.5 53.5q-1 49 0 113v590z" />
    <glyph glyph-name="Emacron" unicode="&#x112;" 
d="M433 236q0 -57 -1.5 -95.5t-5.5 -64.5l392 6q67 1 121 16.5t92.5 52t59.5 97t21 151.5h70l-12 -399h-1057v68q49 1 77.5 15.5t42.5 39.5t17.5 59.5t3.5 76.5v60v885q0 42 1.5 79.5t5.5 68.5l-148 -9v91h985l10 -359h-67q0 88 -20.5 144t-56 88t-83.5 43.5t-104 11.5
l-189 -3q-57 -3 -88.5 -18t-46.5 -44.5t-17.5 -74.5t-2.5 -108v-330h384l-15 177h91v-431h-67q0 60 -10.5 95.5t-33 55t-57 25.5t-83.5 6h-29t-180 -7v-469zM359 1844h543v-115l-543 -8v123z" />
    <glyph glyph-name="emacron" unicode="&#x113;" horiz-adv-x="1110" 
d="M604 977q-120 0 -198 -70.5t-103 -228.5h522q0 54 -12 107.5t-38.5 96t-68.5 69t-102 26.5zM1018 604l-721 -12q-1 -118 18 -214t60 -164t105.5 -105t154.5 -37q48 0 98 13t96.5 35.5t85.5 54t65 67.5l50 -41q-42 -64 -97.5 -108.5t-115 -72.5t-119.5 -40.5t-112 -12.5
q-106 0 -197.5 38t-158.5 109t-105.5 171t-38.5 225q0 108 37 206.5t105 174.5t163 121t211 45q85 0 160.5 -28t132.5 -84t90 -141.5t33 -199.5zM302 1434h543v-115l-543 -8v123z" />
    <glyph glyph-name="Edotaccent" unicode="&#x116;" 
d="M433 236q0 -57 -1.5 -95.5t-5.5 -64.5l392 6q67 1 121 16.5t92.5 52t59.5 97t21 151.5h70l-12 -399h-1057v68q49 1 77.5 15.5t42.5 39.5t17.5 59.5t3.5 76.5v60v885q0 42 1.5 79.5t5.5 68.5l-148 -9v91h985l10 -359h-67q0 88 -20.5 144t-56 88t-83.5 43.5t-104 11.5
l-189 -3q-57 -3 -88.5 -18t-46.5 -44.5t-17.5 -74.5t-2.5 -108v-330h384l-15 177h91v-431h-67q0 60 -10.5 95.5t-33 55t-57 25.5t-83.5 6h-29t-180 -7v-469zM779.545 1778.4q0 -24.9072 -9.23047 -47.0469t-24.4619 -38.7441t-35.0781 -25.8291
q-19.8467 -9.22559 -42.001 -9.22559t-42 9.22559q-19.8467 9.22461 -35.0781 25.8291q-15.2305 16.6045 -24 38.7441t-8.76953 47.0469q0 25.8301 9.23047 48.4307q9.23145 22.6006 24.4619 39.2061q15.2314 16.6045 35.54 26.29q20.3076 9.68652 42.4619 9.68652
q23.0771 0 42.9238 -9.68652q19.8467 -9.68555 34.6162 -26.29q14.7695 -16.6055 23.0771 -39.2061t8.30762 -48.4307z" />
    <glyph glyph-name="edotaccent" unicode="&#x117;" horiz-adv-x="1110" 
d="M604 977q-120 0 -198 -70.5t-103 -228.5h522q0 54 -12 107.5t-38.5 96t-68.5 69t-102 26.5zM1018 604l-721 -12q-1 -118 18 -214t60 -164t105.5 -105t154.5 -37q48 0 98 13t96.5 35.5t85.5 54t65 67.5l50 -41q-42 -64 -97.5 -108.5t-115 -72.5t-119.5 -40.5t-112 -12.5
q-106 0 -197.5 38t-158.5 109t-105.5 171t-38.5 225q0 108 37 206.5t105 174.5t163 121t211 45q85 0 160.5 -28t132.5 -84t90 -141.5t33 -199.5zM732.545 1368.4q0 -24.9072 -9.23047 -47.0469t-24.4619 -38.7441t-35.0781 -25.8291q-19.8467 -9.22559 -42.001 -9.22559
t-42 9.22559q-19.8467 9.22461 -35.0781 25.8291q-15.2305 16.6045 -24 38.7441t-8.76953 47.0469q0 25.8301 9.23047 48.4307q9.23145 22.6006 24.4619 39.2061q15.2314 16.6045 35.54 26.29q20.3076 9.68652 42.4619 9.68652q23.0771 0 42.9238 -9.68652
q19.8467 -9.68555 34.6162 -26.29q14.7695 -16.6055 23.0771 -39.2061t8.30762 -48.4307z" />
    <glyph glyph-name="Eogonek" unicode="&#x118;" 
d="M1119 0q-50 -20 -93.5 -47t-76.5 -61t-52 -74.5t-19 -87.5q0 -32 10.5 -58t27.5 -44t40 -28t49 -10q37 0 70.5 15.5t62.5 40.5l35 -37q-20 -24 -46.5 -47t-58 -41.5t-67 -29.5t-72.5 -11q-49 0 -89 15.5t-68.5 43t-44 66t-15.5 84.5q0 48 21 92.5t57.5 84t85.5 73.5
t104 61h-867v68q58 2 87 21t41 52t12.5 78.5t0.5 99.5v885q0 42 1.5 79.5t5.5 68.5l-148 -9v91h985l10 -359h-67q0 91 -21.5 147.5t-59 88t-88 42t-108.5 9.5l-176 -4q-57 -2 -88.5 -16.5t-46.5 -44.5t-17.5 -75.5t-2.5 -107.5v-330h384l-15 177h91v-431h-67
q0 68 -13.5 105.5t-43 55t-76 20t-111.5 0.5l-149 -6v-469q0 -56 -1.5 -95t-5.5 -65l392 6q67 1 121 16.5t92.5 52t59.5 97t21 151.5h70l-12 -399h-51z" />
    <glyph glyph-name="eogonek" unicode="&#x119;" horiz-adv-x="1110" 
d="M796 11q-16 -8 -31 -12q-49 -20 -92.5 -47t-75.5 -61t-51 -74t-19 -87q0 -32 10.5 -58t27.5 -44t40 -28t49 -10q37 0 70.5 15.5t62.5 40.5l35 -37q-20 -24 -46.5 -47t-58 -41.5t-67 -29.5t-72.5 -11q-49 0 -89 15.5t-68.5 43t-44 66t-15.5 84.5q0 42 16 80.5t43.5 73.5
t65.5 66t83 58q-103 3 -191.5 42.5t-153 110t-101.5 169.5t-37 221q0 108 37 206.5t105 174.5t163 121t211 45q85 0 160.5 -28t132.5 -84t90 -141.5t33 -199.5l-721 -12q-1 -118 18 -214t60 -164t105.5 -105t154.5 -37q48 0 98 13t96.5 35.5t85.5 54t65 67.5l50 -41
q-46 -69 -107 -115.5t-127 -74.5zM825 678q0 54 -12 107.5t-38.5 96t-68.5 69t-102 26.5q-120 0 -198 -70.5t-103 -228.5h522z" />
    <glyph glyph-name="Ecaron" unicode="&#x11a;" 
d="M434 236q0 -57 -1.5 -95.5t-5.5 -64.5l392 6q67 1 121 16.5t92.5 52t59.5 97t21 151.5h70l-12 -399h-1057v68q49 1 77.5 15.5t42.5 39.5t17.5 59.5t3.5 76.5v60v885q0 42 1.5 79.5t5.5 68.5l-148 -9v91h985l10 -359h-67q0 88 -20.5 144t-56 88t-83.5 43.5t-104 11.5
l-189 -3q-57 -3 -88.5 -18t-46.5 -44.5t-17.5 -74.5t-2.5 -108v-330h384l-15 177h91v-431h-67q0 60 -10.5 95.5t-33 55t-57 25.5t-83.5 6h-29t-180 -7v-469zM683 1528h-4l-377 289l45 69l340 -180h4l348 184l41 -65z" />
    <glyph glyph-name="ecaron" unicode="&#x11b;" horiz-adv-x="1110" 
d="M605 977q-120 0 -198 -70.5t-103 -228.5h522q0 54 -12 107.5t-38.5 96t-68.5 69t-102 26.5zM1019 604l-721 -12q-1 -118 18 -214t60 -164t105.5 -105t154.5 -37q48 0 98 13t96.5 35.5t85.5 54t65 67.5l50 -41q-42 -64 -97.5 -108.5t-115 -72.5t-119.5 -40.5t-112 -12.5
q-106 0 -197.5 38t-158.5 109t-105.5 171t-38.5 225q0 108 37 206.5t105 174.5t163 121t211 45q85 0 160.5 -28t132.5 -84t90 -141.5t33 -199.5zM565 1174h-4l-305 333l55 66l261 -223h4l264 227l51 -59z" />
    <glyph glyph-name="Gbreve" unicode="&#x11e;" horiz-adv-x="1559" 
d="M1369 74h-56q-34 0 -90 -12t-131 -41q-32 -12 -70 -22t-77.5 -17t-78.5 -11t-73 -4q-154 0 -282 49.5t-220 142t-143 226t-51 301.5q0 96 19.5 191.5t59 182t98.5 161t138.5 129.5t179 86t218.5 31q55 0 112 -8t112 -22.5t106 -35.5t94 -47l-9 98h113v-469h-74
q-7 96 -43 171t-94.5 126t-136 78t-166.5 27q-109 0 -205 -48.5t-167 -135t-112.5 -206t-41.5 -262.5q0 -145 40 -267.5t112.5 -211t173.5 -138.5t222 -50q41 0 86 6t90.5 18t90 31.5t84.5 46.5v448l-144 -8v90h463v-67q-38 0 -64 -14.5t-42 -37t-24.5 -50t-12 -54.5
t-4 -50.5t-0.5 -37.5v-313zM1113 1868q-48 -103 -127 -157t-173 -54t-173 54t-127 157l55 24q16 -21 41.5 -41t58 -35t69.5 -24.5t76 -9.5t76 9.5t69.5 24.5t58 35t41.5 41z" />
    <glyph glyph-name="gbreve" unicode="&#x11f;" horiz-adv-x="1133" 
d="M563 -67q-57 2 -110 5t-101 11q-57 -37 -87.5 -90t-30.5 -113q0 -51 24.5 -91.5t70 -69.5t110 -44.5t143.5 -15.5q88 0 157.5 18t117.5 48t73 69.5t25 83.5q0 57 -29.5 92.5t-82 56t-124 29t-156.5 11.5zM545 985q-55 0 -98 -22t-72.5 -61t-45 -92t-15.5 -114
q0 -74 16 -134.5t47 -104.5t76 -68t102 -24t99.5 21t71 58.5t43 89t14.5 111.5q0 67 -15 129t-45 108.5t-74.5 74.5t-103.5 28zM993 1065q-26 -4 -46 -16.5t-35 -31.5t-24.5 -41.5t-14.5 -45.5q51 -47 80.5 -110t29.5 -134q0 -87 -35.5 -159.5t-95.5 -125t-138.5 -81.5
t-164.5 -29q-38 0 -67.5 5t-69.5 5q-38 0 -69.5 -10t-53 -27.5t-28.5 -34t-7 -28.5t4 -25q7 -24 32.5 -39t66.5 -23.5t97.5 -12.5t127.5 -7q118 -5 211.5 -22.5t158.5 -53t99.5 -92t34.5 -139.5t-44.5 -146.5t-116 -107t-161 -66t-180.5 -22.5q-138 0 -235.5 24t-158.5 63.5
t-89 89t-28 100.5q0 47 18 86t45.5 70t61 53.5t64.5 36.5q-66 20 -104 57.5t-38 103.5q0 36 15 70.5t42 63.5t64.5 49t82.5 28q-47 22 -85 53.5t-65 71t-41.5 86.5t-14.5 101q0 92 37.5 167t98 128t138 81.5t157.5 28.5q69 0 136 -19.5t124 -57.5q15 43 41 80t58.5 63.5
t70.5 41.5t79 15q52 0 80.5 -27t28.5 -75q0 -12 -5 -27t-15.5 -28t-27.5 -22t-41 -8q-35 1 -57 21.5t-28 50.5zM539 1237q-40 0 -81 14.5t-78.5 44t-68 74t-49.5 105.5l60 30q15 -28 38.5 -54t53 -45.5t63 -31.5t68.5 -12t68.5 12.5t62.5 33t52 47t38 54.5l55 -24
q-39 -108 -97 -169q-76 -79 -185 -79z" />
    <glyph glyph-name="Gcommaaccent" unicode="&#x122;" horiz-adv-x="1559" 
d="M1369 74h-56q-34 0 -90 -12t-131 -41q-32 -12 -70 -22t-77.5 -17t-78.5 -11t-73 -4q-154 0 -282 49.5t-220 142t-143 226t-51 301.5q0 96 19.5 191.5t59 182t98.5 161t138.5 129.5t179 86t218.5 31q55 0 112 -8t112 -22.5t106 -35.5t94 -47l-9 98h113v-469h-74
q-7 96 -43 171t-94.5 126t-136 78t-166.5 27q-109 0 -205 -48.5t-167 -135t-112.5 -206t-41.5 -262.5q0 -145 40 -267.5t112.5 -211t173.5 -138.5t222 -50q41 0 86 6t90.5 18t90 31.5t84.5 46.5v448l-144 -8v90h463v-67q-38 0 -64 -14.5t-42 -37t-24.5 -50t-12 -54.5
t-4 -50.5t-0.5 -37.5v-313zM897 -115q24 -51 24 -106q0 -78 -44 -157.5t-117 -152.5l-54 40q33 61 48.5 106.5t18.5 83.5t-2.5 74.5t-14.5 79.5z" />
    <glyph glyph-name="gcommaaccent" unicode="&#x123;" horiz-adv-x="1133" 
d="M463 1194q-24 51 -24 106q0 78 44 157.5t117 152.5l54 -40q-33 -61 -48.5 -106.5t-18.5 -83.5t2.5 -74.5t14.5 -79.5zM1057 1180q52 0 80.5 -27t28.5 -75q0 -12 -5 -27t-15.5 -28t-27.5 -22t-41 -8q-35 1 -57 21.5t-28 50.5q-26 -4 -46 -16.5t-35 -31.5t-24.5 -41.5
t-14.5 -45.5q51 -47 80.5 -110t29.5 -134q0 -87 -35.5 -159.5t-95.5 -125t-138.5 -81.5t-164.5 -29q-38 0 -67.5 5t-69.5 5q-38 0 -69.5 -10t-53 -27t-30.5 -40t-1 -48q7 -24 32.5 -39t66.5 -23.5t97.5 -12.5t127.5 -7q118 -5 211.5 -22.5t158.5 -53t99.5 -92t34.5 -139.5
t-44.5 -146.5t-116 -107t-161 -66t-180.5 -22.5q-138 0 -235.5 24t-158.5 63.5t-89 89t-28 100.5q0 47 18 86t45.5 70t61 53.5t64.5 36.5q-66 20 -104 57.5t-38 103.5q0 36 15 70.5t42 63.5t64.5 49t82.5 28q-47 22 -85 53.5t-65 71t-41.5 86.5t-14.5 101q0 92 37.5 167
t98 128t138 81.5t157.5 28.5q69 0 136 -19.5t124 -57.5q15 43 41 80t58.5 63.5t70.5 41.5t79 15zM544 985q-55 0 -98 -22t-72.5 -61t-45 -92t-15.5 -114q0 -74 16 -134.5t47 -104.5t76 -68t102 -24t99.5 21t71 58.5t43 89t14.5 111.5q0 67 -15 129t-45 108.5t-74.5 74.5
t-103.5 28zM351 -51q-57 -37 -87.5 -90t-30.5 -113q0 -51 24.5 -91.5t70 -69.5t110 -44.5t143.5 -15.5q88 0 157.5 18t117.5 48t73 69.5t25 83.5q0 57 -29.5 92.5t-82 56t-124 29t-156.5 11.5q-57 2 -110 5t-101 11z" />
    <glyph glyph-name="Imacron" unicode="&#x12a;" horiz-adv-x="686" 
d="M254 1204q0 42 1.5 79.5t5.5 68.5l-148 -9v91h461v-68q-58 -2 -87 -21.5t-41 -52.5t-12.5 -78t-0.5 -100v-870q0 -56 -1.5 -96t-5.5 -66l148 8v-90h-461v68q58 2 87 21t41 52t12.5 78.5t0.5 99.5v885zM84 1844h543v-115l-543 -8v123z" />
    <glyph glyph-name="imacron" unicode="&#x12b;" horiz-adv-x="575" 
d="M211 778q0 32 1.5 62t6.5 71l-145 -8v86q67 0 111 4.5t72 12.5t43.5 17.5t27.5 20.5h59v-827q0 -41 -1 -72.5t-7 -66.5l129 6v-84h-418v61q46 0 71 18.5t36 51.5t12.5 79t1.5 101v467zM9 1434h543v-115l-543 -8v123z" />
    <glyph glyph-name="Iogonek" unicode="&#x12e;" horiz-adv-x="686" 
d="M587 -402q-20 -24 -46.5 -47t-58 -41.5t-67 -29.5t-72.5 -11q-49 0 -89 15.5t-68.5 43t-44 66t-15.5 84.5q0 51 23.5 97.5t63 87t92.5 75.5t112 62h-304v68q58 2 87 21t41 52t12.5 78.5t0.5 99.5v885q0 42 1.5 79.5t5.5 68.5l-148 -9v91h461v-68q-58 -2 -87 -21.5
t-41 -52.5t-12.5 -78t-0.5 -100v-870q0 -56 -1.5 -96t-5.5 -66l148 8v-90h-12q-54 -20 -103 -47t-86 -62.5t-59 -78t-22 -93.5q0 -32 10.5 -58t27.5 -44t40 -28t49 -10q37 0 70.5 15.5t62.5 40.5z" />
    <glyph glyph-name="iogonek" unicode="&#x12f;" horiz-adv-x="575" 
d="M294 1248q-22 0 -42 9.5t-35 25.5t-23.5 38t-8.5 47t9 47.5t24.5 39.5t35.5 26.5t42 9.5q23 0 42.5 -9.5t34 -26.5t23 -39.5t8.5 -47.5t-9 -47t-24 -38t-35 -25.5t-42 -9.5zM533 -402q-20 -24 -46.5 -47t-58 -41.5t-67 -29.5t-72.5 -11q-49 0 -89 15.5t-68.5 43t-44 66
t-15.5 84.5q0 51 23.5 97.5t63 87t92.5 75.5t112 62h-273v61q47 0 71.5 18.5t35.5 51.5t12.5 79t1.5 101v467q0 32 1.5 62t6.5 71l-145 -8v86q67 0 111 4.5t72 12.5t43.5 17.5t27.5 20.5h59v-827q0 -41 -1 -72.5t-7 -66.5l129 6v-84q-54 -20 -103 -47t-86 -62.5t-59 -78
t-22 -93.5q0 -32 10.5 -58t27.5 -44t40 -28t49 -10q37 0 70.5 15.5t62.5 40.5z" />
    <glyph glyph-name="Idotaccent" unicode="&#x130;" horiz-adv-x="686" 
d="M254 1204q0 42 1.5 79.5t5.5 68.5l-148 -9v91h461v-68q-58 -2 -87 -21.5t-41 -52.5t-12.5 -78t-0.5 -100v-870q0 -56 -1.5 -96t-5.5 -66l148 8v-90h-461v68q58 2 87 21t41 52t12.5 78.5t0.5 99.5v885zM459.545 1777.4q0 -24.9072 -9.23047 -47.0469t-24.4619 -38.7441
t-35.0781 -25.8291q-19.8467 -9.22559 -42.001 -9.22559t-42 9.22559q-19.8467 9.22461 -35.0781 25.8291q-15.2305 16.6045 -24 38.7441t-8.76953 47.0469q0 25.8301 9.23047 48.4307q9.23145 22.6006 24.4619 39.2061q15.2314 16.6045 35.54 26.29
q20.3076 9.68652 42.4619 9.68652q23.0771 0 42.9238 -9.68652q19.8467 -9.68555 34.6162 -26.29q14.7695 -16.6055 23.0771 -39.2061t8.30762 -48.4307z" />
    <glyph glyph-name="dotlessi" unicode="&#x131;" horiz-adv-x="575" 
d="M211 778q0 32 1.5 62t6.5 71l-145 -8v86q67 0 111 4.5t72 12.5t43.5 17.5t27.5 20.5h59v-827q0 -41 -1 -72.5t-7 -66.5l129 6v-84h-418v61q46 0 71 18.5t36 51.5t12.5 79t1.5 101v467z" />
    <glyph glyph-name="Kcommaaccent" unicode="&#x136;" horiz-adv-x="1399" 
d="M255 1204q0 42 1.5 79.5t5.5 68.5l-148 -9v91h461v-68q-58 -2 -87 -21.5t-41 -52.5t-12.5 -78t-0.5 -100v-336h153l256 404q13 20 29.5 43t35 46t39.5 44.5t42 38.5l-125 -4v84h440v-68q-65 -5 -118 -17.5t-101 -42t-95.5 -81t-99.5 -135.5l-200 -320q29 -18 52 -38.5
t43 -42.5t38 -45.5t37 -47.5l229 -305q58 -78 100 -122.5t76 -67t63 -28t62 -5.5v-68h-250q-15 0 -38 16.5t-50.5 44.5t-58 64.5t-60.5 75.5l-245 331q-39 51 -78 97t-76 69l-100 -2v-452q0 -56 -1.5 -96t-5.5 -66l148 8v-90h-461v68q58 2 87 21t41 52t12.5 78.5t0.5 99.5
v885zM798 -115q24 -51 24 -106q0 -78 -44 -157.5t-117 -152.5l-54 40q33 61 48.5 106.5t18.5 83.5t-2.5 74.5t-14.5 79.5z" />
    <glyph glyph-name="kcommaaccent" unicode="&#x137;" horiz-adv-x="1100" 
d="M680 1024h373v-61q-52 -6 -99.5 -29.5t-89 -55.5t-76.5 -67l-63 -63l-159 -168q40 -19 69 -47t58 -64l145 -186q6 -8 20.5 -28t34 -44.5t43.5 -51t49.5 -48.5t51 -36t49.5 -14v-61h-186q-28 0 -55 16.5t-53.5 43.5t-53 61.5t-54.5 71.5q-81 110 -137 190.5t-96 118.5
l-84 -4v-281q0 -41 -1 -72.5t-7 -66.5l131 6v-84h-418v61q47 0 71.5 18.5t35 51.5t12.5 79t2 1070q0 32 0.5 62t5.5 71l-145 -8v86q67 0 111 4.5t72 12.5t43.5 17.5t27.5 20.5h59v-968h82l250 262q34 35 63 62.5t58 45.5l-140 -6v82zM573 -115q24 -51 24 -106
q0 -78 -44 -157.5t-117 -152.5l-54 40q33 61 48.5 106.5t18.5 83.5t-2.5 74.5t-14.5 79.5z" />
    <glyph glyph-name="Lacute" unicode="&#x139;" horiz-adv-x="1184" 
d="M433 236q0 -56 -1.5 -95t-5.5 -65l383 6q64 1 113.5 20.5t82.5 60.5t50 105.5t17 155.5h69l-12 -424h-1016v68q58 2 87 21t41 52t12.5 78.5t0.5 99.5v885q0 42 1.5 79.5t5.5 68.5l-148 -9v91h461v-68q-58 -2 -87 -21.5t-41 -52.5t-12.5 -78t-0.5 -100v-878zM258 1556
l-45 60l258 246q30 26 54.5 32t42 2.5t28 -12t13.5 -12.5q5 -7 10 -20.5t2 -31.5t-17 -39t-49 -42z" />
    <glyph glyph-name="lacute" unicode="&#x13a;" horiz-adv-x="557" 
d="M190 1280q0 32 0.5 62t5.5 71l-145 -8v86q67 0 111.5 4.5t72.5 12.5t44 17.5t28 20.5h59l2 -1329q0 -41 -2 -72.5t-8 -66.5l129 6v-84h-418v61q47 0 71.5 18.5t35.5 51.5t12.5 79t1.5 101v969zM171 1601l-57 47l172 276q23 33 45.5 44.5t39 11.5t32 -6.5t25.5 -19.5
t13.5 -24t3.5 -24q0 -11 -3 -21t-6 -17q-9 -23 -35 -50z" />
    <glyph glyph-name="Lcommaaccent" unicode="&#x13b;" horiz-adv-x="1184" 
d="M434 236q0 -56 -1.5 -95t-5.5 -65l383 6q64 1 113.5 20.5t82.5 60.5t50 105.5t17 155.5h69l-12 -424h-1016v68q58 2 87 21t41 52t12.5 78.5t0.5 99.5v885q0 42 1.5 79.5t5.5 68.5l-148 -9v91h461v-68q-58 -2 -87 -21.5t-41 -52.5t-12.5 -78t-0.5 -100v-878zM677 -115
q24 -51 24 -106q0 -78 -44 -157.5t-117 -152.5l-54 40q33 61 48.5 106.5t18.5 83.5t-2.5 74.5t-14.5 79.5z" />
    <glyph glyph-name="lcommaaccent" unicode="&#x13c;" horiz-adv-x="557" 
d="M191 1280q0 32 0.5 62t5.5 71l-145 -8v86q67 0 111.5 4.5t72.5 12.5t44 17.5t28 20.5h59l2 -1329q0 -41 -2 -72.5t-8 -66.5l129 6v-84h-418v61q47 0 71.5 18.5t35.5 51.5t12.5 79t1.5 101v969zM302 -115q24 -51 24 -106q0 -78 -44 -157.5t-117 -152.5l-54 40
q33 61 48.5 106.5t18.5 83.5t-2.5 74.5t-14.5 79.5z" />
    <glyph glyph-name="Lcaron" unicode="&#x13d;" horiz-adv-x="1184" 
d="M996 1426q17 -36 22 -61.5t1 -61.5q-4 -41 -18.5 -81.5t-37 -79t-51.5 -74.5t-61 -68l-54 40q34 64 51.5 119.5t23 105.5t0 96t-16.5 92zM574 1366q-58 -2 -87 -21.5t-41 -52.5t-12.5 -78t-0.5 -100v-878q0 -56 -1.5 -95t-5.5 -65l383 6q64 1 113.5 20.5t82.5 60.5
t50 105.5t17 155.5h69l-12 -424h-1016v68q58 2 87 21t41 52t12.5 78.5t0.5 99.5v885q0 42 1.5 79.5t5.5 68.5l-148 -9v91h461v-68z" />
    <glyph glyph-name="lcaron" unicode="&#x13e;" horiz-adv-x="699" 
d="M717 1468q0 -8 -2 -30q-7 -77 -53 -155.5t-115 -147.5l-54 40q77 145 77 273q0 61 -19 140l141 -27q25 -51 25 -93zM366 181q0 -49 -9 -103l129 6v-84h-418v61q59 0 85 30t31 76.5t5 143.5v969q0 78 6 133l-145 -8v86q121 0 174 14.5t82 40.5h59v-1329z" />
    <glyph glyph-name="Lslash" unicode="&#x141;" horiz-adv-x="1184" 
d="M432 830l208 155v-111l-208 -156v-482q0 -57 -1.5 -95.5t-5.5 -64.5l383 6q64 1 113.5 20.5t82.5 60.5t50 105.5t17 155.5h69l-12 -424h-1016v68q49 1 77.5 15.5t42.5 39.5t17.5 59.5t3.5 76.5v60v264l-155 -116v115l155 115v507q0 42 1.5 79.5t5.5 68.5l-148 -9v91h461
v-68q-50 -2 -78 -16t-42 -39.5t-17.5 -60t-3.5 -76.5v-60v-284z" />
    <glyph glyph-name="lslash" unicode="&#x142;" horiz-adv-x="600" 
d="M54 584l176 126v570q0 32 0.5 62t5.5 71l-145 -8v86q67 0 111.5 4.5t72.5 12.5t44 17.5t28 20.5h59l1 -708l159 114v-116l-159 -116l1 -503q0 -41 -2 -72.5t-8 -66.5l129 6v-84h-418v61q47 0 71.5 18.5t35.5 51.5t12.5 79t1.5 101v280l-176 -128v121z" />
    <glyph glyph-name="Nacute" unicode="&#x143;" horiz-adv-x="1561" 
d="M1332 -33h-99l-889 1195h-3l7 -877q0 -53 -0.5 -103.5t-3.5 -99.5l148 8v-90h-375v68q47 0 74 16.5t40.5 40.5t17 52t3.5 52l2 1123l-137 -9v91h244l872 -1167h2l2 937q0 86 6 148l-147 -9v91h377v-68q-58 -2 -86.5 -21.5t-40 -52.5t-11 -78t0.5 -100zM698 1556l-45 60
l258 246q30 26 54.5 32t42 2.5t28 -12t13.5 -12.5q5 -7 10 -20.5t2 -31.5t-17 -39t-49 -42z" />
    <glyph glyph-name="nacute" unicode="&#x144;" horiz-adv-x="1243" 
d="M213 778q0 32 1 65t7 68l-145 -8v86q67 0 109 4.5t67.5 12.5t39.5 17.5t26 20.5h59q2 -23 4.5 -52.5t4.5 -71.5q33 29 72.5 54t82.5 43.5t88.5 29t89.5 10.5q178 0 260 -111.5t82 -346.5v-382q0 -41 -1 -72.5t-7 -66.5l129 6v-84h-418v61q47 0 71.5 18.5t35.5 51.5
t12.5 79t1.5 101v286q-2 177 -58 266.5t-178 89.5q-37 0 -74 -11t-71 -28.5t-64 -41.5t-52 -52q1 -18 1 -38.5v-41.5l-2 -523q0 -41 -1 -72.5t-7 -66.5l129 6v-84h-418v61q47 0 71.5 18.5t35 51.5t12 79t2.5 101zM546 1188l-57 47l172 276q23 33 45.5 44.5t39 11.5t32 -6.5
t25.5 -19.5t13.5 -24t3.5 -24q0 -11 -3 -21t-6 -17q-9 -23 -35 -50z" />
    <glyph glyph-name="Ncommaaccent" unicode="&#x145;" horiz-adv-x="1561" 
d="M1333 -33h-99l-889 1195h-3l7 -877q0 -53 -0.5 -103.5t-3.5 -99.5l148 8v-90h-375v68q47 0 74 16.5t40.5 40.5t17 52t3.5 52l2 1123l-137 -9v91h244l872 -1167h2l2 937q0 86 6 148l-147 -9v91h377v-68q-58 -2 -86.5 -21.5t-40 -52.5t-11 -78t0.5 -100zM894 -115
q24 -51 24 -106q0 -78 -44 -157.5t-117 -152.5l-54 40q33 61 48.5 106.5t18.5 83.5t-2.5 74.5t-14.5 79.5z" />
    <glyph glyph-name="ncommaaccent" unicode="&#x146;" horiz-adv-x="1243" 
d="M214 778q0 32 1 65t7 68l-145 -8v86q67 0 109 4.5t67.5 12.5t39.5 17.5t26 20.5h59q2 -23 4.5 -52.5t4.5 -71.5q33 29 72.5 54t82.5 43.5t88.5 29t89.5 10.5q178 0 260 -111.5t82 -346.5v-382q0 -41 -1 -72.5t-7 -66.5l129 6v-84h-418v61q47 0 71.5 18.5t35.5 51.5
t12.5 79t1.5 101v286q-2 177 -58 266.5t-178 89.5q-37 0 -74 -11t-71 -28.5t-64 -41.5t-52 -52q1 -18 1 -38.5v-41.5l-2 -523q0 -41 -1 -72.5t-7 -66.5l129 6v-84h-418v61q47 0 71.5 18.5t35 51.5t12 79t2.5 101zM645 -115q24 -51 24 -106q0 -78 -44 -157.5t-117 -152.5
l-54 40q33 61 48.5 106.5t18.5 83.5t-2.5 74.5t-14.5 79.5z" />
    <glyph glyph-name="Ncaron" unicode="&#x147;" horiz-adv-x="1561" 
d="M1333 -33h-99l-889 1195h-3l7 -877q0 -53 -0.5 -103.5t-3.5 -99.5l148 8v-90h-375v68q47 0 74 16.5t40.5 40.5t17 52t3.5 52l2 1123l-137 -9v91h244l872 -1167h2l2 937q0 86 6 148l-147 -9v91h377v-68q-58 -2 -86.5 -21.5t-40 -52.5t-11 -78t0.5 -100zM793 1528h-4
l-377 289l45 69l340 -180h4l348 184l41 -65z" />
    <glyph glyph-name="ncaron" unicode="&#x148;" horiz-adv-x="1243" 
d="M214 778q0 32 1 65t7 68l-145 -8v86q67 0 109 4.5t67.5 12.5t39.5 17.5t26 20.5h59q2 -23 4.5 -52.5t4.5 -71.5q33 29 72.5 54t82.5 43.5t88.5 29t89.5 10.5q178 0 260 -111.5t82 -346.5v-382q0 -41 -1 -72.5t-7 -66.5l129 6v-84h-418v61q47 0 71.5 18.5t35.5 51.5
t12.5 79t1.5 101v286q-2 177 -58 266.5t-178 89.5q-37 0 -74 -11t-71 -28.5t-64 -41.5t-52 -52q1 -18 1 -38.5v-41.5l-2 -523q0 -41 -1 -72.5t-7 -66.5l129 6v-84h-418v61q47 0 71.5 18.5t35 51.5t12 79t2.5 101zM645 1174h-4l-305 333l55 66l261 -223h4l264 227l51 -59z
" />
    <glyph glyph-name="uni0149" unicode="&#x149;" horiz-adv-x="1243" 
d="M214 778q0 32 1 65t7 68l-145 -8v86q67 0 109 4.5t67.5 12.5t39.5 17.5t26 20.5h59q2 -23 4.5 -52.5t4.5 -71.5q33 29 72.5 54t82.5 43.5t88.5 29t89.5 10.5q178 0 260 -111.5t82 -346.5v-382q0 -41 -1 -72.5t-7 -66.5l129 6v-84h-418v61q47 0 71.5 18.5t35.5 51.5
t12.5 79t1.5 101v286q-2 177 -58 266.5t-178 89.5q-37 0 -74 -11t-71 -28.5t-64 -41.5t-52 -52q1 -18 1 -38.5v-41.5l-2 -523q0 -41 -1 -72.5t-7 -66.5l129 6v-84h-418v61q47 0 71.5 18.5t35 51.5t12 79t2.5 101zM131 1233q17 21 36 57t33.5 80t22.5 92.5t2 95.5
q-29 -13 -55.5 -11t-46.5 15t-31.5 35t-11.5 49q0 57 33 88t80 31q35 0 62 -14.5t45.5 -39.5t28 -59t9.5 -73t-11 -91.5t-31 -106.5t-48 -104.5t-62 -84.5z" />
    <glyph glyph-name="Omacron" unicode="&#x14c;" horiz-adv-x="1626" 
d="M295 754q0 -76 14 -157.5t42.5 -159.5t72 -148.5t103 -123t134 -83.5t166.5 -31q84 0 154 25.5t126 70t98 105t70 130t42.5 148.5t14.5 148q0 74 -16 164t-47 168.5t-76 147t-104 119t-131.5 79.5t-157.5 29q-126 0 -221 -56t-158 -146t-94.5 -202.5t-31.5 -226.5z
M94 717q0 86 19 175t58 172.5t98 156.5t138 128t179 86.5t221 31.5q125 0 227.5 -32t183.5 -86.5t140.5 -128t99 -157t59 -172.5t19.5 -174t-19.5 -173.5t-58 -172t-97.5 -157t-138.5 -128.5t-179 -87t-220.5 -32q-130 0 -234.5 31t-185.5 84.5t-139.5 126t-96 155.5
t-55.5 173.5t-18 179.5zM529 1844h543v-115l-543 -8v123z" />
    <glyph glyph-name="omacron" unicode="&#x14d;" horiz-adv-x="1198" 
d="M598 979q-81 0 -138.5 -36t-94.5 -96t-54.5 -138t-17.5 -162q0 -95 19.5 -185t59.5 -159.5t100.5 -111.5t141.5 -42t136.5 36.5t90 96.5t49.5 137t15 158q0 92 -17 182t-54 161t-95.5 115t-140.5 44zM598 1057q108 0 202 -39.5t163.5 -109t110 -165t40.5 -206.5
q0 -119 -39.5 -223t-109 -181t-164 -121.5t-203.5 -44.5q-108 0 -201.5 38.5t-163 107.5t-109.5 164.5t-40 209.5q0 121 39.5 225.5t108.5 181t163 120t203 43.5zM329 1434h543v-115l-543 -8v123z" />
    <glyph glyph-name="Ohungarumlaut" unicode="&#x150;" horiz-adv-x="1626" 
d="M296 754q0 -76 14 -157.5t42.5 -159.5t72 -148.5t103 -123t134 -83.5t166.5 -31q84 0 154 25.5t126 70t98 105t70 130t42.5 148.5t14.5 148q0 74 -16 164t-47 168.5t-76 147t-104 119t-131.5 79.5t-157.5 29q-126 0 -221 -56t-158 -146t-94.5 -202.5t-31.5 -226.5z
M95 717q0 86 19 175t58 172.5t98 156.5t138 128t179 86.5t221 31.5q125 0 227.5 -32t183.5 -86.5t140.5 -128t99 -157t59 -172.5t19.5 -174t-19.5 -173.5t-58 -172t-97.5 -157t-138.5 -128.5t-179 -87t-220.5 -32q-130 0 -234.5 31t-185.5 84.5t-139.5 126t-96 155.5
t-55.5 173.5t-18 179.5zM696 1839q24 42 59.5 52.5t67.5 -18.5q12 -11 18.5 -25.5t6 -30.5t-8.5 -33t-26 -33l-189 -170l-54 38zM1044 1843q14 13 30.5 19.5t33 5t31.5 -11t25 -28.5q9 -17 10.5 -34.5t-3.5 -33t-16 -28.5t-26 -20l-282 -130l-29 52z" />
    <glyph glyph-name="ohungarumlaut" unicode="&#x151;" horiz-adv-x="1198" 
d="M599 979q-81 0 -138.5 -36t-94.5 -96t-54.5 -138t-17.5 -162q0 -95 19.5 -185t59.5 -159.5t100.5 -111.5t141.5 -42t136.5 36.5t90 96.5t49.5 137t15 158q0 92 -17 182t-54 161t-95.5 115t-140.5 44zM599 1057q108 0 202 -39.5t163.5 -109t110 -165t40.5 -206.5
q0 -119 -39.5 -223t-109 -181t-164 -121.5t-203.5 -44.5q-108 0 -201.5 38.5t-163 107.5t-109.5 164.5t-40 209.5q0 121 39.5 225.5t108.5 181t163 120t203 43.5zM343 1196l-52 49l185 258q26 32 49 43.5t41 11.5q16 0 30.5 -6.5t23.5 -22t9 -31.5q0 -19 -11.5 -43.5
t-43.5 -55.5zM640 1214l-39 52l213 237q27 30 51 41.5t43 11.5q16 0 30.5 -6.5t22.5 -17.5t11 -21t3 -20q0 -22 -15.5 -46t-53.5 -50z" />
    <glyph glyph-name="OE" unicode="&#x152;" horiz-adv-x="2093" 
d="M1407 1358q-58 -2 -89.5 -17t-46.5 -44.5t-17.5 -74.5t-2.5 -108v-330h152q64 0 110 5t75 24t42.5 57.5t13.5 106.5h68v-447h-68q0 67 -13.5 104t-42.5 54t-75 20t-110 3q-35 0 -76.5 -2t-75.5 -7v-454q0 -57 -1.5 -95.5t-4.5 -64.5l393 -12h15q63 0 114.5 17t88 55.5
t56 100t19.5 150.5h71l-14 -399h-915q-82 -17 -153.5 -25t-131.5 -8q-162 0 -290.5 53t-218.5 147.5t-137.5 224t-47.5 282.5q0 96 19 191.5t57.5 182.5t97.5 162.5t139 131.5t181.5 89t225.5 36q28 0 61 -2.5t66.5 -7t67.5 -10.5t64 -13h844l10 -359h-68q0 88 -20.5 144
t-55.5 88t-83.5 43.5t-103.5 11.5h-13zM1073 1333q-60 26 -127 37t-127 11q-108 0 -203 -45.5t-166.5 -131t-113 -208.5t-41.5 -278q0 -149 40 -269t113 -205.5t175 -131.5t225 -46q57 0 109.5 7.5t115.5 24.5v1235z" />
    <glyph glyph-name="oe" unicode="&#x153;" horiz-adv-x="1806" 
d="M1708 602l-668 -12q0 -118 17 -213.5t55 -163t98.5 -104.5t147.5 -37q48 0 94.5 13t88.5 35.5t77.5 54t60.5 67.5l51 -41q-42 -64 -93.5 -108.5t-107 -72.5t-112 -40.5t-108.5 -12.5q-60 0 -116.5 13.5t-105.5 39.5t-89 65.5t-68 90.5h-2q-60 -97 -150.5 -153t-208.5 -56
q-107 0 -196 38.5t-153 107.5t-99 164.5t-35 209.5q0 121 34.5 225.5t98 181t152.5 120t198 43.5q125 0 216.5 -55.5t157.5 -161.5h2q28 46 66.5 85.5t86.5 68.5t103.5 46t117.5 17q85 0 156.5 -28t123 -85t80.5 -142.5t29 -199.5zM571 979q-77 0 -129.5 -36t-85 -96
t-47 -138t-14.5 -162q0 -95 15.5 -185t50 -159.5t89.5 -111.5t133 -42q84 0 136.5 41.5t81.5 107.5t39 147.5t10 162.5q0 74 -19 170.5t-52.5 160.5t-84.5 102t-123 38zM1309 977q-112 0 -176 -74.5t-87 -226.5h469q-1 58 -11.5 112t-34.5 95.5t-64 67.5t-96 26z" />
    <glyph glyph-name="Racute" unicode="&#x154;" horiz-adv-x="1286" 
d="M572 640q-34 -2 -69 -1.5t-70 3.5v-398q0 -56 -1.5 -96t-5.5 -66l148 8v-90h-461v68q58 2 87 21t41 52t12.5 78.5t0.5 99.5v885q0 42 1.5 79.5t5.5 68.5l-148 -9v91q116 2 233 3t236 -1q148 -3 253.5 -28.5t173 -72.5t99 -114t31.5 -152q0 -60 -16 -122.5t-59 -118.5
t-117.5 -100t-191.5 -68q40 -29 72 -74t70 -105l140 -219q26 -41 50 -76.5t52.5 -61.5t64 -41t83.5 -15v-68h-258q-30 26 -54 52t-45.5 54t-41.5 57.5t-42 63.5l-137 219q-14 22 -29 47.5t-32 51.5t-36 50.5t-40 44.5zM433 720q32 -2 61.5 -3.5t65.5 0.5q84 3 153.5 21.5
t120 57.5t78.5 100.5t28 150.5q0 154 -88.5 232.5t-277.5 78.5q-58 0 -87 -17.5t-41 -49.5t-12.5 -77t-0.5 -100v-394zM527 1556l-45 60l258 246q30 26 54.5 32t42 2.5t28 -12t13.5 -12.5q5 -7 10 -20.5t2 -31.5t-17 -39t-49 -42z" />
    <glyph glyph-name="racute" unicode="&#x155;" horiz-adv-x="887" 
d="M678 945q-39 1 -79 -14.5t-78.5 -45.5t-72.5 -72t-61 -93l2 -503q0 -41 -1 -72.5t-7 -66.5l129 6v-84h-420v61q47 0 71.5 18.5t35.5 51.5t12.5 79t1.5 101v468q0 32 1 64.5t7 67.5l-145 -6v84h63q44 0 73 4.5t48.5 12.5t32.5 17.5t25 20.5h59q3 -32 5.5 -79.5t4.5 -122.5
q23 38 59 76.5t81 69t97 50t107 19.5q28 0 54.5 -7.5t46 -23.5t31.5 -40t12 -58q0 -14 -5.5 -31t-18 -32t-31.5 -25t-47 -10q-23 0 -41.5 10t-31 25.5t-18 36t-2.5 43.5zM418 1188l-57 47l172 276q23 33 45.5 44.5t39 11.5t32 -6.5t25.5 -19.5t13.5 -24t3.5 -24
q0 -11 -3 -21t-6 -17q-9 -23 -35 -50z" />
    <glyph glyph-name="Rcommaaccent" unicode="&#x156;" horiz-adv-x="1286" 
d="M573 640q-34 -2 -69 -1.5t-70 3.5v-398q0 -56 -1.5 -96t-5.5 -66l148 8v-90h-461v68q58 2 87 21t41 52t12.5 78.5t0.5 99.5v885q0 42 1.5 79.5t5.5 68.5l-148 -9v91q116 2 233 3t236 -1q148 -3 253.5 -28.5t173 -72.5t99 -114t31.5 -152q0 -60 -16 -122.5t-59 -118.5
t-117.5 -100t-191.5 -68q40 -29 72 -74t70 -105l140 -219q26 -41 50 -76.5t52.5 -61.5t64 -41t83.5 -15v-68h-258q-30 26 -54 52t-45.5 54t-41.5 57.5t-42 63.5l-137 219q-14 22 -29 47.5t-32 51.5t-36 50.5t-40 44.5zM434 720q32 -2 61.5 -3.5t65.5 0.5q84 3 153.5 21.5
t120 57.5t78.5 100.5t28 150.5q0 154 -88.5 232.5t-277.5 78.5q-58 0 -87 -17.5t-41 -49.5t-12.5 -77t-0.5 -100v-394zM707 -115q24 -51 24 -106q0 -78 -44 -157.5t-117 -152.5l-54 40q33 61 48.5 106.5t18.5 83.5t-2.5 74.5t-14.5 79.5z" />
    <glyph glyph-name="rcommaaccent" unicode="&#x157;" horiz-adv-x="887" 
d="M679 945q-39 1 -79 -14.5t-78.5 -45.5t-72.5 -72t-61 -93l2 -503q0 -41 -1 -72.5t-7 -66.5l129 6v-84h-420v61q47 0 71.5 18.5t35.5 51.5t12.5 79t1.5 101v468q0 32 1 64.5t7 67.5l-145 -6v84h63q44 0 73 4.5t48.5 12.5t32.5 17.5t25 20.5h59q3 -32 5.5 -79.5t4.5 -122.5
q23 38 59 76.5t81 69t97 50t107 19.5q28 0 54.5 -7.5t46 -23.5t31.5 -40t12 -58q0 -14 -5.5 -31t-18 -32t-31.5 -25t-47 -10q-23 0 -41.5 10t-31 25.5t-18 36t-2.5 43.5zM467 -115q24 -51 24 -106q0 -78 -44 -157.5t-117 -152.5l-54 40q33 61 48.5 106.5t18.5 83.5
t-2.5 74.5t-14.5 79.5z" />
    <glyph glyph-name="Rcaron" unicode="&#x158;" horiz-adv-x="1286" 
d="M573 640q-34 -2 -69 -1.5t-70 3.5v-398q0 -56 -1.5 -96t-5.5 -66l148 8v-90h-461v68q58 2 87 21t41 52t12.5 78.5t0.5 99.5v885q0 42 1.5 79.5t5.5 68.5l-148 -9v91q116 2 233 3t236 -1q148 -3 253.5 -28.5t173 -72.5t99 -114t31.5 -152q0 -60 -16 -122.5t-59 -118.5
t-117.5 -100t-191.5 -68q40 -29 72 -74t70 -105l140 -219q26 -41 50 -76.5t52.5 -61.5t64 -41t83.5 -15v-68h-258q-30 26 -54 52t-45.5 54t-41.5 57.5t-42 63.5l-137 219q-14 22 -29 47.5t-32 51.5t-36 50.5t-40 44.5zM434 720q32 -2 61.5 -3.5t65.5 0.5q84 3 153.5 21.5
t120 57.5t78.5 100.5t28 150.5q0 154 -88.5 232.5t-277.5 78.5q-58 0 -87 -17.5t-41 -49.5t-12.5 -77t-0.5 -100v-394zM643 1528h-4l-377 289l45 69l340 -180h4l348 184l41 -65z" />
    <glyph glyph-name="rcaron" unicode="&#x159;" horiz-adv-x="887" 
d="M679 945q-39 1 -79 -14.5t-78.5 -45.5t-72.5 -72t-61 -93l2 -503q0 -41 -1 -72.5t-7 -66.5l129 6v-84h-420v61q47 0 71.5 18.5t35.5 51.5t12.5 79t1.5 101v468q0 32 1 64.5t7 67.5l-145 -6v84h63q44 0 73 4.5t48.5 12.5t32.5 17.5t25 20.5h59q3 -32 5.5 -79.5t4.5 -122.5
q23 38 59 76.5t81 69t97 50t107 19.5q28 0 54.5 -7.5t46 -23.5t31.5 -40t12 -58q0 -14 -5.5 -31t-18 -32t-31.5 -25t-47 -10q-23 0 -41.5 10t-31 25.5t-18 36t-2.5 43.5zM515 1174h-4l-305 333l55 66l261 -223h4l264 227l51 -59z" />
    <glyph glyph-name="Sacute" unicode="&#x15a;" horiz-adv-x="1161" 
d="M237 -16h-106l-12 436h79q6 -91 39 -159.5t86.5 -114.5t124.5 -69.5t152 -23.5q60 0 113.5 16.5t94 49t64 80.5t23.5 110q0 75 -33 129t-87.5 95.5t-124 75t-141.5 67t-141.5 71t-124 87t-87.5 115.5t-33 157q0 35 8 75t26.5 80t49 77.5t76.5 66t109 45.5t146 17
q40 0 85 -5t91.5 -17t92.5 -32.5t88 -51.5l-8 88h104v-449h-74q-5 74 -28.5 143.5t-68.5 123t-111 86t-156 32.5q-64 0 -113 -19.5t-82 -52.5t-50 -76.5t-17 -91.5q0 -70 33.5 -121.5t88.5 -91.5t125 -73t143 -66.5t143 -72t125 -89t88.5 -117.5t33.5 -158q0 -85 -32 -156.5
t-93 -123t-150.5 -80.5t-203.5 -29q-46 0 -94.5 6.5t-96 19.5t-92 33t-82.5 46zM444 1556l-45 60l258 246q30 26 54.5 32t42 2.5t28 -12t13.5 -12.5q5 -7 10 -20.5t2 -31.5t-17 -39t-49 -42z" />
    <glyph glyph-name="sacute" unicode="&#x15b;" horiz-adv-x="948" 
d="M474 47q39 0 78.5 9.5t72 29.5t53 50.5t20.5 72.5q0 49 -25.5 83.5t-67 61t-95 47.5t-109 43t-108.5 48.5t-94.5 62.5t-67 86t-25.5 119q0 43 16 94.5t56 96.5t107.5 75.5t170.5 30.5q28 0 59.5 -4t64.5 -14.5t66 -27.5t65 -42l-5 78h86v-359h-64q-4 53 -20.5 105
t-48 93.5t-79.5 67.5t-114 26q-48 0 -85 -12.5t-62.5 -34t-38.5 -49.5t-13 -59q0 -50 25.5 -86t67.5 -64t96 -50.5t110 -46t110 -50t96 -62.5t67.5 -84t25.5 -114q0 -77 -31 -134t-81.5 -94t-114 -55t-128.5 -18q-104 0 -183 27.5t-130 62.5l7 -71h-86l-12 352h63
q4 -64 29.5 -117.5t67 -92t95 -60t113.5 -21.5zM399 1188l-57 47l172 276q23 33 45.5 44.5t39 11.5t32 -6.5t25.5 -19.5t13.5 -24t3.5 -24q0 -11 -3 -21t-6 -17q-9 -23 -35 -50z" />
    <glyph glyph-name="Scedilla" unicode="&#x15e;" horiz-adv-x="1161" 
d="M917 1000q-5 74 -28.5 143.5t-68.5 123t-111 86t-156 32.5q-64 0 -113 -19.5t-82 -52.5t-50 -76.5t-17 -91.5q0 -70 33.5 -121.5t88.5 -91.5t125 -73t143 -66.5t143 -72t125 -89t88.5 -117.5t33.5 -158q0 -77 -26.5 -143.5t-77 -116.5t-124.5 -82.5t-170 -42.5l-41 -123
q29 18 67 27t73 9q63 0 100 -36.5t37 -98.5q0 -41 -20 -74t-53 -58.5t-75.5 -44t-87 -31.5t-88 -21.5t-78.5 -13.5l-12 69q52 9 97 23.5t78 34t52 44t19 54.5q0 31 -16.5 45t-40.5 16t-51.5 -6.5t-49.5 -23.5l-69 34l46 172q-43 2 -87.5 9.5t-87.5 20.5t-83.5 31.5
t-74.5 42.5l10 -88h-106l-12 436h79q6 -91 39 -159.5t86.5 -114.5t124.5 -69.5t152 -23.5q60 0 113.5 16.5t94 49t64 80.5t23.5 110q0 75 -33 129t-87.5 95.5t-124 75t-141.5 67t-141.5 71t-124 87t-87.5 115.5t-33 157q0 35 8 75t26.5 80t49 77.5t76.5 66t109 45.5t146 17
q40 0 85 -5t91.5 -17t92.5 -32.5t88 -51.5l-8 88h104v-449h-74z" />
    <glyph glyph-name="scedilla" unicode="&#x15f;" horiz-adv-x="948" 
d="M519 -152q29 18 67 27t73 9q63 0 100 -36.5t37 -98.5q0 -41 -20 -74t-53 -58.5t-75.5 -44t-87 -31.5t-88 -21.5t-78.5 -13.5l-12 69q52 9 97 23.5t78 34t52 44t19 54.5q0 31 -16.5 45t-40.5 16t-51.5 -6.5t-49.5 -23.5l-69 34l47 174q-82 8 -145 32.5t-106 54.5l7 -71
h-86l-12 352h63q4 -64 29.5 -117.5t67 -92t95 -60t113.5 -21.5q39 0 78.5 9.5t72 29.5t53 50.5t20.5 72.5q0 49 -25.5 83.5t-67 61t-95 47.5t-109 43t-108.5 48.5t-94.5 62.5t-67 86t-25.5 119q0 43 16 94.5t56 96.5t107.5 75.5t170.5 30.5q28 0 59.5 -4t64.5 -14.5
t66 -27.5t65 -42l-5 78h86v-359h-64q-4 53 -20.5 105t-48 93.5t-79.5 67.5t-114 26q-48 0 -85 -12.5t-62.5 -34t-38.5 -49.5t-13 -59q0 -50 25.5 -86t67.5 -64t96 -50.5t110 -46t110 -50t96 -62.5t67.5 -84t25.5 -114q0 -70 -25.5 -123t-68 -90t-97.5 -58t-114 -27z" />
    <glyph glyph-name="Scaron" unicode="&#x160;" horiz-adv-x="1161" 
d="M237 -16h-106l-12 436h79q6 -91 39 -159.5t86.5 -114.5t124.5 -69.5t152 -23.5q60 0 113.5 16.5t94 49t64 80.5t23.5 110q0 75 -33 129t-87.5 95.5t-124 75t-141.5 67t-141.5 71t-124 87t-87.5 115.5t-33 157q0 35 8 75t26.5 80t49 77.5t76.5 66t109 45.5t146 17
q40 0 85 -5t91.5 -17t92.5 -32.5t88 -51.5l-8 88h104v-449h-74q-5 74 -28.5 143.5t-68.5 123t-111 86t-156 32.5q-64 0 -113 -19.5t-82 -52.5t-50 -76.5t-17 -91.5q0 -70 33.5 -121.5t88.5 -91.5t125 -73t143 -66.5t143 -72t125 -89t88.5 -117.5t33.5 -158q0 -85 -32 -156.5
t-93 -123t-150.5 -80.5t-203.5 -29q-46 0 -94.5 6.5t-96 19.5t-92 33t-82.5 46zM565 1528h-4l-377 289l45 69l340 -180h4l348 184l41 -65z" />
    <glyph glyph-name="scaron" unicode="&#x161;" horiz-adv-x="948" 
d="M474 47q39 0 78.5 9.5t72 29.5t53 50.5t20.5 72.5q0 49 -25.5 83.5t-67 61t-95 47.5t-109 43t-108.5 48.5t-94.5 62.5t-67 86t-25.5 119q0 43 16 94.5t56 96.5t107.5 75.5t170.5 30.5q28 0 59.5 -4t64.5 -14.5t66 -27.5t65 -42l-5 78h86v-359h-64q-4 53 -20.5 105
t-48 93.5t-79.5 67.5t-114 26q-48 0 -85 -12.5t-62.5 -34t-38.5 -49.5t-13 -59q0 -50 25.5 -86t67.5 -64t96 -50.5t110 -46t110 -50t96 -62.5t67.5 -84t25.5 -114q0 -77 -31 -134t-81.5 -94t-114 -55t-128.5 -18q-104 0 -183 27.5t-130 62.5l7 -71h-86l-12 352h63
q4 -64 29.5 -117.5t67 -92t95 -60t113.5 -21.5zM467 1174h-4l-305 333l55 66l261 -223h4l264 227l51 -59z" />
    <glyph glyph-name="uni0162" unicode="&#x162;" horiz-adv-x="1311" 
d="M1186 1001q-2 91 -14 158.5t-42 112t-81 66.5t-130 21h-176v-1115q0 -110 -6 -162l170 8v-90h-188l-51 -152q29 18 67 27t73 9q63 0 100 -36.5t37 -98.5q0 -41 -20 -74t-53 -58.5t-75.5 -44t-87 -31.5t-88 -21.5t-78.5 -13.5l-12 69q52 9 97 23.5t78 34t52 44t19 54.5
q0 31 -16.5 45t-40.5 16t-51.5 -6.5t-49.5 -23.5l-69 34l55 204h-179v68q57 2 86 22t41 53.5t13 78.5t2 97v1037h-212q-65 0 -109.5 -21.5t-72.5 -65.5t-40.5 -110.5t-12.5 -157.5h-76l12 433h1194l12 -433h-77z" />
    <glyph glyph-name="uni0163" unicode="&#x163;" horiz-adv-x="793" 
d="M448 -152q29 18 67 27t73 9q63 0 100 -36.5t37 -98.5q0 -41 -20 -74t-53 -58.5t-75.5 -44t-87 -31.5t-88 -21.5t-78.5 -13.5l-12 69q52 9 97 23.5t78 34t52 44t19 54.5q0 31 -16.5 45t-40.5 16t-51.5 -6.5t-49.5 -23.5l-69 34l49 184q-36 11 -69.5 34.5t-58.5 66t-39 107
t-12 157.5v591h-157v88q54 1 98 29.5t77.5 71t56.5 92.5t36 94h70q0 -82 -0.5 -153t-0.5 -134h345v-80l-345 -4q-1 -133 -1 -227t-0.5 -157t-0.5 -99.5t-0.5 -55.5t-0.5 -24.5v-6.5q0 -70 7.5 -123.5t25.5 -90t47.5 -55t74.5 -18.5q53 0 105 32t92 91l55 -45
q-43 -63 -84.5 -101t-80 -58.5t-72 -27t-59.5 -7.5z" />
    <glyph glyph-name="Tcaron" unicode="&#x164;" horiz-adv-x="1311" 
d="M1187 1001q-2 91 -14 158.5t-42 112t-81 66.5t-130 22l-173 -1l-3 -1115q0 -110 -6 -162l170 8v-90h-481v68q57 2 86 22t41 53.5t12 78.5v97l3 1038l-212 -1q-65 0 -109.5 -21.5t-72.5 -65.5t-40.5 -110.5t-12.5 -157.5h-76l12 433h1194l12 -433h-77zM653 1528h-4
l-377 289l45 69l340 -180h4l348 184l41 -65z" />
    <glyph glyph-name="tcaron" unicode="&#x165;" horiz-adv-x="793" 
d="M757 1584q17 -36 22 -61.5t1 -61.5q-4 -41 -18.5 -81.5t-37 -79t-51.5 -74.5t-61 -68l-54 40q34 64 51.5 119.5t23 105.5t0 96t-16.5 92zM381 1311q0 -82 -0.5 -153t-0.5 -134h345v-80l-345 -4q-1 -133 -1 -227t-0.5 -157t-0.5 -99.5t-0.5 -55.5t-0.5 -24.5v-6.5
q0 -70 7.5 -123.5t25.5 -90t47.5 -55t74.5 -18.5q53 0 105 32t92 91l55 -45q-45 -68 -89.5 -106.5t-84.5 -58t-74.5 -24.5t-60.5 -5q-31 0 -63.5 5t-63.5 19.5t-58.5 41t-48 68.5t-32 102t-9.5 142v591h-157v88q54 1 98 29.5t77.5 71t56.5 92.5t36 94h70z" />
    <glyph glyph-name="Umacron" unicode="&#x16a;" horiz-adv-x="1540" 
d="M1332 639q-1 -134 -29.5 -255.5t-93 -214t-169.5 -147.5t-259 -55q-164 0 -275 43t-178.5 132.5t-96.5 227.5t-29 328v416q0 27 0.5 60t2 66t2.5 62.5t3 49.5l-147 -6v88h460v-68q-52 0 -80.5 -17.5t-42 -42.5t-16 -53t-2.5 -49v-516q0 -76 6 -150.5t22.5 -141.5t46 -124
t76.5 -99t114 -65.5t159 -23.5q111 0 190.5 40t131 112.5t76 172.5t26.5 220l8 575q0 86 6 148l-147 -9v91h381v-68q-58 -2 -87.5 -21.5t-41.5 -52.5t-12.5 -78t-0.5 -100zM529 1844h543v-115l-543 -8v123z" />
    <glyph glyph-name="umacron" unicode="&#x16b;" horiz-adv-x="1223" 
d="M850 755q0 50 2 85.5t8 70.5l-147 -6v84h63q44 0 75 4.5t53 12.5t36.5 17.5t26.5 20.5h59l-2 -774q0 -16 -0.5 -40.5t-1.5 -51t-2.5 -53t-3.5 -47.5l147 8v-86h-293q-5 35 -8.5 64.5t-5.5 58.5q-32 -32 -71 -60.5t-82.5 -49.5t-89.5 -33.5t-91 -12.5q-84 0 -147 22.5
t-105 74.5t-63 137.5t-21 212.5v364q0 32 1 65t7 68l-141 -6v84h64q43 0 74 4.5t53 12.5t36.5 17.5t26.5 20.5h59v-624q0 -89 12 -154.5t38.5 -109t68.5 -64t103 -20.5q39 0 76.5 13t71.5 35t63.5 50t50.5 60v85v440zM311 1434h543v-115l-543 -8v123z" />
    <glyph glyph-name="Uring" unicode="&#x16e;" horiz-adv-x="1540" 
d="M1333 639q-1 -134 -29.5 -255.5t-93 -214t-169.5 -147.5t-259 -55q-164 0 -275 43t-178.5 132.5t-96.5 227.5t-29 328v416q0 27 0.5 60t2 66t2.5 62.5t3 49.5l-147 -6v88h460v-68q-52 0 -80.5 -17.5t-42 -42.5t-16 -53t-2.5 -49v-516q0 -76 6 -150.5t22.5 -141.5t46 -124
t76.5 -99t114 -65.5t159 -23.5q111 0 190.5 40t131 112.5t76 172.5t26.5 220l8 575q0 86 6 148l-147 -9v91h381v-68q-58 -2 -87.5 -21.5t-41.5 -52.5t-12.5 -78t-0.5 -100zM794 1905q-35 0 -63 -31.5t-28 -91.5q0 -29 6.5 -54.5t19 -45t30.5 -30.5t41 -11q38 0 63 32.5
t25 88.5q0 66 -24.5 104.5t-69.5 38.5zM794 1969q36 0 71.5 -11t64 -34t47.5 -60.5t19 -79.5q0 -52 -16.5 -88t-44.5 -63t-63.5 -41.5t-73.5 -14.5t-74.5 11.5t-65 35.5t-46 60.5t-17.5 87.5q0 44 17.5 80t45.5 62t63.5 40.5t72.5 14.5z" />
    <glyph glyph-name="uring" unicode="&#x16f;" horiz-adv-x="1223" 
d="M851 755q0 50 2 85.5t8 70.5l-147 -6v84h63q44 0 75 4.5t53 12.5t36.5 17.5t26.5 20.5h59l-2 -774q0 -16 -0.5 -40.5t-1.5 -51t-2.5 -53t-3.5 -47.5l147 8v-86h-293q-5 35 -8.5 64.5t-5.5 58.5q-32 -32 -71 -60.5t-82.5 -49.5t-89.5 -33.5t-91 -12.5q-84 0 -147 22.5
t-105 74.5t-63 137.5t-21 212.5v364q0 32 1 65t7 68l-141 -6v84h64q43 0 74 4.5t53 12.5t36.5 17.5t26.5 20.5h59v-624q0 -89 12 -154.5t38.5 -109t68.5 -64t103 -20.5q39 0 76.5 13t71.5 35t63.5 50t50.5 60v85v440zM585 1495q-35 0 -63 -31.5t-28 -91.5q0 -29 6.5 -54.5
t19 -45t30.5 -30.5t41 -11q38 0 63 32.5t25 88.5q0 66 -24.5 104.5t-69.5 38.5zM585 1559q36 0 71.5 -11t64 -34t47.5 -60.5t19 -79.5q0 -52 -16.5 -88t-44.5 -63t-63.5 -41.5t-73.5 -14.5t-74.5 11.5t-65 35.5t-46 60.5t-17.5 87.5q0 44 17.5 80t45.5 62t63.5 40.5
t72.5 14.5z" />
    <glyph glyph-name="Uhungarumlaut" unicode="&#x170;" horiz-adv-x="1540" 
d="M1333 639q-1 -134 -29.5 -255.5t-93 -214t-169.5 -147.5t-259 -55q-164 0 -275 43t-178.5 132.5t-96.5 227.5t-29 328v416q0 27 0.5 60t2 66t2.5 62.5t3 49.5l-147 -6v88h460v-68q-52 0 -80.5 -17.5t-42 -42.5t-16 -53t-2.5 -49v-516q0 -76 6 -150.5t22.5 -141.5t46 -124
t76.5 -99t114 -65.5t159 -23.5q111 0 190.5 40t131 112.5t76 172.5t26.5 220l8 575q0 86 6 148l-147 -9v91h381v-68q-58 -2 -87.5 -21.5t-41.5 -52.5t-12.5 -78t-0.5 -100zM694 1839q24 42 59.5 52.5t67.5 -18.5q12 -11 18.5 -25.5t6 -30.5t-8.5 -33t-26 -33l-189 -170
l-54 38zM1042 1843q14 13 30.5 19.5t33 5t31.5 -11t25 -28.5q9 -17 10.5 -34.5t-3.5 -33t-16 -28.5t-26 -20l-282 -130l-29 52z" />
    <glyph glyph-name="uhungarumlaut" unicode="&#x171;" horiz-adv-x="1223" 
d="M851 755q0 50 2 85.5t8 70.5l-147 -6v84h63q44 0 75 4.5t53 12.5t36.5 17.5t26.5 20.5h59l-2 -774q0 -16 -0.5 -40.5t-1.5 -51t-2.5 -53t-3.5 -47.5l147 8v-86h-293q-5 35 -8.5 64.5t-5.5 58.5q-32 -32 -71 -60.5t-82.5 -49.5t-89.5 -33.5t-91 -12.5q-84 0 -147 22.5
t-105 74.5t-63 137.5t-21 212.5v364q0 32 1 65t7 68l-141 -6v84h64q43 0 74 4.5t53 12.5t36.5 17.5t26.5 20.5h59v-624q0 -89 12 -154.5t38.5 -109t68.5 -64t103 -20.5q39 0 76.5 13t71.5 35t63.5 50t50.5 60v85v440zM329 1196l-52 49l185 258q26 32 49 43.5t41 11.5
q16 0 30.5 -6.5t23.5 -22t9 -31.5q0 -19 -11.5 -43.5t-43.5 -55.5zM626 1214l-39 52l213 237q27 30 51 41.5t43 11.5q16 0 30.5 -6.5t22.5 -17.5t11 -21t3 -20q0 -22 -15.5 -46t-53.5 -50z" />
    <glyph glyph-name="Uogonek" unicode="&#x172;" horiz-adv-x="1540" 
d="M1478 1366q-58 -2 -87.5 -21.5t-42 -52.5t-14 -78t-2.5 -100v-475q-1 -104 -18 -200.5t-54 -179t-96.5 -146.5t-144.5 -101l-3 -1q-8 -3 -15.5 -6t-15.5 -6q-49 -20 -92 -47t-75 -60.5t-50.5 -74t-18.5 -86.5q0 -32 10.5 -58t27.5 -44t40 -28t49 -10q37 0 70.5 15.5
t62.5 40.5l35 -37q-20 -24 -46.5 -47t-58 -41.5t-67 -29.5t-72.5 -11q-49 0 -89 15.5t-68.5 43t-44 66t-15.5 84.5q0 41 15.5 79.5t43 73.5t65.5 66t82 58h-8q-164 0 -275 43t-178.5 132.5t-96.5 227.5t-29 328v416q0 27 0.5 60t2 66t2.5 62.5t3 49.5l-147 -6v88h460v-68
q-52 0 -80.5 -17.5t-42 -42.5t-16 -53t-2.5 -49v-516q0 -76 6 -150.5t22.5 -141.5t46 -124t76.5 -99t114 -65.5t159 -23.5q111 0 190.5 40t131 112.5t76 172.5t26.5 220l8 575q0 86 6 148l-147 -9v91h381v-68z" />
    <glyph glyph-name="uogonek" unicode="&#x173;" horiz-adv-x="1223" 
d="M1188 -401q-20 -24 -46.5 -47t-58 -41.5t-67 -29.5t-72.5 -11q-49 0 -89 15.5t-68.5 43t-44 66t-15.5 84.5q0 51 23 97t63 86.5t92 75.5t111 62h-146q-5 35 -8.5 64.5t-5.5 58.5q-32 -32 -71 -60.5t-82.5 -49.5t-89.5 -33.5t-91 -12.5q-84 0 -147 22.5t-105 74.5
t-63 137.5t-21 212.5v364q0 32 1 65t7 68l-141 -6v84h64q43 0 74 4.5t53 12.5t36.5 17.5t26.5 20.5h59v-624q0 -89 12 -154.5t38.5 -109t68.5 -64.5t103 -20q39 0 76.5 13t71.5 35t63.5 50t50.5 60v525q0 50 2 85.5t8 70.5l-147 -6v84h63q44 0 75 4.5t53 12.5t36.5 17.5
t26.5 20.5h57v-774q0 -16 -0.5 -40.5t-1.5 -51t-2.5 -53t-3.5 -47.5l147 8v-86h-3q-54 -20 -102.5 -47t-85 -62t-58 -78t-21.5 -93q0 -32 10.5 -58t27.5 -44t40 -28t49 -10q37 0 70.5 15.5t62.5 40.5z" />
    <glyph glyph-name="Ydieresis" unicode="&#x178;" horiz-adv-x="1298" 
d="M581 553l-355 563q-53 82 -78 137.5t-33 94.5l-127 -5v91h528v-68q-71 0 -108 -16.5t-47.5 -46t3 -70.5t44.5 -90q38 -61 72 -115.5t68 -107.5t70.5 -108t80.5 -116h4q229 436 273 516t58 101t29 37l-162 -7v91h418v-68q-51 -3 -91 -20t-75 -49.5t-67.5 -81
t-326.5 -601.5q-1 -99 -1.5 -234.5t0.5 -135.5q0 -110 -6 -162l170 8v-90h-481v68q57 2 86 22t41 53.5t12 78.5v97zM949 1718q0 -27 -9 -50.5t-24.5 -41t-36 -27.5t-42.5 -10q-23 0 -43 10t-35 27.5t-24 41t-9 50.5t9 51t25 42t36 28.5t43 10.5t43 -10.5t35 -28.5t23.5 -42
t8.5 -51zM581 1718q0 -27 -9 -50.5t-24.5 -41t-36 -27.5t-42.5 -10q-23 0 -43 10t-35 27.5t-24 41t-9 50.5t9 51t25 42t36 28.5t43 10.5t43 -10.5t35 -28.5t23.5 -42t8.5 -51z" />
    <glyph glyph-name="Zacute" unicode="&#x179;" horiz-adv-x="1249" 
d="M88 94q58 81 131 184t163.5 234.5t198 295.5t234.5 366q29 46 61 92.5t70 91.5l-522 -8q-61 -3 -106 -23.5t-75 -62t-45 -104.5t-15 -150h-70l12 424h1016v-72l-735 -1116q-23 -33 -41.5 -58t-35 -45t-32 -36t-31.5 -31l498 8q67 1 125.5 21t101 61.5t67 104.5t24.5 149
h69l-12 -420h-1051v94zM512 1556l-45 60l258 246q30 26 54.5 32t42 2.5t28 -12t13.5 -12.5q5 -7 10 -20.5t2 -31.5t-17 -39t-49 -42z" />
    <glyph glyph-name="zacute" unicode="&#x17a;" horiz-adv-x="1047" 
d="M82 0v84q620 798 635.5 816t29 32t23.5 20l-385 -6q-57 -1 -94 -24t-59.5 -62t-34.5 -91.5t-21 -111.5h-63l24 367h803v-66l-577 -759q-13 -17 -24.5 -31t-23.5 -27.5t-26 -27t-33 -29.5l395 -6q64 -1 107 22t71 63t43.5 94t24.5 116h60l-25 -373h-850zM439 1188l-57 47
l172 276q23 33 45.5 44.5t39 11.5t32 -6.5t25.5 -19.5t13.5 -24t3.5 -24q0 -11 -3 -21t-6 -17q-9 -23 -35 -50z" />
    <glyph glyph-name="Zdotaccent" unicode="&#x17b;" horiz-adv-x="1249" 
d="M88 94q58 81 131 184t163.5 234.5t198 295.5t234.5 366q29 46 61 92.5t70 91.5l-522 -8q-61 -3 -106 -23.5t-75 -62t-45 -104.5t-15 -150h-70l12 424h1016v-72l-735 -1116q-23 -33 -41.5 -58t-35 -45t-32 -36t-31.5 -31l498 8q67 1 125.5 21t101 61.5t67 104.5t24.5 149
h69l-12 -420h-1051v94zM733.545 1777.4q0 -24.9072 -9.23047 -47.0469t-24.4619 -38.7441t-35.0781 -25.8291q-19.8467 -9.22559 -42.001 -9.22559t-42 9.22559q-19.8467 9.22461 -35.0781 25.8291q-15.2305 16.6045 -24 38.7441t-8.76953 47.0469
q0 25.8301 9.23047 48.4307q9.23145 22.6006 24.4619 39.2061q15.2314 16.6045 35.54 26.29q20.3076 9.68652 42.4619 9.68652q23.0771 0 42.9238 -9.68652q19.8467 -9.68555 34.6162 -26.29q14.7695 -16.6055 23.0771 -39.2061t8.30762 -48.4307z" />
    <glyph glyph-name="zdotaccent" unicode="&#x17c;" horiz-adv-x="1047" 
d="M82 0v84q620 798 635.5 816t29 32t23.5 20l-385 -6q-57 -1 -94 -24t-59.5 -62t-34.5 -91.5t-21 -111.5h-63l24 367h803v-66l-577 -759q-13 -17 -24.5 -31t-23.5 -27.5t-26 -27t-33 -29.5l395 -6q64 -1 107 22t71 63t43.5 94t24.5 116h60l-25 -373h-850zM654.545 1368.4
q0 -24.9072 -9.23047 -47.0469t-24.4619 -38.7441t-35.0781 -25.8291q-19.8467 -9.22559 -42.001 -9.22559t-42 9.22559q-19.8467 9.22461 -35.0781 25.8291q-15.2305 16.6045 -24 38.7441t-8.76953 47.0469q0 25.8301 9.23047 48.4307q9.23145 22.6006 24.4619 39.2061
q15.2314 16.6045 35.54 26.29q20.3076 9.68652 42.4619 9.68652q23.0771 0 42.9238 -9.68652q19.8467 -9.68555 34.6162 -26.29q14.7695 -16.6055 23.0771 -39.2061t8.30762 -48.4307z" />
    <glyph glyph-name="Zcaron" unicode="&#x17d;" horiz-adv-x="1249" 
d="M88 94q58 81 131 184t163.5 234.5t198 295.5t234.5 366q29 46 61 92.5t70 91.5l-522 -8q-61 -3 -106 -23.5t-75 -62t-45 -104.5t-15 -150h-70l12 424h1016v-72l-735 -1116q-23 -33 -41.5 -58t-35 -45t-32 -36t-31.5 -31l498 8q67 1 125.5 21t101 61.5t67 104.5t24.5 149
h69l-12 -420h-1051v94zM610 1528h-4l-377 289l45 69l340 -180h4l348 184l41 -65z" />
    <glyph glyph-name="zcaron" unicode="&#x17e;" horiz-adv-x="1047" 
d="M82 0v84q620 798 635.5 816t29 32t23.5 20l-385 -6q-57 -1 -94 -24t-59.5 -62t-34.5 -91.5t-21 -111.5h-63l24 367h803v-66l-577 -759q-13 -17 -24.5 -31t-23.5 -27.5t-26 -27t-33 -29.5l395 -6q64 -1 107 22t71 63t43.5 94t24.5 116h60l-25 -373h-850zM501 1174h-4
l-305 333l55 66l261 -223h4l264 227l51 -59z" />
    <glyph glyph-name="florin" unicode="&#x192;" horiz-adv-x="702" 
d="M690 946l-294 -4q-8 -106 -12.5 -222t-14.5 -237q-10 -124 -18.5 -249.5t-24 -240.5t-43 -215t-75.5 -174t-120.5 -116.5t-177.5 -42.5q-33 0 -62 7.5t-50.5 21.5t-33.5 33.5t-12 44.5q0 42 21.5 68t66.5 26q38 0 60 -26t22 -64q0 -11 -1 -16q13 -10 30 -12.5t28 -2.5
q48 0 80.5 37.5t53.5 104.5t34 159t21.5 200.5t15.5 229t17 245.5q8 111 15.5 222t19.5 217l-178 -2l10 88h179q16 112 44.5 208.5t76.5 168t119.5 112.5t173.5 41q24 0 51 -6t49.5 -19t37 -33.5t14.5 -49.5q0 -34 -20 -60t-62 -26q-38 0 -61 24t-23 62q0 5 0.5 10t1.5 10
q-17 10 -45 10q-52 0 -87.5 -33t-58.5 -93t-36 -143t-20 -183h294z" />
    <glyph glyph-name="Scommaaccent" unicode="&#x218;" horiz-adv-x="1161" 
d="M238 -16h-106l-12 436h79q6 -91 39 -159.5t86.5 -114.5t124.5 -69.5t152 -23.5q60 0 113.5 16.5t94 49t64 80.5t23.5 110q0 75 -33 129t-87.5 95.5t-124 75t-141.5 67t-141.5 71t-124 87t-87.5 115.5t-33 157q0 35 8 75t26.5 80t49 77.5t76.5 66t109 45.5t146 17
q40 0 85 -5t91.5 -17t92.5 -32.5t88 -51.5l-8 88h104v-449h-74q-5 74 -28.5 143.5t-68.5 123t-111 86t-156 32.5q-64 0 -113 -19.5t-82 -52.5t-50 -76.5t-17 -91.5q0 -70 33.5 -121.5t88.5 -91.5t125 -73t143 -66.5t143 -72t125 -89t88.5 -117.5t33.5 -158q0 -85 -32 -156.5
t-93 -123t-150.5 -80.5t-203.5 -29q-46 0 -94.5 6.5t-96 19.5t-92 33t-82.5 46zM725 -115q24 -51 24 -106q0 -78 -44 -157.5t-117 -152.5l-54 40q33 61 48.5 106.5t18.5 83.5t-2.5 74.5t-14.5 79.5z" />
    <glyph glyph-name="scommaaccent" unicode="&#x219;" horiz-adv-x="948" 
d="M475 47q39 0 78.5 9.5t72 29.5t53 50.5t20.5 72.5q0 49 -25.5 83.5t-67 61t-95 47.5t-109 43t-108.5 48.5t-94.5 62.5t-67 86t-25.5 119q0 43 16 94.5t56 96.5t107.5 75.5t170.5 30.5q28 0 59.5 -4t64.5 -14.5t66 -27.5t65 -42l-5 78h86v-359h-64q-4 53 -20.5 105
t-48 93.5t-79.5 67.5t-114 26q-48 0 -85 -12.5t-62.5 -34t-38.5 -49.5t-13 -59q0 -50 25.5 -86t67.5 -64t96 -50.5t110 -46t110 -50t96 -62.5t67.5 -84t25.5 -114q0 -77 -31 -134t-81.5 -94t-114 -55t-128.5 -18q-104 0 -183 27.5t-130 62.5l7 -71h-86l-12 352h63
q4 -64 29.5 -117.5t67 -92t95 -60t113.5 -21.5zM612 -115q24 -51 24 -106q0 -78 -44 -157.5t-117 -152.5l-54 40q33 61 48.5 106.5t18.5 83.5t-2.5 74.5t-14.5 79.5z" />
    <glyph glyph-name="uni021A" unicode="&#x21a;" horiz-adv-x="1311" 
d="M1187 1001q-2 91 -14 158.5t-42 112t-81 66.5t-130 22l-173 -1l-3 -1115q0 -110 -6 -162l170 8v-90h-481v68q57 2 86 22t41 53.5t12 78.5v97l3 1038l-212 -1q-65 0 -109.5 -21.5t-72.5 -65.5t-40.5 -110.5t-12.5 -157.5h-76l12 433h1194l12 -433h-77zM761 -115
q24 -51 24 -106q0 -78 -44 -157.5t-117 -152.5l-54 40q33 61 48.5 106.5t18.5 83.5t-2.5 74.5t-14.5 79.5z" />
    <glyph glyph-name="uni021B" unicode="&#x21b;" horiz-adv-x="793" 
d="M44 1024q54 1 98 29.5t77.5 71t56.5 92.5t36 94h70q0 -82 -0.5 -153t-0.5 -134h345v-80l-345 -4q-1 -133 -1 -227t-0.5 -157t-0.5 -99.5t-0.5 -55.5t-0.5 -24.5v-6.5q0 -70 7.5 -123.5t25.5 -90t47.5 -55t74.5 -18.5q53 0 105 32t92 91l55 -45q-45 -68 -89.5 -106.5
t-84.5 -58t-74.5 -24.5t-60.5 -5q-31 0 -63.5 5t-64 19.5t-59 41t-48.5 68.5t-33 102t-11 142l4 592l-157 -1v88zM541 -115q24 -51 24 -106q0 -78 -44 -157.5t-117 -152.5l-54 40q33 61 48.5 106.5t18.5 83.5t-2.5 74.5t-14.5 79.5z" />
    <glyph glyph-name="circumflex" unicode="&#x2c6;" horiz-adv-x="819" 
d="M418 1593h4l305 -333l-55 -66l-260 223h-4l-265 -209l-51 60z" />
    <glyph glyph-name="caron" unicode="&#x2c7;" horiz-adv-x="819" 
d="M401 1174h-4l-305 333l55 66l261 -223h4l264 227l51 -59z" />
    <glyph glyph-name="uni02C9" unicode="&#x2c9;" horiz-adv-x="600" 
d="M22 1226v123h543v-115z" />
    <glyph glyph-name="breve" unicode="&#x2d8;" horiz-adv-x="743" 
d="M369 1237q-40 0 -81 14.5t-78.5 44t-68 74t-49.5 105.5l60 30q15 -28 38.5 -54t53 -45.5t63 -31.5t68.5 -12t68.5 12.5t62.5 33t52 47t38 54.5l55 -24q-39 -108 -97 -169q-76 -79 -185 -79z" />
    <glyph glyph-name="dotaccent" unicode="&#x2d9;" horiz-adv-x="406" 
d="M314.545 1368.4q0 -24.9072 -9.23047 -47.0469t-24.4619 -38.7441t-35.0781 -25.8291q-19.8467 -9.22559 -42.001 -9.22559t-42 9.22559q-19.8467 9.22461 -35.0781 25.8291q-15.2305 16.6045 -24 38.7441t-8.76953 47.0469q0 25.8301 9.23047 48.4307
q9.23145 22.6006 24.4619 39.2061q15.2314 16.6045 35.54 26.29q20.3076 9.68652 42.4619 9.68652q23.0771 0 42.9238 -9.68652q19.8467 -9.68555 34.6162 -26.29q14.7695 -16.6055 23.0771 -39.2061t8.30762 -48.4307z" />
    <glyph glyph-name="ring" unicode="&#x2da;" horiz-adv-x="651" 
d="M324 1495q-35 0 -63 -31.5t-28 -91.5q0 -29 6.5 -54.5t19 -45t30.5 -30.5t41 -11q38 0 63 32.5t25 88.5q0 66 -24.5 104.5t-69.5 38.5zM324 1559q36 0 71.5 -11t64 -34t47.5 -60.5t19 -79.5q0 -52 -16.5 -88t-44.5 -63t-63.5 -41.5t-73.5 -14.5t-74.5 11.5t-65 35.5
t-46 60.5t-17.5 87.5q0 44 17.5 80t45.5 62t63.5 40.5t72.5 14.5z" />
    <glyph glyph-name="ogonek" unicode="&#x2db;" horiz-adv-x="645" 
d="M528 50q-54 -23 -103 -55t-86 -73.5t-59 -92t-22 -110.5q0 -32 10.5 -58t27.5 -44t40 -28t49 -10q37 0 70.5 15.5t62.5 40.5l35 -37q-20 -24 -46.5 -47t-58 -41.5t-67 -29.5t-72.5 -11q-49 0 -89 15.5t-68.5 43t-44 66t-15.5 84.5q0 75 38.5 141.5t101 121t140.5 96
t156 67.5v-54z" />
    <glyph glyph-name="tilde" unicode="&#x2dc;" horiz-adv-x="831" 
d="M283 1364q-38 0 -79.5 -20.5t-70.5 -65.5l-61 35q13 36 36.5 67.5t52.5 55.5t60 38t60 15q48 0 84 -17t66 -37.5t58 -37.5t62 -17q45 0 85 27t64 72l60 -31q-17 -51 -41.5 -87.5t-53 -60.5t-58 -35.5t-56.5 -11.5q-48 0 -85 17.5t-68.5 38t-59 38t-55.5 17.5z" />
    <glyph glyph-name="hungarumlaut" unicode="&#x2dd;" horiz-adv-x="797" 
d="M113 1196l-52 49l185 258q26 32 49 43.5t41 11.5q16 0 30.5 -6.5t23.5 -22t9 -31.5q0 -19 -11.5 -43.5t-43.5 -55.5zM410 1214l-39 52l213 237q27 30 51 41.5t43 11.5q16 0 30.5 -6.5t22.5 -17.5t11 -21t3 -20q0 -22 -15.5 -46t-53.5 -50z" />
    <glyph glyph-name="Gamma" unicode="&#x393;" horiz-adv-x="1122" 
d="M1006 1075q0 91 -22.5 147.5t-61 88t-90 42t-109.5 9.5l-149 -4q-57 -2 -86.5 -21.5t-41.5 -53t-12.5 -79t-0.5 -98.5v-862q0 -56 -1.5 -96t-5.5 -66l209 8v-90h-522v68q58 2 87 21t41 52t12.5 78.5t0.5 99.5v885q0 42 1.5 79.5t5.5 68.5l-148 -9v91h950l11 -359h-68z
" />
    <glyph glyph-name="Delta" unicode="&#x394;" horiz-adv-x="1430" 
d="M780 1467l594 -1467h-1317l560 1467h163zM226 124l921 -6l-474 1216z" />
    <glyph glyph-name="Pi" unicode="&#x3a0;" horiz-adv-x="1557" 
d="M1445 1366q-57 -2 -86.5 -21.5t-41.5 -52.5t-12.5 -78t-0.5 -100v-870q0 -110 -6 -162l147 8v-90h-461v68q58 2 87.5 21t41.5 52t12.5 78.5t0.5 99.5v1034l-557 -7q-44 -2 -70 -14.5t-40.5 -33.5t-19.5 -50.5t-6 -65.5v-938q0 -56 -1.5 -96t-5.5 -66l148 8v-90h-461v68
q58 2 87 21t41 52t12.5 78.5t0.5 99.5v885q0 42 1.5 79.5t5.5 68.5l-148 -9v91h1332v-68z" />
    <glyph glyph-name="Omega" unicode="&#x3a9;" horiz-adv-x="1599" 
d="M910 154q67 18 131.5 67.5t115.5 126t82 176t31 217.5q0 82 -13.5 161.5t-40 151t-66.5 132t-92.5 105t-117.5 69.5t-143 25t-143.5 -24.5t-119 -67t-94 -101t-67.5 -127t-41 -143t-14 -150.5q0 -143 35.5 -254.5t91.5 -189.5t124.5 -122t135.5 -52v-154h-538l-11 276h62
q0 -44 15 -72t46 -44t78.5 -21.5t112.5 -5.5h145v2q-102 28 -193 88.5t-158.5 144.5t-107 188t-39.5 220q0 81 18.5 163.5t55.5 159.5t93.5 144t132.5 117t171 78.5t211 28.5q120 0 217 -29t172 -79t130 -117t90 -144t52 -159.5t17 -162.5q0 -115 -44.5 -217t-115.5 -185.5
t-159 -144.5t-176 -94v-2h170q65 0 112.5 5.5t78.5 21.5t46 44t15 72h61l-12 -276h-543v154z" />
    <glyph glyph-name="pi" unicode="&#x3c0;" horiz-adv-x="1186" 
d="M136 145q42 0 76 -31q32 10 54 57.5t35.5 118t20.5 156t10 170.5t3 162v132q-39 0 -69 -2.5t-55.5 -7.5t-49 -13.5t-49.5 -21.5l-33 45q22 26 49.5 51t61.5 44.5t75 31.5t89 12q79 0 155.5 -6t145.5 -13.5t127.5 -13.5t101.5 -6q27 0 50.5 2t46.5 7.5t48 14.5t54 23
l35 -43q-11 -15 -27.5 -33t-38 -36t-48 -34t-56.5 -26l-2 -617q0 -53 5 -89.5t16.5 -59t28 -32.5t38.5 -10q14 0 32.5 6t36.5 19l25 -33q-13 -18 -34 -36t-46.5 -32.5t-54.5 -24t-58 -9.5q-54 0 -87 22.5t-51 55.5t-24 69.5t-6 65.5q0 4 0.5 45.5t0.5 105t1 141t1 153
t0.5 141.5t0.5 107q-99 5 -184 17t-168 17v-123t-1.5 -138t-4 -143t-8.5 -138t-15 -122.5t-22 -95.5q-15 -44 -38.5 -77.5t-52 -56.5t-61.5 -34.5t-67 -11.5q-39 0 -68.5 22.5t-29.5 68.5q0 24 9 41t21.5 27t27.5 14.5t27 4.5z" />
    <glyph glyph-name="uni0400" unicode="&#x400;" 
d="M434 236q0 -57 -1.5 -95.5t-5.5 -64.5l392 6q67 1 121 16.5t92.5 52t59.5 97t21 151.5h70l-12 -399h-1057v68q49 1 77.5 15.5t42.5 39.5t17.5 59.5t3.5 76.5v60v885q0 42 1.5 79.5t5.5 68.5l-148 -9v91h985l10 -359h-67q0 88 -20.5 144t-56 88t-83.5 43.5t-104 11.5
l-189 -3q-57 -3 -88.5 -18t-46.5 -44.5t-17.5 -74.5t-2.5 -108v-330h384l-15 177h91v-431h-67q0 60 -10.5 95.5t-33 55t-57 25.5t-83.5 6h-29t-180 -7v-469zM509 1815q-26 27 -35 50q-3 7 -6 17t-3 21q0 13 3.5 24t13.5 24t25.5 19.5t32 6.5t39 -11.5t45.5 -44.5l172 -276
l-57 -47z" />
    <glyph glyph-name="uni0401" unicode="&#x401;" 
d="M433 236q0 -57 -1.5 -95.5t-5.5 -64.5l392 6q67 1 121 16.5t92.5 52t59.5 97t21 151.5h70l-12 -399h-1057v68q49 1 77.5 15.5t42.5 39.5t17.5 59.5t3.5 76.5v60v885q0 42 1.5 79.5t5.5 68.5l-148 -9v91h985l10 -359h-67q0 88 -20.5 144t-56 88t-83.5 43.5t-104 11.5
l-189 -3q-57 -3 -88.5 -18t-46.5 -44.5t-17.5 -74.5t-2.5 -108v-330h384l-15 177h91v-431h-67q0 60 -10.5 95.5t-33 55t-57 25.5t-83.5 6h-29t-180 -7v-469zM966 1718q0 -27 -9 -50.5t-24.5 -41t-36 -27.5t-42.5 -10q-23 0 -43 10t-35 27.5t-24 41t-9 50.5t9 51t25 42
t36 28.5t43 10.5t43 -10.5t35 -28.5t23.5 -42t8.5 -51zM598 1718q0 -27 -9 -50.5t-24.5 -41t-36 -27.5t-42.5 -10q-23 0 -43 10t-35 27.5t-24 41t-9 50.5t9 51t25 42t36 28.5t43 10.5t43 -10.5t35 -28.5t23.5 -42t8.5 -51z" />
    <glyph glyph-name="uni0402" unicode="&#x402;" horiz-adv-x="1558" 
d="M745 817q63 26 139.5 41.5t156.5 15.5q112 0 192.5 -28.5t131.5 -83.5t75 -135t24 -182q0 -99 -25 -184.5t-69.5 -148.5t-105.5 -99t-134 -36q-32 0 -60 8.5t-48.5 24.5t-32 39t-11.5 52q0 51 28.5 79.5t71.5 29.5q29 0 48 -9t30.5 -22.5t16 -29t4.5 -27.5
q0 -14 -2.5 -25.5t-8.5 -25.5q12 -9 34 -9q23 0 40.5 29t29.5 79t18.5 116.5t6.5 141.5q0 93 -23.5 158.5t-66 106.5t-102 59t-132.5 18q-65 0 -122.5 -13.5t-105.5 -36.5v-476q0 -110 -6 -162l120 8v-90h-431v68q57 2 86 22t41 53.5t13 78.5t2 97v1037h-212
q-65 0 -109.5 -21.5t-72.5 -65.5t-40.5 -110.5t-12.5 -157.5h-76l12 433h1194l12 -433h-77q-2 91 -14 158.5t-42 112t-81 66.5t-130 21h-174v-542z" />
    <glyph glyph-name="uni0403" unicode="&#x403;" horiz-adv-x="1122" 
d="M1006 1075q0 91 -22.5 147.5t-61 88t-90 42t-109.5 9.5l-149 -4q-57 -2 -86.5 -21.5t-41.5 -53t-12.5 -79t-0.5 -98.5v-862q0 -56 -1.5 -96t-5.5 -66l209 8v-90h-522v68q58 2 87 21t41 52t12.5 78.5t0.5 99.5v885q0 42 1.5 79.5t5.5 68.5l-148 -9v91h950l11 -359h-68z
M500 1556l-45 60l258 246q30 26 54.5 32t42 2.5t28 -12t13.5 -12.5q5 -7 10 -20.5t2 -31.5t-17 -39t-49 -42z" />
    <glyph glyph-name="uni0404" unicode="&#x404;" horiz-adv-x="1432" 
d="M1370 266q-66 -91 -141.5 -149t-152 -91.5t-150 -46t-136.5 -12.5q-154 0 -282 56.5t-220 154.5t-143 230.5t-51 285.5q0 96 19.5 191t59 180.5t98.5 159t138 127.5t178 84.5t218 30.5q116 0 217 -31t196 -94l-10 110h111v-475h-74q-11 96 -45.5 171.5t-89 127.5
t-128.5 79.5t-163 27.5q-104 0 -195 -42t-161 -119.5t-114 -188.5t-52 -249h688l-15 177h91v-431h-67q0 68 -13.5 105t-43 54t-76 20t-111.5 2l-455 -6q3 -141 47.5 -257t118.5 -199.5t172.5 -129t210.5 -45.5q67 0 133.5 15t128 45t115.5 74t96 101z" />
    <glyph glyph-name="uni0405" unicode="&#x405;" horiz-adv-x="1161" 
d="M238 -16h-106l-12 436h79q6 -91 39 -159.5t86.5 -114.5t124.5 -69.5t152 -23.5q60 0 113.5 16.5t94 49t64 80.5t23.5 110q0 75 -33 129t-87.5 95.5t-124 75t-141.5 67t-141.5 71t-124 87t-87.5 115.5t-33 157q0 35 8 75t26.5 80t49 77.5t76.5 66t109 45.5t146 17
q40 0 85 -5t91.5 -17t92.5 -32.5t88 -51.5l-8 88h104v-449h-74q-5 74 -28.5 143.5t-68.5 123t-111 86t-156 32.5q-64 0 -113 -19.5t-82 -52.5t-50 -76.5t-17 -91.5q0 -70 33.5 -121.5t88.5 -91.5t125 -73t143 -66.5t143 -72t125 -89t88.5 -117.5t33.5 -158q0 -85 -32 -156.5
t-93 -123t-150.5 -80.5t-203.5 -29q-46 0 -94.5 6.5t-96 19.5t-92 33t-82.5 46z" />
    <glyph glyph-name="uni0406" unicode="&#x406;" horiz-adv-x="686" 
d="M255 1204q0 42 1.5 79.5t5.5 68.5l-148 -9v91h461v-68q-58 -2 -87 -21.5t-41 -52.5t-12.5 -78t-0.5 -100v-870q0 -56 -1.5 -96t-5.5 -66l148 8v-90h-461v68q58 2 87 21t41 52t12.5 78.5t0.5 99.5v885z" />
    <glyph glyph-name="uni0407" unicode="&#x407;" horiz-adv-x="686" 
d="M255 1204q0 42 1.5 79.5t5.5 68.5l-148 -9v91h461v-68q-58 -2 -87 -21.5t-41 -52.5t-12.5 -78t-0.5 -100v-870q0 -56 -1.5 -96t-5.5 -66l148 8v-90h-461v68q58 2 87 21t41 52t12.5 78.5t0.5 99.5v885zM282 1779q0 -25 -8.5 -47t-22.5 -38.5t-32.5 -26t-38.5 -9.5
q-21 0 -39.5 9.5t-32.5 26t-22 38.5t-8 47t8.5 48t22.5 39.5t33 26.5t39 10q22 0 40.5 -10t32 -26.5t21 -39.5t7.5 -48zM624 1779q0 -25 -8.5 -47t-22.5 -38.5t-32.5 -26t-38.5 -9.5q-21 0 -39.5 9.5t-32.5 26t-22 38.5t-8 47t8.5 48t22.5 39.5t33 26.5t39 10q22 0 40.5 -10
t32 -26.5t21 -39.5t7.5 -48z" />
    <glyph glyph-name="uni0408" unicode="&#x408;" horiz-adv-x="764" 
d="M165 83q6 -9 16.5 -15.5t22.5 -10.5t23 -5t19 -1q30 1 53 14t38 41t22.5 72t7.5 107v1067l-209 -9v91h545v-68q-51 0 -82 -15.5t-48 -43t-22.5 -64.5t-5.5 -80v-663q0 -144 -19 -245.5t-59 -165.5t-103.5 -93t-151.5 -29q-43 0 -82 10t-69 29t-47.5 46t-17.5 61
q0 20 5.5 38.5t16.5 33.5t24 22.5t24 10t26 2.5q18 0 35 -8t27.5 -21.5t15.5 -30t5 -31.5q0 -10 -2.5 -22.5t-7.5 -23.5z" />
    <glyph glyph-name="uni0409" unicode="&#x409;" horiz-adv-x="1956" 
d="M1295 839q169 7 283 -20.5t183.5 -82.5t99.5 -132t30 -167q0 -108 -36.5 -190t-101 -136.5t-153 -82.5t-192.5 -28h-548v68q56 1 85 20t41.5 51.5t13.5 78t1 101.5v1033h-289q-58 -5 -84.5 -36.5t-30.5 -79.5v-45q0 -149 -6.5 -298t-24 -285t-47 -253t-73 -203.5
t-104 -135.5t-139.5 -49q-37 0 -69.5 9t-56.5 26.5t-38 43.5t-14 60q0 21 6 40t17 33.5t28 24t39 10.5q25 1 43.5 -7.5t30.5 -22t17.5 -30.5t5.5 -32q0 -19 -3 -30.5t-15 -24.5q17 -16 35 -16q43 0 90.5 71.5t87.5 205.5t66 326t26 433v265h-43l-148 -9v91h1012v-68
q-57 -2 -86 -21.5t-41 -52.5t-12.5 -78t-0.5 -100v-280zM735 1353h-3h3zM1180 242q0 -56 -1.5 -95t-5.5 -65q24 -2 49.5 -3t48.5 -1h41h28q79 0 144 20.5t111.5 63t72 109t25.5 158.5q0 97 -29 161.5t-77.5 102t-112.5 53t-134 15.5q-30 0 -50 -0.5t-36 -1t-33 -2t-41 -2.5
v-513z" />
    <glyph glyph-name="uni040A" unicode="&#x40a;" horiz-adv-x="2081" 
d="M1420 839q169 7 283 -20.5t183.5 -82.5t99.5 -132t30 -167q0 -108 -36.5 -190t-101 -136.5t-153 -82.5t-192.5 -28h-548v68q56 1 85.5 20t42 51.5t13 78t0.5 101.5v436l-693 -9v-502q0 -56 -1.5 -96t-5.5 -66l148 8v-90h-461v68q58 2 87 21t41 52t12.5 78.5t0.5 99.5v885
q0 42 1.5 79.5t5.5 68.5l-148 -9v91h461v-68q-58 -2 -87 -21.5t-41 -52.5t-12.5 -78t-0.5 -100v-278h693v368q0 86 6 148l-148 -9v91h462v-68q-57 -2 -86.5 -21.5t-41.5 -52.5t-12.5 -78t-0.5 -100v-280zM1305 242q0 -56 -1.5 -95t-5.5 -65q24 -2 49.5 -3t48.5 -1h41h28
q79 0 144 20.5t111.5 63t72 109t25.5 158.5q0 97 -29 161.5t-77.5 102t-112.5 53t-134 15.5q-30 0 -50 -0.5t-36 -1t-33 -2t-41 -2.5v-513z" />
    <glyph glyph-name="uni040B" unicode="&#x40b;" horiz-adv-x="1679" 
d="M1614 0h-461v68q60 2 89.5 25.5t40.5 75.5t10.5 135.5t0.5 206.5q-1 52 -19 99t-57 83t-99 57t-145 20q-66 -1 -124.5 -14.5t-106.5 -35.5v-476q0 -110 -6 -162l170 8v-90h-481v68q57 2 86 22t41 53.5t13 78.5t2 97v1037h-212q-65 0 -109.5 -21.5t-72.5 -65.5
t-40.5 -110.5t-12.5 -157.5h-76l12 433h1194l12 -433h-77q-2 91 -14 158.5t-42 112t-81 66.5t-130 21h-174v-542q63 26 141 41.5t164 15.5q111 0 191 -27t131.5 -79t76 -128t24.5 -175q0 -105 -0.5 -171.5t-1 -108t-2 -64t-3.5 -39.5l148 9v-91z" />
    <glyph glyph-name="uni040C" unicode="&#x40c;" horiz-adv-x="1399" 
d="M255 1204q0 42 1.5 79.5t5.5 68.5l-148 -9v91h461v-68q-58 -2 -87 -21.5t-41 -52.5t-12.5 -78t-0.5 -100v-336h153l256 404q13 20 29.5 43t35 46t39.5 44.5t42 38.5l-125 -4v84h440v-68q-65 -5 -118 -17.5t-101 -42t-95.5 -81t-99.5 -135.5l-200 -320q29 -18 52 -38.5
t43 -42.5t38 -45.5t37 -47.5l229 -305q58 -78 100 -122.5t76 -67t63 -28t62 -5.5v-68h-250q-15 0 -38 16.5t-50.5 44.5t-58 64.5t-60.5 75.5l-245 331q-39 51 -78 97t-76 69l-100 -2v-452q0 -56 -1.5 -96t-5.5 -66l148 8v-90h-461v68q58 2 87 21t41 52t12.5 78.5t0.5 99.5
v885zM643 1556l-45 60l258 246q30 26 54.5 32t42 2.5t28 -12t13.5 -12.5q5 -7 10 -20.5t2 -31.5t-17 -39t-49 -42z" />
    <glyph glyph-name="uni040D" unicode="&#x40d;" horiz-adv-x="1618" 
d="M1506 1366q-57 -2 -86.5 -21.5t-41.5 -52.5t-12.5 -78t-0.5 -100v-870q0 -110 -6 -162l147 8v-90h-461v68q58 2 87.5 21t41.5 52t12.5 78.5t0.5 99.5v822l-753 -940q-1 -39 -2.5 -68.5t-4.5 -50.5l148 8v-90h-461v68q58 2 87 21t41 52t12.5 78.5t0.5 99.5v885
q0 42 1.5 79.5t5.5 68.5l-148 -9v91h461v-68q-58 -2 -87 -21.5t-41 -52.5t-12.5 -78t-0.5 -100v-774l754 931q1 23 2 43t3 38l-148 -9v91h461v-68zM579 1739q-35 21 -49 42t-17 39t2 31.5t10 20.5q3 4 13.5 12.5t28 12t42 -2.5t54.5 -32l258 -246l-45 -60z" />
    <glyph glyph-name="uni040E" unicode="&#x40e;" horiz-adv-x="1250" 
d="M679 1537q-65 0 -122.5 13.5t-100.5 39t-68 61.5t-25 81q0 41 23.5 72.5t65.5 32.5q28 1 46.5 -9t29 -24t15 -30t4.5 -28q0 -20 -5.5 -42t-16.5 -41q29 -29 64.5 -40t89.5 -11t89.5 11t64.5 40q-11 19 -16.5 41t-5.5 42q0 12 4.5 28t15 30t29 24t46.5 9q42 -1 65.5 -32.5
t23.5 -72.5q0 -45 -25 -81t-68 -61.5t-100.5 -39t-122.5 -13.5zM1275 1366q-57 -3 -94 -20.5t-63.5 -50t-47.5 -79.5t-47 -110l-331 -801q-35 -85 -67 -148.5t-67.5 -106t-77 -63.5t-95.5 -21q-32 0 -62 6t-53.5 20.5t-37.5 38t-14 59.5q0 50 27.5 81t75.5 33q24 1 42 -6.5
t30 -20.5t17.5 -29t5.5 -32q0 -18 -4.5 -29t-14.5 -22q19 -7 35.5 -7t31.5 10t30.5 29.5t33.5 51.5q11 18 31 62t46 106l-405 802q-41 80 -58.5 135t-24.5 94l-127 -5v91h494v-68q-65 0 -99 -16.5t-44.5 -46t0 -70.5t35.5 -90l312 -625q35 86 71 176.5t68.5 173t58 151.5
t40.5 112q10 30 22 63.5t24 63.5t23.5 54.5t22.5 37.5l-161 -7v91h418v-68z" />
    <glyph glyph-name="uni040F" unicode="&#x40f;" horiz-adv-x="1578" 
d="M1465 1366q-58 -2 -87 -21t-41 -52t-12.5 -78.5t-0.5 -99.5v-885q0 -42 -1.5 -79.5t-5.5 -68.5l148 9v-91h-587v-364h-85q0 76 -6.5 142.5t-24.5 116t-49.5 77.5t-82.5 28h-497v68q57 2 86.5 21t41.5 52t12.5 78.5t0.5 100.5v870q0 109 6 162l-147 -8v90h461v-68
q-58 -2 -87.5 -21t-41.5 -52t-12.5 -78.5t-0.5 -99.5v-1034l557 7q43 2 69.5 14.5t41 33.5t19.5 50.5t6 65.5v938q0 56 1.5 96t5.5 66l-148 -8v90h461v-68z" />
    <glyph glyph-name="uni0410" unicode="&#x410;" horiz-adv-x="1282" 
d="M262 223q-8 -24 -14 -43t-12 -35t-12 -31t-13 -32l160 8v-90h-383v68q46 0 75 18.5t49 52.5t36.5 81t37.5 104l422 1149h49l457 -1166q9 -21 18.5 -50.5t18 -60.5t13 -61t3.5 -53l140 8v-90h-469v68q57 1 84 21t34 49t0 62t-18 62l-72 192l-533 -12q-22 -63 -39 -115.5
t-32 -103.5zM510 942q-47 -132 -82.5 -232.5t-63.5 -179.5h474l-146 392l-92 252h-4z" />
    <glyph glyph-name="uni0411" unicode="&#x411;" 
d="M1006 1075q0 91 -22.5 147.5t-61 88t-90 42t-109.5 9.5l-149 -4q-57 -2 -86.5 -21.5t-41.5 -53t-12.5 -79t-0.5 -98.5v-292l165 4q169 5 283 -22.5t183.5 -81t99.5 -129.5t30 -169q0 -98 -36.5 -175.5t-101 -131t-153 -81.5t-192.5 -28h-598v68q58 1 87 20.5t41 54
t12.5 82t0.5 105.5v874q0 42 1.5 79.5t5.5 68.5l-148 -9v91h950l11 -359h-68zM433 242q0 -56 -1.5 -95t-5.5 -65q24 -2 57 -3t65.5 -1h58.5h36q79 0 144 20.5t111.5 61t72 102t25.5 142.5q0 100 -29 165t-77.5 103.5t-112.5 53.5t-134 15q-61 0 -111 -1.5t-99 -4.5v-493z
" />
    <glyph glyph-name="uni0412" unicode="&#x412;" 
d="M255 1190q0 56 1.5 96t5.5 66l-148 -9v91q113 2 226 3t237 1q119 0 213 -21t158.5 -64t97.5 -106t33 -160q-1 -50 -22 -100t-63 -93t-105.5 -76t-147.5 -48v-4q113 0 198 -27.5t142 -76t85.5 -115.5t28.5 -146q0 -94 -36.5 -168.5t-101 -126t-153 -79t-192.5 -27.5h-598
v68q58 1 87 20.5t41 54t12.5 82t0.5 105.5v860zM587 1364q-50 0 -80 -10t-46.5 -33.5t-21.5 -61.5t-5 -94v-381l149 4q88 2 147.5 29t95.5 70.5t51 95.5t15 115q0 78 -30 134t-74 83.5t-97 38t-104 10.5zM427 82q24 -2 57 -3t65.5 -1h58.5h36q79 0 144 20t111.5 59t72 97
t25.5 135q0 94 -29 156t-77.5 99t-112.5 52t-134 15q-61 0 -111 -1.5t-99 -4.5v-463q0 -56 -1.5 -95t-5.5 -65z" />
    <glyph glyph-name="uni0413" unicode="&#x413;" horiz-adv-x="1122" 
d="M1006 1075q0 91 -22.5 147.5t-61 88t-90 42t-109.5 9.5l-149 -4q-57 -2 -86.5 -21.5t-41.5 -53t-12.5 -79t-0.5 -98.5v-862q0 -56 -1.5 -96t-5.5 -66l209 8v-90h-522v68q58 2 87 21t41 52t12.5 78.5t0.5 99.5v885q0 42 1.5 79.5t5.5 68.5l-148 -9v91h950l11 -359h-68z
" />
    <glyph glyph-name="uni0414" unicode="&#x414;" horiz-adv-x="1416" 
d="M1351 -364h-85q0 88 -7.5 155.5t-27 114t-52 70.5t-83.5 24h-786q-51 0 -83.5 -24t-52 -70.5t-27 -114t-7.5 -155.5h-85v445h79q51 0 93.5 31t78.5 88q52 84 83.5 205t48.5 269.5t24 320.5t11 357h-50l-148 -9v91h1046v-68q-57 -2 -86.5 -21.5t-41.5 -52.5t-12.5 -78
t-0.5 -100v-870q0 -111 -6 -163h177v-445zM860 81q58 0 87.5 17t41.5 48t12.5 75t0.5 98v1033h-314q-59 -3 -86.5 -28.5t-31.5 -66.5q-8 -177 -20 -341.5t-33.5 -308.5t-56.5 -263.5t-88 -205.5q-10 -16 -20 -30t-21 -27h529z" />
    <glyph glyph-name="uni0415" unicode="&#x415;" 
d="M434 236q0 -57 -1.5 -95.5t-5.5 -64.5l392 6q67 1 121 16.5t92.5 52t59.5 97t21 151.5h70l-12 -399h-1057v68q49 1 77.5 15.5t42.5 39.5t17.5 59.5t3.5 76.5v60v885q0 42 1.5 79.5t5.5 68.5l-148 -9v91h985l10 -359h-67q0 88 -20.5 144t-56 88t-83.5 43.5t-104 11.5
l-189 -3q-57 -3 -88.5 -18t-46.5 -44.5t-17.5 -74.5t-2.5 -108v-330h384l-15 177h91v-431h-67q0 60 -10.5 95.5t-33 55t-57 25.5t-83.5 6h-29t-180 -7v-469z" />
    <glyph glyph-name="uni0416" unicode="&#x416;" horiz-adv-x="1971" 
d="M1680 305q46 -75 83 -121t70 -72t64 -35t64 -9v-68h-210q-15 0 -39.5 13t-54 38.5t-61.5 63t-62 86.5l-205 331q-29 47 -57.5 88t-74.5 78l-122 -2v-452q0 -56 -1.5 -96t-5.5 -66l148 8v-90h-461v68q58 2 87 21t41 52t12.5 78.5t0.5 99.5v377l-122 2q-23 -18 -41.5 -37.5
t-33.5 -40t-29 -42.5t-28 -46l-201 -331q-30 -49 -60.5 -86.5t-59 -63t-52.5 -38.5t-39 -13h-220v68q33 0 64 9t64 35t70.5 72t83.5 121l178 291q19 31 37 55.5t38 45t43 38t52 35.5l-186 320q-50 85 -95.5 137t-93.5 81t-101.5 41t-117.5 17v68h440v-84l-125 4
q21 -17 42 -38t40 -44t35.5 -46t28.5 -44l236 -404h153v426q0 42 1.5 79.5t5.5 68.5l-148 -9v91h461v-68q-58 -2 -87 -21.5t-41 -52.5t-12.5 -78t-0.5 -100v-336h153l236 404q12 21 28.5 44t35.5 46t40 44t42 38l-125 -4v84h440v-68q-65 -5 -118 -17t-101 -41t-94 -81
t-95 -137l-186 -320q29 -18 52 -35.5t43 -38t38 -45t37 -55.5z" />
    <glyph glyph-name="uni0417" unicode="&#x417;" horiz-adv-x="1255" 
d="M761 760q103 -5 180.5 -33t129.5 -74.5t78 -108t26 -133.5q0 -111 -45.5 -192.5t-120.5 -135.5t-171 -80.5t-198 -26.5q-82 0 -162.5 17t-154.5 52.5t-140.5 90t-121.5 130.5l53 43q42 -58 98 -102t119 -74t131 -45t134 -15q76 0 145 20.5t121.5 63t83.5 106.5t31 151
q0 148 -95 215.5t-286 72.5l-163 -2v90h170q88 2 147 29t95 70.5t51.5 99t15.5 114.5q0 76 -20 129t-54.5 86.5t-81 49t-99.5 15.5q-85 0 -149.5 -27t-112.5 -79t-82 -127.5t-57 -172.5h-74v475h111l-10 -110q45 32 87.5 55.5t88 39t96 23t109.5 7.5q99 0 179.5 -24.5
t138 -70t88.5 -110t30 -145.5q-1 -61 -22.5 -118t-63.5 -104t-105.5 -81.5t-147.5 -49.5v-4zM621 725l7 3l-10 13z" />
    <glyph glyph-name="uni0418" unicode="&#x418;" horiz-adv-x="1618" 
d="M1505 1366q-57 -2 -86.5 -21.5t-41.5 -52.5t-12.5 -78t-0.5 -100v-870q0 -110 -6 -162l147 8v-90h-461v68q58 2 87.5 21t41.5 52t12.5 78.5t0.5 99.5v822l-753 -940q-1 -39 -2.5 -68.5t-4.5 -50.5l148 8v-90h-461v68q58 2 87 21t41 52t12.5 78.5t0.5 99.5v885
q0 42 1.5 79.5t5.5 68.5l-148 -9v91h461v-68q-58 -2 -87 -21.5t-41 -52.5t-12.5 -78t-0.5 -100v-774l754 931q1 23 2 43t3 38l-148 -9v91h461v-68z" />
    <glyph glyph-name="uni0419" unicode="&#x419;" horiz-adv-x="1618" 
d="M819 1537q-65 0 -122.5 13.5t-100.5 39t-68 61.5t-25 81q0 41 23.5 72.5t65.5 32.5q28 1 46.5 -9t29 -24t15 -30t4.5 -28q0 -20 -5.5 -42t-16.5 -41q29 -29 64.5 -40t89.5 -11t89.5 11t64.5 40q-11 19 -16.5 41t-5.5 42q0 12 4.5 28t15 30t29 24t46.5 9q42 -1 65.5 -32.5
t23.5 -72.5q0 -45 -25 -81t-68 -61.5t-100.5 -39t-122.5 -13.5zM1505 1366q-57 -2 -86.5 -21.5t-41.5 -52.5t-12.5 -78t-0.5 -100v-870q0 -110 -6 -162l147 8v-90h-461v68q58 2 87.5 21t41.5 52t12.5 78.5t0.5 99.5v822l-753 -940q-1 -39 -2.5 -68.5t-4.5 -50.5l148 8v-90
h-461v68q58 2 87 21t41 52t12.5 78.5t0.5 99.5v885q0 42 1.5 79.5t5.5 68.5l-148 -9v91h461v-68q-58 -2 -87 -21.5t-41 -52.5t-12.5 -78t-0.5 -100v-774l754 931q1 23 2 43t3 38l-148 -9v91h461v-68z" />
    <glyph glyph-name="uni041A" unicode="&#x41a;" horiz-adv-x="1399" 
d="M1303 1366q-65 -5 -118 -17.5t-101 -42t-95.5 -81t-99.5 -135.5l-200 -320q29 -18 52 -38.5t43 -42.5t38 -45.5t37 -47.5l229 -305q58 -78 100 -122.5t76 -67t63 -28t62 -5.5v-68h-250q-15 0 -38 16.5t-50.5 44.5t-58 64.5t-60.5 75.5l-245 331q-39 51 -78 97t-76 69
l-100 -2v-452q0 -56 -1.5 -96t-5.5 -66l148 8v-90h-461v68q58 2 87 21t41 52t12.5 78.5t0.5 99.5v885q0 42 1.5 79.5t5.5 68.5l-148 -9v91h461v-68q-58 -2 -87 -21.5t-41 -52.5t-12.5 -78t-0.5 -100v-336h153l256 404q13 20 29.5 43t35 46t39.5 44.5t42 38.5l-125 -4v84h440
v-68z" />
    <glyph glyph-name="uni041B" unicode="&#x41b;" horiz-adv-x="1432" 
d="M1320 1366q-57 -2 -86.5 -21.5t-41.5 -52.5t-12.5 -78t-0.5 -100v-870q0 -110 -6 -162l147 8v-90h-461v68q58 2 87.5 21t41.5 52t12.5 78.5t0.5 99.5v1033h-282q-63 -4 -90.5 -35.5t-31.5 -80.5v-45q0 -149 -9 -298t-28.5 -285t-51 -253t-75.5 -203.5t-101 -135.5
t-129 -49q-37 0 -71 9.5t-60.5 27.5t-42 44t-15.5 58q0 45 28 75.5t73 32.5q25 1 44 -7.5t31.5 -22t19 -30.5t6.5 -32q0 -19 -5 -30.5t-17 -24.5q17 -16 35 -16q43 0 90.5 59.5t87.5 182.5t66 310.5t26 443.5v305h-43l-148 -9v91h1012v-68zM735 1353h-3h3z" />
    <glyph glyph-name="uni041C" unicode="&#x41c;" horiz-adv-x="1880" 
d="M130 1434h313q71 -161 135.5 -310t126.5 -293.5t123.5 -288t126.5 -292.5h4q12 28 25.5 62t27.5 70t27.5 70t24.5 62q89 224 186.5 451t192.5 469h303v-68q-39 1 -67 -10.5t-46 -37.5t-25.5 -69t-3.5 -106l54 -932q2 -36 3 -68.5t1 -59.5l149 7v-90h-459v68q48 1 76 17.5
t42.5 47.5t17.5 75.5t0 102.5l-53 873q-6 -15 -13 -31.5t-14 -34.5l-461 -1138h-61q-67 150 -135 300t-134.5 302t-131 306.5t-124.5 313.5l-2 -90q-2 -49 -3.5 -112.5t-4 -135.5t-4.5 -150t-4 -157t-4 -155.5t-3 -145.5q-1 -46 -2 -91t-6 -83l154 8v-90h-391v68
q48 1 75 16.5t41.5 41t18.5 59t6 71.5l45 1095l-147 -5v88z" />
    <glyph glyph-name="uni041D" unicode="&#x41d;" horiz-adv-x="1597" 
d="M1167 693l-733 -9v-440q0 -56 -1.5 -96t-5.5 -66l148 8v-90h-461v68q58 2 87 21t41 52t12.5 78.5t0.5 99.5v885q0 42 1.5 79.5t5.5 68.5l-148 -9v91h461v-68q-58 -2 -87 -21.5t-41 -52.5t-12.5 -78t-0.5 -100v-340h733v430q0 86 6 148l-148 -9v91h461v-68
q-57 -2 -86.5 -21.5t-41.5 -52.5t-12.5 -78t-0.5 -100v-870q0 -110 -6 -162l147 8v-90h-461v68q58 2 87.5 21t41.5 52t12.5 78.5t0.5 99.5v374z" />
    <glyph glyph-name="uni041E" unicode="&#x41e;" horiz-adv-x="1626" 
d="M296 754q0 -76 14 -157.5t42.5 -159.5t72 -148.5t103 -123t134 -83.5t166.5 -31q84 0 154 25.5t126 70t98 105t70 130t42.5 148.5t14.5 148q0 74 -16 164t-47 168.5t-76 147t-104 119t-131.5 79.5t-157.5 29q-126 0 -221 -56t-158 -146t-94.5 -202.5t-31.5 -226.5z
M95 717q0 86 19 175t58 172.5t98 156.5t138 128t179 86.5t221 31.5q125 0 227.5 -32t183.5 -86.5t140.5 -128t99 -157t59 -172.5t19.5 -174t-19.5 -173.5t-58 -172t-97.5 -157t-138.5 -128.5t-179 -87t-220.5 -32q-130 0 -234.5 31t-185.5 84.5t-139.5 126t-96 155.5
t-55.5 173.5t-18 179.5z" />
    <glyph glyph-name="uni041F" unicode="&#x41f;" horiz-adv-x="1557" 
d="M1445 1366q-57 -2 -86.5 -21.5t-41.5 -52.5t-12.5 -78t-0.5 -100v-870q0 -110 -6 -162l147 8v-90h-461v68q58 2 87.5 21t41.5 52t12.5 78.5t0.5 99.5v1034l-557 -7q-44 -2 -70 -14.5t-40.5 -33.5t-19.5 -50.5t-6 -65.5v-938q0 -56 -1.5 -96t-5.5 -66l148 8v-90h-461v68
q58 2 87 21t41 52t12.5 78.5t0.5 99.5v885q0 42 1.5 79.5t5.5 68.5l-148 -9v91h1332v-68z" />
    <glyph glyph-name="uni0420" unicode="&#x420;" horiz-adv-x="1241" 
d="M507 539h-31.5t-41.5 1v-296q0 -56 -1.5 -96t-5.5 -66l189 10v-92h-502v68q58 2 87 21t41 52t12.5 78.5t0.5 99.5v885q0 42 1.5 79.5t5.5 68.5l-148 -9v91q108 2 222 2.5t235 0.5q298 0 453 -100q166 -109 166 -319q0 -43 -9.5 -95t-38.5 -107.5t-79.5 -106t-127 -88
t-182.5 -60t-246 -22.5zM434 625q38 -5 66.5 -6t66.5 -1q87 0 164.5 26t135 75.5t91 120.5t33.5 161q0 97 -31 165t-87 110.5t-134 61.5t-172 19q-55 0 -82.5 -17.5t-39 -49.5t-11.5 -76.5v-99.5v-489z" />
    <glyph glyph-name="uni0421" unicode="&#x421;" horiz-adv-x="1432" 
d="M820 1383q-109 0 -204.5 -46.5t-166.5 -132t-112 -207.5t-41 -272q0 -97 19.5 -182.5t55.5 -158t86 -130t111 -97.5t131 -61.5t146 -21.5q67 0 133.5 15t128 45t115.5 74t96 101l53 -43q-66 -91 -141.5 -149t-152 -91.5t-150 -46t-136.5 -12.5q-154 0 -282 56.5
t-220 154.5t-143 230.5t-51 285.5q0 96 19.5 191t59 180.5t98.5 159t138 127.5t178 84.5t218 30.5q116 0 217 -31t196 -94l-10 110h111v-475h-74q-11 96 -45.5 171.5t-89 127.5t-128.5 79.5t-163 27.5z" />
    <glyph glyph-name="uni0422" unicode="&#x422;" horiz-adv-x="1311" 
d="M1187 1001q-2 91 -14 158.5t-42 112t-81 66.5t-130 22l-173 -1l-3 -1115q0 -110 -6 -162l170 8v-90h-481v68q57 2 86 22t41 53.5t12 78.5v97l3 1038l-212 -1q-65 0 -109.5 -21.5t-72.5 -65.5t-40.5 -110.5t-12.5 -157.5h-76l12 433h1194l12 -433h-77z" />
    <glyph glyph-name="uni0423" unicode="&#x423;" horiz-adv-x="1250" 
d="M1275 1366q-57 -3 -94 -20.5t-63.5 -50t-47.5 -79.5t-47 -110l-331 -801q-35 -85 -67 -148.5t-67.5 -106t-77 -63.5t-95.5 -21q-32 0 -62 6t-53.5 20.5t-37.5 38t-14 59.5q0 50 27.5 81t75.5 33q24 1 42 -6.5t30 -20.5t17.5 -29t5.5 -32q0 -18 -4.5 -29t-14.5 -22
q19 -7 35.5 -7t31.5 10t30.5 29.5t33.5 51.5q11 18 31 62t46 106l-405 802q-41 80 -58.5 135t-24.5 94l-127 -5v91h494v-68q-65 0 -99 -16.5t-44.5 -46t0 -70.5t35.5 -90l312 -625q35 86 71 176.5t68.5 173t58 151.5t40.5 112q10 30 22 63.5t24 63.5t23.5 54.5t22.5 37.5
l-161 -7v91h418v-68z" />
    <glyph glyph-name="uni0424" unicode="&#x424;" horiz-adv-x="1680" 
d="M1064 1487q-45 -2 -72.5 -14t-42.5 -33t-20 -50.5t-6 -65.5q162 -11 286 -57.5t209 -124.5t128.5 -185.5t43.5 -239.5q0 -122 -39.5 -223.5t-121.5 -176t-208 -118.5t-298 -51q0 -25 -0.5 -49.5t-1.5 -46.5t-2.5 -40l-2.5 -30l148 8v-90h-461v68q44 2 71.5 16.5t42.5 39
t20.5 57t6.5 70.5q-158 10 -279 50.5t-203.5 109t-125 163t-42.5 213.5q0 133 38.5 245.5t118.5 196t202.5 134.5t290.5 62q0 42 1.5 79.5t5.5 68.5l-148 -9v91h461v-68zM744 1241q-220 -21 -334.5 -151.5t-114.5 -365.5q0 -117 29 -204.5t86 -147t140.5 -93t193.5 -43.5v13
v992zM923 231q227 14 346.5 124.5t119.5 324.5q0 263 -119.5 400t-346.5 159v-4v-1004z" />
    <glyph glyph-name="uni0425" unicode="&#x425;" horiz-adv-x="1329" 
d="M1275 1366q-49 -7 -93 -35t-84 -68t-75.5 -88t-68.5 -94l-231 -328q54 -74 108.5 -145.5t102.5 -134.5t86.5 -114t62.5 -83l141 -190l119 4v-90h-502v68q59 -3 87 10.5t34 36t-5.5 50t-29.5 52.5q-47 64 -126.5 165.5t-173.5 232.5l-102 -150t-102 -152
q-37 -55 -76.5 -114.5t-89.5 -118.5l170 10v-90h-403v68q49 10 86 30.5t69 51t62 71.5t65 92l265 381q-89 126 -153 215.5t-109.5 153t-74 105.5t-48 73t-31.5 55t-23 52l-114 -5v91h530v-68l-90 -4q-56 -3 -76.5 -18.5t-20 -38.5t16 -52t33.5 -57q19 -31 46 -71.5t60 -87.5
t71 -99.5t78 -107.5l197 284q26 37 51.5 73.5t49 68t44 56.5t36.5 40l-172 -9v91h403v-68z" />
    <glyph glyph-name="uni0426" unicode="&#x426;" horiz-adv-x="1520" 
d="M1455 -364h-85q0 76 -6.5 142.5t-24.5 116t-49.5 77.5t-82.5 28h-1094v68q57 2 86.5 21t41.5 52t12.5 78.5t0.5 100.5v870q0 109 6 162l-147 -8v90h461v-68q-58 -2 -87.5 -21t-41.5 -52t-12.5 -78.5t-0.5 -99.5v-1034l541 7q42 2 68 14.5t40 33.5t18.5 50.5t5.5 65.5v938
q0 56 1.5 96t5.5 66l-148 -8v90h461v-68q-58 -2 -87 -21t-41 -52t-12.5 -78.5t-0.5 -99.5v-885q0 -42 -1.5 -79.5t-5.5 -68.5l148 9h30v-455z" />
    <glyph glyph-name="uni0427" unicode="&#x427;" horiz-adv-x="1438" 
d="M1325 1366q-57 -2 -86.5 -21.5t-41.5 -52.5t-12.5 -78t-0.5 -100v-870q0 -110 -6 -162l147 8v-90h-461v68q58 2 87.5 21t41.5 52t12.5 78.5t0.5 99.5v318q-72 -35 -169.5 -56t-206.5 -21q-111 0 -191.5 27t-132 79t-76 128t-24.5 175v171.5t1 108t2.5 64t3.5 39.5
l-148 -9v91h461v-68q-60 -2 -89.5 -25.5t-40.5 -75.5t-10.5 -135.5t-0.5 -206.5q1 -52 19 -99t57 -83t99 -57t145 -20q91 1 168.5 21t132.5 52v467q0 86 6 148l-148 -9v91h461v-68z" />
    <glyph glyph-name="uni0428" unicode="&#x428;" horiz-adv-x="2058" 
d="M1945 1366q-58 -2 -87 -21t-41 -52t-12.5 -78.5t-0.5 -99.5v-885q0 -42 -1.5 -79.5t-5.5 -68.5l148 9v-91h-1832v68q57 2 86.5 21t41.5 52t12.5 78.5t0.5 100.5v870q0 109 6 162l-147 -8v90h461v-68q-58 -2 -87.5 -21t-41.5 -52t-12.5 -78.5t-0.5 -99.5v-1030h507v1105
q0 56 1.5 96t5.5 66l-128 -8v90h441v-68q-58 -2 -87 -21t-41 -52t-12.5 -78.5t-0.5 -99.5v-885q0 -76 -6 -140h513v1100q0 56 1.5 96t5.5 66l-128 -8v90h441v-68z" />
    <glyph glyph-name="uni0429" unicode="&#x429;" horiz-adv-x="2050" 
d="M1985 -364h-85q0 76 -6.5 142.5t-24.5 116t-49.5 77.5t-82.5 28h-1624v68q57 2 86.5 21t41.5 52t12.5 78.5t0.5 100.5v870q0 109 6 162l-147 -8v90h461v-68q-58 -2 -87.5 -21t-41.5 -52t-12.5 -78.5t-0.5 -99.5v-1030h507v1105q0 56 1.5 96t5.5 66l-128 -8v90h441v-68
q-58 -2 -87 -21t-41 -52t-12.5 -78.5t-0.5 -99.5v-885q0 -76 -6 -140h513v1100q0 56 1.5 96t5.5 66l-128 -8v90h441v-68q-58 -2 -87 -21t-41 -52t-12.5 -78.5t-0.5 -99.5v-885q0 -42 -1.5 -79.5t-5.5 -68.5l148 9v-4l10 4h30v-455z" />
    <glyph glyph-name="uni042A" unicode="&#x42a;" horiz-adv-x="1469" 
d="M828 839q161 5 271.5 -23.5t178 -82.5t97 -130t29.5 -166q0 -108 -35 -190t-96.5 -136.5t-146.5 -82.5t-185 -28h-588v68q56 1 85.5 20t42 51.5t13 78t0.5 101.5v885q0 42 1.5 79t5.5 67h-145q-65 0 -109.5 -20.5t-72.5 -63.5t-40.5 -108.5t-12.5 -156.5h-76l12 433h757
v-68q-58 -2 -87 -21.5t-41 -52.5t-12.5 -78t-0.5 -100v-280zM673 242q0 -56 -1.5 -95t-5.5 -65q24 -2 55.5 -3t62 -1h55h34.5q72 0 133 20.5t105.5 63t69.5 109t25 158.5q0 97 -28.5 161.5t-75.5 102t-106.5 53t-122.5 15.5q-61 0 -106 -1.5t-94 -4.5v-513z" />
    <glyph glyph-name="uni042B" unicode="&#x42b;" horiz-adv-x="1840" 
d="M574 1366q-58 -2 -87 -21.5t-41 -52.5t-12.5 -78t-0.5 -100v-280l165 5q157 5 265.5 -23.5t175 -82.5t96 -130t29.5 -166q0 -108 -36 -190t-98 -136.5t-144 -82.5t-175 -28h-598v68q56 1 85.5 20t42 51.5t13 78t0.5 101.5v885q0 42 1.5 79.5t5.5 68.5l-148 -9v91h461v-68
zM1728 1366q-58 -2 -87 -21.5t-41 -52.5t-12.5 -78t-0.5 -100v-870q0 -56 -1.5 -96t-5.5 -66l148 8v-90h-461v68q58 2 87 21t41 52t12.5 78.5t0.5 99.5v885q0 42 1.5 79.5t5.5 68.5l-148 -9v91h461v-68zM433 242q0 -56 -1.5 -95t-5.5 -65q24 -2 57 -3t65.5 -1h58.5h36
q68 0 127 20.5t102.5 63t68.5 109t25 158.5q0 97 -28.5 161.5t-74 102t-103.5 53t-117 15.5q-61 0 -111 -1.5t-99 -4.5v-513z" />
    <glyph glyph-name="uni042C" unicode="&#x42c;" horiz-adv-x="1259" 
d="M574 1366q-58 -2 -87 -21.5t-41 -52.5t-12.5 -78t-0.5 -100v-280l165 5q169 4 283 -24t183.5 -82t99.5 -130t30 -166q0 -108 -36.5 -190t-101 -136.5t-153 -82.5t-192.5 -28h-598v68q56 1 85.5 20t42 51.5t13 78t0.5 101.5v885q0 42 1.5 79.5t5.5 68.5l-148 -9v91h461
v-68zM433 242q0 -56 -1.5 -95t-5.5 -65q24 -2 57 -3t65.5 -1h58.5h36q79 0 144 20.5t111.5 63t72 109t25.5 158.5q0 97 -29 161.5t-77.5 102t-112.5 53t-134 15.5q-61 0 -111 -1.5t-99 -4.5v-513z" />
    <glyph glyph-name="uni042D" unicode="&#x42d;" horiz-adv-x="1428" 
d="M214 1342q95 63 196 94t217 31q119 0 218 -30.5t178 -84.5t138 -127.5t98.5 -159t59 -180.5t19.5 -191q0 -153 -51 -285.5t-143 -230.5t-220 -154.5t-282 -56.5q-63 0 -137 12.5t-150.5 46t-151.5 91.5t-141 149l53 43q42 -57 96 -101t115.5 -74t128 -45t133.5 -15
q112 0 210.5 45.5t172.5 129t118.5 200t47.5 257.5l-455 5q-65 1 -111.5 -2t-76 -20t-43 -54t-13.5 -105h-67v431h91l-15 -175h688q-8 137 -52 247.5t-114 188t-161.5 119.5t-194.5 42q-89 0 -163 -27.5t-128.5 -79.5t-89 -127.5t-45.5 -171.5h-74v475h111z" />
    <glyph glyph-name="uni042E" unicode="&#x42e;" horiz-adv-x="2202" 
d="M732 774q6 82 28 165.5t60 160.5t92.5 144t125 116.5t157 78t188.5 28.5q125 0 227.5 -32t183.5 -86.5t140.5 -128t99 -157t59 -172.5t19.5 -174t-19.5 -173.5t-58 -172t-97.5 -157t-138.5 -128.5t-179 -87t-220.5 -32q-115 0 -208 29.5t-166.5 80.5t-128 120.5
t-90.5 150t-55 168t-21 175.5l-297 -7v-440q0 -56 -1.5 -96t-5.5 -66l148 8v-90h-461v68q58 2 87 21t41 52t12.5 78.5t0.5 99.5v885q0 42 1.5 79.5t5.5 68.5l-148 -9v91h461v-68q-58 -2 -87 -21.5t-41 -52.5t-12.5 -78t-0.5 -100v-340h299zM1403 51q84 0 154 25.5t126 70
t98 105t70 130t42 145.5t14 151q0 84 -15.5 169t-46.5 163.5t-76 147t-104 119t-131.5 79.5t-157.5 29q-72 0 -133 -25.5t-110.5 -70.5t-87 -106t-63 -131t-38.5 -146t-13 -152t13 -157.5t39.5 -159.5t65.5 -148.5t91.5 -123t118 -83.5t144.5 -31z" />
    <glyph glyph-name="uni042F" unicode="&#x42f;" horiz-adv-x="1378" 
d="M1266 1366q-56 -2 -85.5 -20.5t-42 -51t-13 -78.5t-0.5 -101v-885q0 -42 -1.5 -79.5t-5.5 -68.5l148 9v-91h-461v68q58 2 87 21t41 52t12.5 78.5t0.5 100.5v280l-182 -2q-46 -26 -79.5 -63.5t-56.5 -72.5l-152 -235q-22 -34 -45.5 -69t-48 -66.5t-49 -55.5t-47.5 -36
h-241v68q43 0 74.5 12t58 36.5t52.5 61t58 84.5l159 237q19 28 36.5 50t36.5 38t39.5 26.5t46.5 17.5q-74 17 -137.5 51t-110 81.5t-72.5 107.5t-26 130q0 433 458 433h548v-68zM946 1192q0 56 1.5 95t5.5 65q-5 2 -28 3t-51 1h-53h-35q-72 0 -133 -20.5t-105.5 -63
t-69.5 -109t-25 -158.5q0 -69 26.5 -129.5t71.5 -105.5t105.5 -71t129.5 -26q61 0 105 1.5t55 4.5v513z" />
    <glyph glyph-name="uni0430" unicode="&#x430;" horiz-adv-x="1057" 
d="M695 501q-47 -2 -97.5 -8.5t-99 -20t-91.5 -34.5t-75 -50t-50 -67t-16 -86q1 -38 14.5 -66.5t35 -47t49.5 -28t60 -9.5q41 0 77 8t68.5 23.5t63 37.5t61.5 51v297zM133 811q0 51 30 96t84 78.5t128.5 52.5t162.5 19q172 0 253.5 -91t80.5 -289l-2 -460q0 -32 -1.5 -64.5
t-6.5 -74.5l145 8v-86h-293q-6 35 -9 61t-5 55q-69 -69 -150.5 -109t-172.5 -40q-77 0 -134.5 18.5t-95.5 51.5t-57 77.5t-19 95.5q0 63 27.5 115t74 92.5t108.5 70t131.5 48.5t142 27.5t141.5 7.5v128q0 53 -6 103t-26.5 91t-64 65t-100.5 24q-33 0 -63 -5.5t-59 -18.5
t-52.5 -34t-38.5 -50q15 -17 20.5 -37.5t5.5 -39.5q0 -12 -5 -27.5t-15.5 -29t-27 -22t-44.5 -8.5q-40 0 -63.5 29.5t-23.5 71.5z" />
    <glyph glyph-name="uni0431" unicode="&#x431;" horiz-adv-x="1115" 
d="M978 1533q-11 -50 -20 -88t-26.5 -67.5t-48 -52.5t-83.5 -41q-42 -15 -84.5 -23t-84 -14t-81 -12.5t-75.5 -17.5q-78 -24 -134 -71.5t-92 -112.5t-53 -144.5t-16 -167.5h14q23 60 59 109t85 83.5t111 53.5t137 19q96 0 179 -31t144 -91t96 -148.5t35 -204.5
q0 -123 -37.5 -223.5t-102.5 -171t-152.5 -109t-187.5 -38.5q-99 0 -185.5 39.5t-150 119.5t-100.5 200.5t-37 283.5q0 134 20.5 258.5t65.5 227t116.5 179t172.5 114.5q39 15 78.5 23.5t79.5 14.5t80.5 12.5t81.5 17.5q27 7 47 15t34.5 18.5t24.5 26t19 38.5zM549 911
q-69 0 -120 -32.5t-84.5 -87t-49.5 -125t-16 -146.5q0 -110 18.5 -198t55 -149t90.5 -93.5t125 -32.5q75 0 127.5 34.5t84.5 91.5t46.5 130t14.5 151q0 84 -16.5 166t-51.5 146.5t-90.5 104.5t-133.5 40z" />
    <glyph glyph-name="uni0432" unicode="&#x432;" horiz-adv-x="1068" 
d="M93 1024q40 0 99.5 0.5t130.5 1t149 0.5h156q72 0 132 -14.5t103 -44t66.5 -73.5t22.5 -103q0 -42 -14 -81t-42 -72.5t-70.5 -58.5t-100.5 -38v-3q69 -3 122 -22t88.5 -51.5t54 -77t18.5 -97.5q0 -69 -29 -122.5t-77.5 -91t-111.5 -57t-132 -19.5h-568v61q37 1 61 13.5
t38 35t19 54t5 72.5v592q0 37 2 65.5t7 52.5l-129 -6v84zM542 562q63 1 106 21t69 51t37 69.5t10 76.5q-1 53 -19 86.5t-47 52.5t-67 26t-80 7q-37 0 -67 -5.5t-51 -21.5t-32.5 -43.5t-11.5 -71.5v-251zM389 198q0 -40 -1.5 -67.5t-3.5 -46.5q17 -2 44 -2.5t53.5 -0.5h48.5
h29q57 0 103.5 12t79.5 36.5t51.5 63t18.5 92.5t-20.5 92t-55.5 62.5t-81 35.5t-96 11q-44 0 -89.5 -1.5t-80.5 -3.5v-283z" />
    <glyph glyph-name="uni0433" unicode="&#x433;" horiz-adv-x="896" 
d="M793 715q-2 64 -14.5 108t-43.5 70t-84.5 37.5t-136.5 11.5q-45 0 -70 -15t-37.5 -44.5t-15.5 -72t-4 -97.5v-496q0 -41 -1 -72.5t-7 -66.5l129 6v-84h-418v61q47 0 71.5 18.5t36 51.5t13 79t2.5 101v496q0 41 1 72.5t7 66.5l-128 -6v84h769l9 -309h-78z" />
    <glyph glyph-name="uni0434" unicode="&#x434;" horiz-adv-x="1210" 
d="M1077 -364q0 83 -7.5 150.5t-27 115t-52 73t-83.5 25.5h-612q-51 0 -84 -25.5t-52.5 -72.5t-27.5 -114.5t-8 -151.5h-78v441h83q25 0 45.5 5t38 19t33 39.5t30.5 66.5q23 61 40.5 135t30 165t20 199.5t11.5 237.5l-181 -9v89h905v-61q-47 0 -71.5 -18.5t-35.5 -51.5
t-12.5 -79t-1.5 -101v-496q-2 -41 -3.5 -72.5t-7.5 -66.5l186 8v-450h-78zM680 77q47 0 72 18.5t36.5 51.5t13.5 79t2 101v480q0 41 1 72.5t7 66.5h-213q-32 0 -53.5 -9.5t-34.5 -27.5t-20 -43.5t-11 -57.5q-9 -102 -20.5 -196t-25 -173t-27.5 -140.5t-27 -100.5
q-27 -77 -66 -121h366z" />
    <glyph glyph-name="uni0435" unicode="&#x435;" horiz-adv-x="1110" 
d="M605 977q-120 0 -198 -70.5t-103 -228.5h522q0 54 -12 107.5t-38.5 96t-68.5 69t-102 26.5zM1019 604l-721 -12q-1 -118 18 -214t60 -164t105.5 -105t154.5 -37q48 0 98 13t96.5 35.5t85.5 54t65 67.5l50 -41q-42 -64 -97.5 -108.5t-115 -72.5t-119.5 -40.5t-112 -12.5
q-106 0 -197.5 38t-158.5 109t-105.5 171t-38.5 225q0 108 37 206.5t105 174.5t163 121t211 45q85 0 160.5 -28t132.5 -84t90 -141.5t33 -199.5z" />
    <glyph glyph-name="uni0436" unicode="&#x436;" horiz-adv-x="1588" 
d="M1077 569q30 -22 63.5 -58t68 -78.5t68 -88t63.5 -86.5q68 -94 123.5 -145.5t109.5 -51.5v-61h-180q-25 0 -50 14.5t-51 40.5t-54.5 62t-60.5 78q-25 33 -52.5 72t-56.5 79.5t-58.5 79.5t-59.5 74l-75 -2v-281q0 -41 -1 -72.5t-7 -66.5l129 6v-84h-408v61q47 0 71.5 18.5
t36 51.5t13 79t2.5 101v187l-73 2q-30 -35 -59.5 -74t-58.5 -79.5t-56.5 -79.5t-52.5 -72q-32 -42 -60.5 -78t-54.5 -62t-51 -40.5t-50 -14.5h-180v61q54 0 109.5 51.5t123.5 145.5q30 41 63.5 86.5t68 88t68 78.5t63.5 58l-145 179q-27 29 -62 64.5t-77 67t-89.5 54.5
t-99.5 29v61h373v-82l-140 6q29 -18 58 -45.5t63 -62.5l220 -262h100v229q0 41 1 72.5t7 66.5l-129 -6v84h408v-61q-47 0 -71.5 -18.5t-35.5 -51.5t-12.5 -79t-2.5 -101v-135h99l220 262q34 35 63 62.5t58 45.5l-140 -6v82h373v-61q-52 -6 -99.5 -29t-89.5 -54.5t-77 -67
t-62 -64.5z" />
    <glyph glyph-name="uni0437" unicode="&#x437;" horiz-adv-x="940" 
d="M605 537q62 -5 113 -26t87 -56t55.5 -82t19.5 -103q0 -71 -31 -127t-86 -95t-132 -60t-168 -21q-103 0 -181 25.5t-129.5 63.5t-76.5 82t-21 82q0 44 24.5 75.5t70.5 32.5q27 1 45 -8.5t29 -23.5t16 -30.5t5 -29.5q0 -20 -6.5 -42t-24.5 -41q41 -61 105 -88t131 -27
q45 0 87.5 12.5t75 38.5t52 65t19.5 93q0 65 -20.5 110.5t-55.5 74t-81 41.5t-96 13h-94v76h85q57 0 99 16.5t69.5 45.5t40.5 70t13 89q0 92 -45.5 144.5t-134.5 52.5q-63 0 -110 -26t-78.5 -67.5t-48.5 -93.5t-21 -105h-64v359h86l-5 -78q63 51 131.5 69.5t135.5 18.5
q74 0 136.5 -18.5t108.5 -52t71.5 -81.5t25.5 -107q0 -45 -15.5 -86t-45 -74t-71.5 -58t-95 -39v-4z" />
    <glyph glyph-name="uni0438" unicode="&#x438;" horiz-adv-x="1284" 
d="M1073 217q-2 -41 -3.5 -72.5t-7.5 -66.5l129 6v-84h-418v61q47 0 71.5 18.5t36 51.5t13.5 79t3 101v464l-512 -642q-1 -14 -2.5 -27t-3.5 -28l129 6v-84h-418v61q47 0 71.5 18.5t36 51.5t13.5 79t3 101v496q0 41 1 72.5t7 66.5l-129 -6v84h418v-61q-47 0 -71.5 -18.5
t-36 -51.5t-13.5 -79t-3 -101v-437l513 633l2 18t3 19l-129 -6v84h418v-61q-47 0 -71.5 -18.5t-35.5 -51.5t-12.5 -79t-1.5 -101v-496z" />
    <glyph glyph-name="uni0439" unicode="&#x439;" horiz-adv-x="1284" 
d="M647 1182q-59 0 -111 12.5t-91 35.5t-62 55.5t-23 73.5q0 37 21.5 65.5t59.5 29.5q25 1 42 -8t26.5 -22t13.5 -27.5t4 -25.5q0 -17 -4.5 -37.5t-15.5 -37.5q6 -11 21 -18.5t34.5 -12t41.5 -6.5t43 -2t43 2t41.5 6.5t34.5 12t21 18.5q-11 17 -15.5 37.5t-4.5 37.5
q0 11 4 25.5t13.5 27.5t26 22t42.5 8q38 -1 59.5 -29.5t21.5 -65.5q0 -41 -23 -73.5t-62 -55.5t-91 -35.5t-111 -12.5zM1073 217q-2 -41 -3.5 -72.5t-7.5 -66.5l129 6v-84h-418v61q47 0 71.5 18.5t36 51.5t13.5 79t3 101v464l-512 -642q-1 -14 -2.5 -27t-3.5 -28l129 6v-84
h-418v61q47 0 71.5 18.5t36 51.5t13.5 79t3 101v496q0 41 1 72.5t7 66.5l-129 -6v84h418v-61q-47 0 -71.5 -18.5t-36 -51.5t-13.5 -79t-3 -101v-437l513 633l2 18t3 19l-129 -6v84h418v-61q-47 0 -71.5 -18.5t-35.5 -51.5t-12.5 -79t-1.5 -101v-496z" />
    <glyph glyph-name="uni043A" unicode="&#x43a;" horiz-adv-x="1100" 
d="M837 283q6 -8 20.5 -28t34 -44.5t43.5 -51t49.5 -48.5t51 -36t49.5 -14v-61h-186q-28 0 -55 16.5t-53.5 43.5t-53 61.5t-54.5 71.5q-81 110 -137 190.5t-96 118.5l-83 -4v-281q0 -41 -1 -72.5t-7 -66.5l129 6v-84h-418v61q47 0 71.5 18.5t36 51.5t13.5 79t3 101v496
q0 41 1 72.5t7 66.5l-129 -6v84h418v-61q-47 0 -71.5 -18.5t-35.5 -51.5t-12.5 -79t-2.5 -101v-135h79l250 262q34 35 63 62.5t58 45.5l-140 -6v82h373v-61q-52 -6 -99.5 -29.5t-89 -55.5t-76.5 -67l-63 -63l-159 -168q40 -19 69 -47t58 -64z" />
    <glyph glyph-name="uni043B" unicode="&#x43b;" horiz-adv-x="1212" 
d="M1001 217q-2 -41 -3.5 -72.5t-7.5 -66.5l129 6v-84h-418v61q47 0 71.5 18.5t36 51.5t13.5 79t3 101v496q0 41 1 72.5t7 66.5h-180q-35 0 -58.5 -11.5t-37.5 -32.5t-19.5 -50.5t-5.5 -66.5q-5 -97 -16 -195t-29.5 -187.5t-46.5 -167.5t-66.5 -135t-89.5 -90t-116 -33
q-74 0 -113.5 29.5t-39.5 78.5q0 46 22.5 75t67.5 30q25 0 42 -6.5t28 -17.5t16.5 -24t5.5 -25q0 -6 -1.5 -15t-3.5 -16q8 -4 19 -4q30 0 64 44.5t65 146t55.5 266.5t36.5 406l-192 -10v89h882v-61q-47 0 -71.5 -18.5t-35.5 -51.5t-12.5 -79t-1.5 -101v-496z" />
    <glyph glyph-name="uni043C" unicode="&#x43c;" horiz-adv-x="1512" 
d="M1447 0h-413v61q64 -2 93.5 40t15.5 135l-81 525l-312 -761h-82l-320 782l-72 -584q-3 -26 -10 -59.5t-15 -59.5l129 5v-84h-315v61q32 0 53.5 9t34.5 27t20 44t11 58l91 747l-126 -6v84h273l335 -790l324 790h241v-61q-56 0 -84.5 -33.5t-16.5 -113.5l93 -624
q4 -26 4 -57.5t-3 -55.5l132 5v-84z" />
    <glyph glyph-name="uni043D" unicode="&#x43d;" 
d="M1063 217q-2 -41 -3.5 -72.5t-7.5 -66.5l129 6v-84h-418v61q47 0 71.5 18.5t36 51.5t13 79t2.5 101v174l-499 -6v-262q0 -41 -1 -72.5t-7 -66.5l129 6v-84h-418v61q47 0 71.5 18.5t36 51.5t13.5 79t3 101v496q0 41 1 72.5t7 66.5l-129 -6v84h418v-61q-47 0 -71.5 -18.5
t-35.5 -51.5t-12.5 -79t-2.5 -101v-147h498v241q0 41 1 72.5t7 66.5l-129 -6v84h418v-61q-47 0 -71.5 -18.5t-35.5 -51.5t-12.5 -79t-1.5 -101v-496z" />
    </font>
</defs>
</svg>
