<?xml version="1.0" standalone="no"?>
<!DOCTYPE svg PUBLIC "-//W3C//DTD SVG 1.1//EN" "http://www.w3.org/Graphics/SVG/1.1/DTD/svg11.dtd" >
<svg xmlns="http://www.w3.org/2000/svg" xmlns:xlink="http://www.w3.org/1999/xlink" version="1.1">
<metadata>
Created by FontForge 20170731 at Tue Mar 13 17:02:32 2001
 By Aleksey,,,
Copyright (c) 2000 Bigelow &#38; Holmes Inc. Pat. Des 289,421.
</metadata>
<defs>
<font id="LucidaBright" horiz-adv-x="1628" >
  <font-face 
    font-family="Lucida Bright"
    font-weight="400"
    font-stretch="normal"
    units-per-em="2048"
    panose-1="2 4 6 3 7 5 5 2 4 4"
    ascent="1638"
    descent="-410"
    x-height="1086"
    cap-height="1480"
    bbox="-550 -1530 3314 2419"
    underline-thickness="100"
    underline-position="-350"
    unicode-range="U+0020-FEFC"
  />
<missing-glyph horiz-adv-x="1536" 
d="M256 0v1280h1024v-1280h-1024zM320 64h896v1152h-896v-1152z" />
    <glyph glyph-name="shaddadammatanisoarabic" unicode="&#xfc5e;" horiz-adv-x="0" arabic-form="isolated" 
d="M1037 1776v-166q0 -376 -245 -376q-91 0 -138 91q-67 -178 -210 -178q-86 0 -116.5 55t-30.5 210v143l111 98v-197q0 -129 14.5 -166.5t65.5 -37.5q88 0 124 122v245l111 98v-198q0 -180 102 -180q43 0 101 34v303zM238 1727l46 124q165 44 165 141q0 93 -118 93
q-69 0 -155 -37l59 127q61 21 116 21q186 0 186 -154q0 -116 -134 -191h123q201 0 305 49q-171 59 -171 187q0 92 69 162.5t158 70.5q147 0 147 -159q0 -90 -70 -186q97 -13 189 -13h47l-50 -102q-135 0 -254 26q-186 -159 -472 -159h-186zM914 1983q29 61 29 115
q0 111 -92 111q-76 0 -147 -95q73 -111 210 -131z" />
    <glyph glyph-name="shaddakasratanisoarabic" unicode="&#xfc5f;" horiz-adv-x="0" arabic-form="isolated" 
d="M1036 2257v-166q0 -376 -245 -376q-91 0 -138 91q-67 -178 -210 -178q-86 0 -116.5 55t-30.5 210v143l111 98v-197q0 -129 14.5 -166.5t65.5 -37.5q88 0 124 122v245l111 98v-198q0 -180 102 -180q43 0 101 34v303zM976 1327l-680 -181l49 117l680 182zM976 1548
l-680 -181l49 117l680 182z" />
    <glyph glyph-name="shaddafathaisoarabic" unicode="&#xfc60;" horiz-adv-x="0" arabic-form="isolated" 
d="M1036 1776v-166q0 -376 -245 -376q-91 0 -138 91q-67 -178 -210 -178q-86 0 -116.5 55t-30.5 210v143l111 98v-197q0 -129 14.5 -166.5t65.5 -37.5q88 0 124 122v245l111 98v-198q0 -180 102 -180q43 0 101 34v303zM976 1887l-680 -181l49 117l680 182z" />
    <glyph glyph-name="shaddadammaisoarabic" unicode="&#xfc61;" horiz-adv-x="0" arabic-form="isolated" 
d="M1036 1776v-166q0 -376 -245 -376q-91 0 -138 91q-67 -178 -210 -178q-86 0 -116.5 55t-30.5 210v143l111 98v-197q0 -129 14.5 -166.5t65.5 -37.5q88 0 124 122v245l111 98v-198q0 -180 102 -180q43 0 101 34v303zM296 1727l65 124h55q202 0 306 49q-171 59 -171 187
q0 92 69 162.5t158 70.5q146 0 146 -160q0 -89 -69 -185q96 -13 188 -13h48l-51 -102q-134 0 -253 26q-186 -159 -423 -159h-68zM805 1983q29 61 29 115q0 111 -92 111q-76 0 -147 -95q73 -111 210 -131z" />
    <glyph glyph-name="shaddakasraisoarabic" unicode="&#xfc62;" horiz-adv-x="0" arabic-form="isolated" 
d="M1036 2034v-166q0 -376 -245 -376q-91 0 -138 91q-67 -178 -210 -178q-86 0 -116.5 55t-30.5 210v143l111 98v-197q0 -129 14.5 -166.5t65.5 -37.5q88 0 124 122v245l111 98v-198q0 -180 102 -180q43 0 101 34v303zM976 1327l-680 -181l49 117l680 182z" />
    <glyph glyph-name="fathatanisoarabic" unicode="&#xfe70;" horiz-adv-x="0" arabic-form="isolated" 
d="M976 1327l-680 -181l49 117l680 182zM976 1548l-680 -181l49 117l680 182z" />
    <glyph glyph-name="tatweelfathatanabvarabic" unicode="&#xfe71;" horiz-adv-x="876" arabic-form="medial" 
d="M-25 197h925v-197h-925v197zM753 1291l-680 -181l49 117l680 182zM753 1069l-680 -181l49 117l680 182z" />
    <glyph glyph-name="dammatanisoarabic" unicode="&#xfe72;" horiz-adv-x="0" arabic-form="isolated" 
d="M358 1147l46 124q165 44 165 141q0 93 -118 93q-69 0 -155 -37l59 127q61 21 116 21q186 0 186 -154q0 -116 -134 -191h123q201 0 305 49q-171 59 -171 187q0 92 69 162.5t158 70.5q147 0 147 -159q0 -90 -70 -186q97 -13 189 -13h47l-50 -102q-135 0 -254 26
q-186 -159 -472 -159h-186zM1034 1403q29 61 29 115q0 111 -92 111q-76 0 -147 -95q73 -111 210 -131z" />
    <glyph glyph-name="kasratanisoarabic" unicode="&#xfe74;" horiz-adv-x="0" arabic-form="isolated" 
d="M976 -609l-680 -181l49 117l680 182zM976 -387l-680 -181l49 117l680 182z" />
    <glyph glyph-name="fathaisoarabic" unicode="&#xfe76;" horiz-adv-x="0" arabic-form="isolated" 
d="M976 1327l-680 -181l49 117l680 182z" />
    <glyph glyph-name="fathamedialarabic" unicode="&#xfe77;" horiz-adv-x="876" arabic-form="medial" 
d="M-25 197h925v-197h-925v197zM753 1069l-680 -181l49 117l680 182z" />
    <glyph glyph-name="dammaisoarabic" unicode="&#xfe78;" horiz-adv-x="0" arabic-form="isolated" 
d="M296 1147l65 124h55q202 0 306 49q-171 59 -171 187q0 92 69 162.5t158 70.5q146 0 146 -160q0 -89 -69 -185q96 -13 188 -13h48l-51 -102q-134 0 -253 26q-186 -159 -423 -159h-68zM805 1403q29 61 29 115q0 111 -92 111q-76 0 -147 -95q73 -111 210 -131z" />
    <glyph glyph-name="dammamedialarabic" unicode="&#xfe79;" horiz-adv-x="876" arabic-form="medial" 
d="M-25 197h925v-197h-925v197zM25 888l65 124h55q202 0 306 49q-171 59 -171 187q0 92 69 162.5t158 70.5q146 0 146 -160q0 -89 -69 -185q96 -13 188 -13h48l-51 -102q-134 0 -253 26q-186 -159 -423 -159h-68zM534 1144q29 61 29 115q0 111 -92 111q-76 0 -147 -95
q73 -111 210 -131z" />
    <glyph glyph-name="kasraisoarabic" unicode="&#xfe7a;" horiz-adv-x="0" arabic-form="isolated" 
d="M976 -608l-680 -182l49 118l680 181z" />
    <glyph glyph-name="kasramedialarabic" unicode="&#xfe7b;" horiz-adv-x="876" arabic-form="medial" 
d="M-25 197h925v-197h-925v197zM753 -314l-680 -182l49 118l680 181z" />
    <glyph glyph-name="shaddaisoarabic" unicode="&#xfe7c;" horiz-adv-x="0" arabic-form="isolated" 
d="M1036 1776v-166q0 -376 -245 -376q-91 0 -138 91q-67 -178 -210 -178q-86 0 -116.5 55t-30.5 210v143l111 98v-197q0 -129 14.5 -166.5t65.5 -37.5q88 0 124 122v245l111 98v-198q0 -180 102 -180q43 0 101 34v303z" />
    <glyph glyph-name="shaddamedialarabic" unicode="&#xfe7d;" horiz-adv-x="876" arabic-form="medial" 
d="M-25 197h925v-197h-925v197zM807 1517v-166q0 -376 -245 -376q-91 0 -138 91q-67 -178 -210 -178q-86 0 -116.5 55t-30.5 210v143l111 98v-197q0 -129 14.5 -166.5t65.5 -37.5q88 0 124 122v245l111 98v-198q0 -180 102 -180q43 0 101 34v303z" />
    <glyph glyph-name="sukunisoarabic" unicode="&#xfe7e;" horiz-adv-x="0" arabic-form="isolated" 
d="M535 1631q-126 -131 -126 -243q0 -118 144 -118q112 0 187 60q0 159 -205 301zM417 1689l89 89q326 -172 326 -374q0 -101 -92 -179t-213 -78q-101 0 -166 56.5t-65 144.5q0 144 187 306z" />
    <glyph glyph-name="sukunmedialarabic" unicode="&#xfe7f;" horiz-adv-x="876" arabic-form="medial" 
d="M-25 197h925v-197h-925v197zM409 1372q-126 -131 -126 -243q0 -118 144 -118q112 0 187 60q0 159 -205 301zM291 1430l89 89q326 -172 326 -374q0 -101 -92 -179t-213 -78q-101 0 -166 56.5t-65 144.5q0 144 187 306z" />
    <glyph glyph-name="hamzaisoarabic" unicode="&#x621;" horiz-adv-x="885" arabic-form="isolated" 
d="M85 -25l62 220q138 56 308 101q-264 83 -264 257q0 140 157 237.5t383 97.5q50 0 124 -10l-100 -196q-87 9 -138 9q-187 0 -355 -115q186 -194 492 -194l71 1l-99 -215q-258 -39 -641 -193z" />
    <glyph glyph-name="alefmaddaabvisoarabic" unicode="&#x622;" horiz-adv-x="617" arabic-form="isolated" 
d="M245 1512l147 166q12 -262 101 -449l-124 121v-759q0 -345 -116 -591h-62q53 178 53 362l1 164v986zM0 1810v58q58 158 175 158q42 0 132 -33l42 -16l32 -12l47 -17q41 -15 71 -15q65 0 117 96v-58q-58 -158 -175 -158q-42 0 -132 34l-42 15l-32 12l-47 17q-41 15 -71 15
q-65 0 -117 -96z" />
    <glyph glyph-name="alefmaddaabovfinalarabic" unicode="&#x622;" horiz-adv-x="611" arabic-form="final" 
d="M185 1611l123 67v-1165q0 -208 47.5 -262t229.5 -54h51v-197h-54q-236 0 -316.5 87t-80.5 341v1183zM0 1798v58q58 158 175 158q42 0 132 -33l42 -16l32 -12l47 -17q41 -15 71 -15q65 0 117 96v-58q-58 -158 -175 -158q-42 0 -132 34l-42 15l-32 12l-47 17q-41 15 -71 15
q-65 0 -117 -96z" />
    <glyph glyph-name="alefhamzaabvisoarabic" unicode="&#x623;" horiz-adv-x="617" arabic-form="isolated" 
d="M245 1512l147 166q12 -262 101 -449l-124 121v-759q0 -345 -116 -591h-62q53 178 53 362l1 164v986zM34 1690l43 135q126 52 261 74q-230 53 -230 200q0 102 114.5 173.5t278.5 71.5q36 0 91 -7l-63 -122q-60 7 -93 7q-155 0 -277 -106q168 -167 407 -167l-68 -131
q-213 -18 -464 -128z" />
    <glyph glyph-name="alefhamzaabovfinalarabic" unicode="&#x623;" horiz-adv-x="611" arabic-form="final" 
d="M185 1611l123 67v-1165q0 -208 47.5 -262t229.5 -54h51v-197h-54q-236 0 -316.5 87t-80.5 341v1183zM0 1690l43 135q126 52 261 74q-230 53 -230 200q0 102 114.5 173.5t278.5 71.5q36 0 91 -7l-63 -122q-60 7 -93 7q-155 0 -277 -106q168 -167 407 -167l-68 -131
q-213 -18 -464 -128z" />
    <glyph glyph-name="wawhamzaabvisoarabic" unicode="&#x624;" horiz-adv-x="905" arabic-form="isolated" 
d="M668 13q-82 -19 -164 -19q-333 0 -333 249q0 194 107.5 345.5t244.5 151.5q125 0 204 -135.5t79 -350.5q0 -368 -260 -706t-545 -338q-118 0 -208 52.5t-227 199.5q197 -55 332 -55q241 0 472 182t298 424zM241 263q121 -72 260 -72q86 0 190 15l1 36q0 123 -62.5 207
t-154.5 84q-176 0 -234 -270zM229 888l43 135q126 52 261 74q-230 53 -230 200q0 102 114.5 173.5t278.5 71.5q36 0 91 -7l-63 -122q-60 7 -93 7q-155 0 -277 -106q168 -167 407 -167l-68 -131q-213 -18 -464 -128z" />
    <glyph glyph-name="wawhamzaabovfinalarabic" unicode="&#x624;" horiz-adv-x="932" arabic-form="final" 
d="M665 2q-79 -8 -146 -8q-190 0 -271.5 57.5t-81.5 191.5q0 194 107.5 345.5t244.5 151.5q123 0 203 -135t80 -344q0 -19 -2 -64h158v-197h-176q-126 -353 -341.5 -571.5t-438.5 -218.5q-118 0 -208 52.5t-227 199.5q197 -55 332 -55q238 0 473.5 183t293.5 412zM236 263
q121 -72 260 -72q86 0 190 15l1 36q0 123 -62.5 207t-154.5 84q-176 0 -234 -270zM229 888l43 135q126 52 261 74q-230 53 -230 200q0 102 114.5 173.5t278.5 71.5q36 0 91 -7l-63 -122q-60 7 -93 7q-155 0 -277 -106q168 -167 407 -167l-68 -131q-213 -18 -464 -128z" />
    <glyph glyph-name="alefhamzablwisoarabic" unicode="&#x625;" horiz-adv-x="617" arabic-form="isolated" 
d="M245 1512l147 166q12 -262 101 -449l-124 121v-759q0 -345 -116 -591h-62q53 178 53 362l1 164v986zM34 -778l43 135q126 52 261 74q-230 53 -230 200q0 102 114.5 173.5t278.5 71.5q36 0 91 -7l-63 -122q-60 7 -93 7q-155 0 -277 -106q168 -167 407 -167l-68 -131
q-213 -18 -464 -128z" />
    <glyph glyph-name="alefhamzabelofinalarabic" unicode="&#x625;" horiz-adv-x="611" arabic-form="final" 
d="M185 1611l123 67v-1165q0 -208 47.5 -262t229.5 -54h51v-197h-54q-236 0 -316.5 87t-80.5 341v1183zM0 -778l43 135q126 52 261 74q-230 53 -230 200q0 102 114.5 173.5t278.5 71.5q36 0 91 -7l-63 -122q-60 7 -93 7q-155 0 -277 -106q168 -167 407 -167l-68 -131
q-213 -18 -464 -128z" />
    <glyph glyph-name="yehhamzaabvisoarabic" unicode="&#x626;" horiz-adv-x="2023" arabic-form="isolated" 
d="M1937 1117l-117 -191q-60 12 -103 12q-276 0 -455 -227q-4 -50 -4 -79q0 -188 257 -188h53q188 0 260.5 -34t72.5 -122q0 -137 -177 -330q-346 -377 -952 -377q-673 0 -673 554q0 278 157 556h62q-109 -276 -109 -448q0 -465 616 -465q711 0 987 443q-118 26 -195 26h-39
q-232 0 -325.5 57t-93.5 198q0 237 201 435t441 198q60 0 136 -18zM6 962l43 135q126 52 261 74q-230 53 -230 200q0 102 114.5 173.5t278.5 71.5q36 0 91 -7l-63 -122q-60 7 -93 7q-155 0 -277 -106q168 -167 407 -167l-68 -131q-213 -18 -464 -128z" />
    <glyph glyph-name="yehhamzaabovefinalarabic" unicode="&#x626;" horiz-adv-x="1929" arabic-form="final" 
d="M1248 -215q0 -174 252 -174h53q190 0 261.5 -34t71.5 -125q0 -127 -159 -269q-176 -156 -441.5 -249.5t-533.5 -93.5q-667 0 -667 555q0 277 156 556h62q-108 -277 -108 -448q0 -465 615 -465q300 0 564 93t424 256q-74 27 -196 27h-38l-101 1q-177 0 -247.5 48
t-70.5 167q0 216 197 398t430 182q36 0 69 -5q58 -8 69 -8h44v-197h-37q-10 0 -57 4q-86 8 -174 8q-256 0 -438 -227zM-8 222l43 135q126 52 261 74q-230 53 -230 200q0 102 114.5 173.5t278.5 71.5q36 0 91 -7l-63 -122q-60 7 -93 7q-155 0 -277 -106q168 -167 407 -167
l-68 -131q-213 -18 -464 -128z" />
    <glyph glyph-name="yehhamzaabovinitlarabic" unicode="&#x626;" horiz-adv-x="681" arabic-form="initial" 
d="M435 258q3 57 3 82q0 238 -101 392l133 184q113 -170 113 -390q0 -219 -163 -372.5t-396 -153.5h-49v197h56l145 -1q118 0 259 62zM106 1073l43 135q126 52 261 74q-230 53 -230 200q0 102 114.5 173.5t278.5 71.5q36 0 91 -7l-63 -122q-60 7 -93 7q-155 0 -277 -106
q168 -167 407 -167l-68 -131q-213 -18 -464 -128z" />
    <glyph glyph-name="yehhamzaabovmedialarabic" unicode="&#x626;" horiz-adv-x="802" arabic-form="medial" 
d="M368 227q-129 -227 -331 -227h-37h-25v197h28q236 0 335 109v380l123 67v-240q0 -186 53.5 -251t205.5 -65h55h51v-197h-54q-211 0 -281.5 39.5t-122.5 187.5zM156 962l43 135q126 52 261 74q-230 53 -230 200q0 102 114.5 173.5t278.5 71.5q36 0 91 -7l-63 -122
q-60 7 -93 7q-155 0 -277 -106q168 -167 407 -167l-68 -131q-213 -18 -464 -128z" />
    <glyph glyph-name="alefisoarabic" unicode="&#x627;" horiz-adv-x="617" arabic-form="isolated" 
d="M245 1512l147 166q12 -262 101 -449l-124 121v-759q0 -345 -116 -591h-62q53 178 53 362l1 164v986z" />
    <glyph glyph-name="aleffinalarabic" unicode="&#x627;" horiz-adv-x="611" arabic-form="final" 
d="M185 1611l123 67v-1165q0 -208 47.5 -262t229.5 -54h51v-197h-54q-236 0 -316.5 87t-80.5 341v1183z" />
    <glyph glyph-name="behisoarabic" unicode="&#x628;" horiz-adv-x="2071" arabic-form="isolated" 
d="M242 666h62q-73 -162 -73 -256q0 -130 205 -190t651 -60q515 0 727 98q2 57 2 81q0 222 -101 344l133 183q109 -125 109 -339q0 -199 -128 -339q-194 -213 -941 -213q-408 0 -592.5 74t-184.5 237q0 139 131 380zM1028 -344l-143 -149q-103 54 -144 149l144 147
q45 -95 143 -147z" />
    <glyph glyph-name="behfinalarabic" unicode="&#x628;" horiz-adv-x="2499" arabic-form="final" 
d="M242 666h61q-73 -163 -73 -261q0 -245 626 -245q414 0 790 151q167 68 389 277l124 66v-191q0 -149 57 -207.5t202 -58.5h54h51v-197h-54q-270 0 -352 79t-82 338v90q-403 -532 -1238 -532q-686 0 -686 311q0 139 131 380zM906 -344l-143 -149q-103 54 -144 149l144 147
q45 -95 143 -147z" />
    <glyph glyph-name="behinitialarabic" unicode="&#x628;" horiz-adv-x="681" arabic-form="initial" 
d="M435 258q3 57 3 82q0 238 -101 392l133 184q113 -170 113 -390q0 -219 -163 -372.5t-396 -153.5h-49v197h56l145 -1q118 0 259 62zM333 -344l-143 -149q-103 54 -144 149l144 147q45 -95 143 -147z" />
    <glyph glyph-name="behmedialarabic" unicode="&#x628;" horiz-adv-x="802" arabic-form="medial" 
d="M368 227q-129 -227 -331 -227h-37h-25v197h28q236 0 335 109v380l123 67v-240q0 -186 53.5 -251t205.5 -65h55h51v-197h-54q-211 0 -281.5 39.5t-122.5 187.5zM547 -344l-143 -149q-103 54 -144 149l144 147q45 -95 143 -147z" />
    <glyph glyph-name="tehmarbutaisoarabic" unicode="&#x629;" horiz-adv-x="1113" arabic-form="isolated" 
d="M544 925q458 -237 458 -517q0 -182 -147 -307.5t-361 -125.5q-179 0 -281 81t-102 224q0 264 328 504zM474 732q-232 -206 -232 -366q0 -193 291 -193q180 0 368 87q-75 304 -427 472zM939 1259l-144 -149q-102 54 -143 149l143 147q46 -96 144 -147zM527 1259l-144 -149
q-102 54 -143 149l144 147q45 -96 143 -147z" />
    <glyph glyph-name="tehmarbutafinalarabic" unicode="&#x629;" horiz-adv-x="1078" arabic-form="final" 
d="M1102 197v-197h-56q-196 0 -264 76t-68 295v68q-162 -238 -366 -238q-110 0 -185 52.5t-75 130.5q0 275 626 561v141l123 66v-240v-404l3 -101q0 -118 47.5 -164t170.5 -46h44zM704 517q10 93 10 128v197q-380 -188 -531 -393q65 -63 233 -63q155 0 288 131zM1102 1432
l-144 -149q-102 54 -143 149l143 147q46 -96 144 -147zM690 1432l-144 -149q-102 54 -143 149l144 147q45 -96 143 -147z" />
    <glyph glyph-name="tehisoarabic" unicode="&#x62a;" horiz-adv-x="2071" arabic-form="isolated" 
d="M242 666h62q-73 -162 -73 -256q0 -130 205 -190t651 -60q515 0 727 98q2 57 2 81q0 222 -101 344l133 183q109 -125 109 -339q0 -199 -128 -339q-194 -213 -941 -213q-408 0 -592.5 74t-184.5 237q0 139 131 380zM1366 988l-144 -149q-102 54 -143 149l143 147
q46 -96 144 -147zM954 988l-144 -149q-102 54 -143 149l144 147q45 -96 143 -147z" />
    <glyph glyph-name="tehfinalarabic" unicode="&#x62a;" horiz-adv-x="2499" arabic-form="final" 
d="M242 666h61q-73 -163 -73 -261q0 -245 626 -245q414 0 790 151q167 68 389 277l124 66v-191q0 -149 57 -207.5t202 -58.5h54h51v-197h-54q-270 0 -352 79t-82 338v90q-403 -532 -1238 -532q-686 0 -686 311q0 139 131 380zM1365 988l-144 -149q-102 54 -143 149l143 147
q46 -96 144 -147zM953 988l-144 -149q-102 54 -143 149l144 147q45 -96 143 -147z" />
    <glyph glyph-name="tehinitialarabic" unicode="&#x62a;" horiz-adv-x="681" arabic-form="initial" 
d="M435 258q3 57 3 82q0 238 -101 392l133 184q113 -170 113 -390q0 -219 -163 -372.5t-396 -153.5h-49v197h56l145 -1q118 0 259 62zM681 1235l-144 -149q-102 54 -143 149l143 147q46 -96 144 -147zM269 1235l-144 -149q-102 54 -143 149l144 147q45 -96 143 -147z" />
    <glyph glyph-name="tehmedialarabic" unicode="&#x62a;" horiz-adv-x="802" arabic-form="medial" 
d="M368 227q-129 -227 -331 -227h-37h-25v197h28q236 0 335 109v380l123 67v-240q0 -186 53.5 -251t205.5 -65h55h51v-197h-54q-211 0 -281.5 39.5t-122.5 187.5zM746 1062l-144 -149q-102 54 -143 149l143 147q46 -96 144 -147zM334 1062l-144 -149q-102 54 -143 149
l144 147q45 -96 143 -147z" />
    <glyph glyph-name="theisoharabic" unicode="&#x62b;" horiz-adv-x="2071" arabic-form="isolated" 
d="M242 666h62q-73 -162 -73 -256q0 -130 205 -190t651 -60q515 0 727 98q2 57 2 81q0 222 -101 344l133 183q109 -125 109 -339q0 -199 -128 -339q-194 -213 -941 -213q-408 0 -592.5 74t-184.5 237q0 139 131 380zM1156 1260l-144 -149q-103 54 -144 149l144 147
q45 -96 144 -147zM1366 988l-144 -149q-103 54 -143 149l143 147q45 -95 144 -147zM954 988l-144 -149q-103 54 -143 149l143 147q45 -95 144 -147z" />
    <glyph glyph-name="thehfinalarabic" unicode="&#x62b;" horiz-adv-x="2499" arabic-form="final" 
d="M242 666h61q-73 -163 -73 -261q0 -245 626 -245q414 0 790 151q167 68 389 277l124 66v-191q0 -149 57 -207.5t202 -58.5h54h51v-197h-54q-270 0 -352 79t-82 338v90q-403 -532 -1238 -532q-686 0 -686 311q0 139 131 380zM1155 1260l-144 -149q-103 54 -144 149l144 147
q45 -96 144 -147zM1365 988l-144 -149q-103 54 -143 149l143 147q45 -95 144 -147zM953 988l-144 -149q-103 54 -143 149l143 147q45 -95 144 -147z" />
    <glyph glyph-name="thehinitialarabic" unicode="&#x62b;" horiz-adv-x="681" arabic-form="initial" 
d="M435 258q3 57 3 82q0 238 -101 392l133 184q113 -170 113 -390q0 -219 -163 -372.5t-396 -153.5h-49v197h56l145 -1q118 0 259 62zM483 1507l-144 -149q-103 54 -144 149l144 147q45 -96 144 -147zM693 1235l-144 -149q-103 54 -143 149l143 147q45 -95 144 -147z
M281 1235l-144 -149q-103 54 -143 149l143 147q45 -95 144 -147z" />
    <glyph glyph-name="thehmedialarabic" unicode="&#x62b;" horiz-adv-x="802" arabic-form="medial" 
d="M368 227q-129 -227 -331 -227h-37h-25v197h28q236 0 335 109v380l123 67v-240q0 -186 53.5 -251t205.5 -65h55h51v-197h-54q-211 0 -281.5 39.5t-122.5 187.5zM547 1334l-144 -149q-103 54 -144 149l144 147q45 -96 144 -147zM757 1062l-144 -149q-103 54 -143 149
l143 147q45 -95 144 -147zM345 1062l-144 -149q-103 54 -143 149l143 147q45 -95 144 -147z" />
    <glyph glyph-name="jeemisoarabic" unicode="&#x62c;" horiz-adv-x="1406" arabic-form="isolated" 
d="M817 603q-198 26 -427 26q-176 0 -289 -70l51 215q94 40 201 40q116 0 295 -20l130 -14l115 -13l110 -12q97 -11 146 -11l129 -2l68 -2l-47 -185l-140 4q-397 0 -638.5 -165t-241.5 -436q0 -261 205 -405.5t574 -144.5q87 0 176 12l166 22q27 4 82 11
q-108 -148 -202.5 -195.5t-282.5 -47.5q-392 0 -619 180t-227 491q0 277 171 462.5t495 259.5zM988 50l-143 -149q-103 54 -144 149l144 147q45 -95 143 -147z" />
    <glyph glyph-name="jeemfinalarabic" unicode="&#x62c;" horiz-adv-x="1414" arabic-form="final" 
d="M1097 555v-42q0 -193 45 -254.5t185 -61.5h60h52v-197h-55q-237 0 -323.5 82.5t-86.5 307.5v157q-300 -17 -498 -186.5t-198 -408.5q0 -256 206.5 -400t573.5 -144q87 0 175 12l166 22q27 4 82 11q-107 -148 -201.5 -195.5t-283.5 -47.5q-392 0 -618.5 180t-226.5 491
q0 277 171 462.5t495 259.5q-198 26 -428 26q-175 0 -288 -70l50 215q95 40 201 40q117 0 296 -20l130 -14l115 -13l110 -12q97 -11 146 -11l128 -2l68 -2l-47 -185h-201zM873 0l-143 -149q-103 54 -144 149l144 147q45 -95 143 -147z" />
    <glyph glyph-name="jeeminitialarabic" unicode="&#x62c;" horiz-adv-x="1409" arabic-form="initial" 
d="M-25 197h227q329 0 610 112q112 45 140 55l86 32l-186 64q-424 145 -616 145q-73 0 -187 -20l68 201q51 16 113 16q158 0 522 -122q65 -22 119 -38l37 -12q281 -87 500 -87l-100 -198l-68 2q-168 0 -353 -98l-43 -23l-100 -57q-295 -169 -603 -169h-166v197zM993 -196
l-143 -149q-103 54 -144 149l144 147q45 -95 143 -147z" />
    <glyph glyph-name="jeemmedialarabic" unicode="&#x62c;" horiz-adv-x="1482" arabic-form="medial" 
d="M1229 395v-43q0 -155 226 -155h51v-197h-55q-345 0 -345 308v75q-100 -24 -195 -90l-56 -39l-113 -88q-218 -166 -601 -166h-166v197h227q293 0 418 21.5t222 86.5l46 32q91 61 194 92q-640 225 -846 225q-73 0 -187 -19l68 201q51 15 113 15q158 0 522 -122
q66 -22 119 -38l37 -12q281 -87 500 -87l-100 -197q-27 1 -48 1q-8 0 -31 -1zM816 -196l-143 -149q-103 54 -144 149l144 147q45 -95 143 -147z" />
    <glyph glyph-name="hahisoarabic" unicode="&#x62d;" horiz-adv-x="1406" arabic-form="isolated" 
d="M817 603q-198 26 -427 26q-176 0 -289 -70l51 215q94 40 201 40q116 0 295 -20l130 -14l115 -13l110 -12q97 -11 146 -11l129 -2l68 -2l-47 -185l-140 4q-397 0 -638.5 -165t-241.5 -436q0 -261 205 -405.5t574 -144.5q87 0 176 12l166 22q27 4 82 11
q-108 -148 -202.5 -195.5t-282.5 -47.5q-392 0 -619 180t-227 491q0 277 171 462.5t495 259.5z" />
    <glyph glyph-name="hahfinalarabic" unicode="&#x62d;" horiz-adv-x="1414" arabic-form="final" 
d="M1097 555v-42q0 -193 45 -254.5t185 -61.5h60h52v-197h-55q-237 0 -323.5 82.5t-86.5 307.5v157q-300 -17 -498 -186.5t-198 -408.5q0 -256 206.5 -400t573.5 -144q87 0 175 12l166 22q27 4 82 11q-107 -148 -201.5 -195.5t-283.5 -47.5q-392 0 -618.5 180t-226.5 491
q0 277 171 462.5t495 259.5q-198 26 -428 26q-175 0 -288 -70l50 215q95 40 201 40q117 0 296 -20l130 -14l115 -13l110 -12q97 -11 146 -11l128 -2l68 -2l-47 -185h-201z" />
    <glyph glyph-name="hahinitialarabic" unicode="&#x62d;" horiz-adv-x="1409" arabic-form="initial" 
d="M-25 197h227q329 0 610 112q112 45 140 55l86 32l-186 64q-424 145 -616 145q-73 0 -187 -20l68 201q51 16 113 16q158 0 522 -122q65 -22 119 -38l37 -12q281 -87 500 -87l-100 -198l-68 2q-168 0 -353 -98l-43 -23l-100 -57q-295 -169 -603 -169h-166v197z" />
    <glyph glyph-name="hahmedialarabic" unicode="&#x62d;" horiz-adv-x="1482" arabic-form="medial" 
d="M1229 395v-43q0 -155 226 -155h51v-197h-55q-345 0 -345 308v75q-100 -24 -195 -90l-56 -39l-113 -88q-218 -166 -601 -166h-166v197h227q293 0 418 21.5t222 86.5l46 32q91 61 194 92q-640 225 -846 225q-73 0 -187 -19l68 201q51 15 113 15q158 0 522 -122
q66 -22 119 -38l37 -12q281 -87 500 -87l-100 -197q-27 1 -48 1q-8 0 -31 -1z" />
    <glyph glyph-name="khahisoarabic" unicode="&#x62e;" horiz-adv-x="1406" arabic-form="isolated" 
d="M817 603q-198 26 -427 26q-176 0 -289 -70l51 215q94 40 201 40q116 0 295 -20l130 -14l115 -13l110 -12q97 -11 146 -11l129 -2l68 -2l-47 -185l-140 4q-397 0 -638.5 -165t-241.5 -436q0 -261 205 -405.5t574 -144.5q87 0 176 12l166 22q27 4 82 11
q-108 -148 -202.5 -195.5t-282.5 -47.5q-392 0 -619 180t-227 491q0 277 171 462.5t495 259.5zM988 1111l-143 -149q-103 54 -144 149l144 147q45 -95 143 -147z" />
    <glyph glyph-name="khahfinalarabic" unicode="&#x62e;" horiz-adv-x="1414" arabic-form="final" 
d="M1097 555v-42q0 -193 45 -254.5t185 -61.5h60h52v-197h-55q-237 0 -323.5 82.5t-86.5 307.5v157q-300 -17 -498 -186.5t-198 -408.5q0 -256 206.5 -400t573.5 -144q87 0 175 12l166 22q27 4 82 11q-107 -148 -201.5 -195.5t-283.5 -47.5q-392 0 -618.5 180t-226.5 491
q0 277 171 462.5t495 259.5q-198 26 -428 26q-175 0 -288 -70l50 215q95 40 201 40q117 0 296 -20l130 -14l115 -13l110 -12q97 -11 146 -11l128 -2l68 -2l-47 -185h-201zM987 1111l-143 -149q-103 54 -144 149l144 147q45 -95 143 -147z" />
    <glyph glyph-name="khahinitialarabic" unicode="&#x62e;" horiz-adv-x="1409" arabic-form="initial" 
d="M-25 197h227q329 0 610 112q112 45 140 55l86 32l-186 64q-424 145 -616 145q-73 0 -187 -20l68 201q51 16 113 16q158 0 522 -122q65 -22 119 -38l37 -12q281 -87 500 -87l-100 -198l-68 2q-168 0 -353 -98l-43 -23l-100 -57q-295 -169 -603 -169h-166v197zM816 1111
l-143 -149q-103 54 -144 149l144 147q45 -95 143 -147z" />
    <glyph glyph-name="khahmedialarabic" unicode="&#x62e;" horiz-adv-x="1482" arabic-form="medial" 
d="M1229 395v-43q0 -155 226 -155h51v-197h-55q-345 0 -345 308v75q-100 -24 -195 -90l-56 -39l-113 -88q-218 -166 -601 -166h-166v197h227q293 0 418 21.5t222 86.5l46 32q91 61 194 92q-640 225 -846 225q-73 0 -187 -19l68 201q51 15 113 15q158 0 522 -122
q66 -22 119 -38l37 -12q281 -87 500 -87l-100 -197q-27 1 -48 1q-8 0 -31 -1zM816 1111l-143 -149q-103 54 -144 149l144 147q45 -95 143 -147z" />
    <glyph glyph-name="dalisoarabic" unicode="&#x62f;" horiz-adv-x="1029" arabic-form="isolated" 
d="M830 228q3 37 3 56q0 212 -126 423q-115 194 -278 204q56 199 131 199q131 0 244.5 -236t113.5 -509q0 -390 -482 -390q-399 0 -399 122q0 85 69 179q121 -103 389 -103q204 0 335 55z" />
    <glyph glyph-name="dalfinalarabic" unicode="&#x62f;" horiz-adv-x="1206" arabic-form="final" 
d="M23 19l81 204q142 -50 308 -50q243 0 405 79q-13 202 -38 327l-74 377l136 185l111 -562q44 -224 95 -303t151 -79h33v-197h-44q-136 0 -205 41t-118 151q-146 -217 -458 -217q-195 0 -383 44z" />
    <glyph glyph-name="thalisoarabic" unicode="&#x630;" horiz-adv-x="1029" arabic-form="isolated" 
d="M830 228q3 37 3 56q0 212 -126 423q-115 194 -278 204q56 199 131 199q131 0 244.5 -236t113.5 -509q0 -390 -482 -390q-399 0 -399 122q0 85 69 179q121 -103 389 -103q204 0 335 55zM705 1457l-143 -149q-103 54 -144 149l144 147q45 -95 143 -147z" />
    <glyph glyph-name="thalfinalarabic" unicode="&#x630;" horiz-adv-x="1206" arabic-form="final" 
d="M23 19l81 204q142 -50 308 -50q243 0 405 79q-13 202 -38 327l-74 377l136 185l111 -562q44 -224 95 -303t151 -79h33v-197h-44q-136 0 -205 41t-118 151q-146 -217 -458 -217q-195 0 -383 44zM830 1432l-143 -149q-103 54 -144 149l144 147q45 -95 143 -147z" />
    <glyph glyph-name="rehisoarabic" unicode="&#x631;" horiz-adv-x="793" arabic-form="isolated" 
d="M636 119q-128 353 -315 450l130 171q244 -181 244 -552q0 -326 -267 -652t-533 -326q-119 0 -209 52.5t-227 199.5q197 -55 332 -55q257 0 480 188.5t365 523.5z" />
    <glyph glyph-name="rehfinalarabic" unicode="&#x631;" horiz-adv-x="945" arabic-form="final" 
d="M-541 -538q197 -55 332 -55q257 0 480 188.5t365 523.5q-128 353 -315 450l130 171q107 -80 158 -177.5t93 -301.5q77 -64 235 -64h34v-197h-35q-127 0 -243 87q-81 -353 -319.5 -615t-478.5 -262q-119 0 -209 52.5t-227 199.5z" />
    <glyph glyph-name="zainisoarabic" unicode="&#x632;" horiz-adv-x="793" arabic-form="isolated" 
d="M636 119q-128 353 -315 450l130 171q244 -181 244 -552q0 -326 -267 -652t-533 -326q-119 0 -209 52.5t-227 199.5q197 -55 332 -55q257 0 480 188.5t365 523.5zM465 1087l-143 -149q-103 54 -144 149l144 147q45 -95 143 -147z" />
    <glyph glyph-name="zainfinalarabic" unicode="&#x632;" horiz-adv-x="945" arabic-form="final" 
d="M-541 -538q197 -55 332 -55q257 0 480 188.5t365 523.5q-128 353 -315 450l130 171q107 -80 158 -177.5t93 -301.5q77 -64 235 -64h34v-197h-35q-127 0 -243 87q-81 -353 -319.5 -615t-478.5 -262q-119 0 -209 52.5t-227 199.5zM465 1087l-143 -149q-103 54 -144 149
l144 147q45 -95 143 -147z" />
    <glyph glyph-name="seenisoarabic" unicode="&#x633;" horiz-adv-x="3072" arabic-form="isolated" 
d="M268 296h62q-115 -234 -115 -422q0 -343 542 -343q447 0 804 258q0 439 -139 656l142 196q69 -143 93 -304q155 -153 269 -153q107 0 237 122v380l123 67v-240q0 -328 287 -328q150 0 272 60l1 53q0 255 -118 434l134 184q112 -171 112 -393q0 -246 -123 -390.5
t-332 -144.5q-230 0 -326 240q-137 -240 -329 -240q-115 0 -187 72q-32 -242 -113 -360q-249 -366 -862 -366q-603 0 -603 458q0 233 169 504z" />
    <glyph glyph-name="seenfinalarabic" unicode="&#x633;" horiz-adv-x="3289" arabic-form="final" 
d="M1677 60q-32 -242 -113 -360q-249 -366 -862 -366q-603 0 -603 458q0 233 169 504h62q-115 -234 -115 -422q0 -343 542 -343q447 0 804 258q0 439 -139 656l142 196q69 -143 93 -304q155 -153 269 -153q107 0 237 122v380l123 67v-240q0 -328 271 -328q169 0 269 109v517
l123 67v-365q0 -186 53.5 -251t205.5 -65h55h51v-197h-55q-205 0 -274 36.5t-129 178.5q-129 -227 -353 -227q-123 0 -189.5 51.5t-120.5 189.5q-135 -241 -329 -241q-115 0 -187 72z" />
    <glyph glyph-name="seeninitialarabic" unicode="&#x633;" horiz-adv-x="1936" arabic-form="initial" 
d="M393 227q-129 -227 -331 -227h-61h-26v197h28h104q146 0 256 109v380l124 67v-240q0 -328 293 -328q116 0 246 121v380l124 67v-240q0 -328 287 -328q149 0 271 60l1 54q0 254 -118 433l134 184q112 -171 112 -393q0 -251 -125.5 -393.5t-346.5 -142.5q-122 0 -188.5 52
t-120.5 190q-138 -241 -337 -241q-230 0 -326 239z" />
    <glyph glyph-name="seenmedialarabic" unicode="&#x633;" horiz-adv-x="2153" arabic-form="medial" 
d="M1056 229q-138 -241 -337 -241q-230 0 -326 239q-129 -227 -331 -227h-61h-26v197h28h104q146 0 256 109v380l124 67v-240q0 -328 293 -328q116 0 246 121v380l124 67v-240q0 -328 270 -328q170 0 269 109v517l124 67v-365q0 -186 53 -251t205 -65h55h51v-197h-54
q-206 0 -275 36.5t-129 178.5q-129 -227 -353 -227q-123 0 -189.5 51.5t-120.5 189.5z" />
    <glyph glyph-name="sheenisoarabic" unicode="&#x634;" horiz-adv-x="3072" arabic-form="isolated" 
d="M268 296h62q-115 -234 -115 -422q0 -343 542 -343q447 0 804 258q0 439 -139 656l142 196q69 -143 93 -304q155 -153 269 -153q107 0 237 122v380l123 67v-240q0 -328 287 -328q150 0 272 60l1 53q0 255 -118 434l134 184q112 -171 112 -393q0 -246 -123 -390.5
t-332 -144.5q-230 0 -326 240q-137 -240 -329 -240q-115 0 -187 72q-32 -242 -113 -360q-249 -366 -862 -366q-603 0 -603 458q0 233 169 504zM2357 1334l-144 -149q-103 54 -144 149l144 147q45 -96 144 -147zM2567 1062l-144 -149q-103 54 -143 149l143 147
q45 -95 144 -147zM2155 1062l-144 -149q-103 54 -143 149l143 147q45 -95 144 -147z" />
    <glyph glyph-name="sheenfinalarabic" unicode="&#x634;" horiz-adv-x="3289" arabic-form="final" 
d="M1677 60q-32 -242 -113 -360q-249 -366 -862 -366q-603 0 -603 458q0 233 169 504h62q-115 -234 -115 -422q0 -343 542 -343q447 0 804 258q0 439 -139 656l142 196q69 -143 93 -304q155 -153 269 -153q107 0 237 122v380l123 67v-240q0 -328 271 -328q169 0 269 109v517
l123 67v-365q0 -186 53.5 -251t205.5 -65h55h51v-197h-55q-205 0 -274 36.5t-129 178.5q-129 -227 -353 -227q-123 0 -189.5 51.5t-120.5 189.5q-135 -241 -329 -241q-115 0 -187 72zM2368 1334l-144 -149q-103 54 -144 149l144 147q45 -96 144 -147zM2578 1062l-144 -149
q-103 54 -143 149l143 147q45 -95 144 -147zM2166 1062l-144 -149q-103 54 -143 149l143 147q45 -95 144 -147z" />
    <glyph glyph-name="sheeninitialarabi" unicode="&#x634;" horiz-adv-x="1936" arabic-form="initial" 
d="M393 227q-129 -227 -331 -227h-61h-26v197h28h104q146 0 256 109v380l124 67v-240q0 -328 293 -328q116 0 246 121v380l124 67v-240q0 -328 287 -328q149 0 271 60l1 54q0 254 -118 433l134 184q112 -171 112 -393q0 -251 -125.5 -393.5t-346.5 -142.5q-122 0 -188.5 52
t-120.5 190q-138 -241 -337 -241q-230 0 -326 239zM1232 1334l-144 -149q-103 54 -144 149l144 147q45 -96 144 -147zM1442 1062l-144 -149q-103 54 -143 149l143 147q45 -95 144 -147zM1030 1062l-144 -149q-103 54 -143 149l143 147q45 -95 144 -147z" />
    <glyph glyph-name="sheenmedialarabic" unicode="&#x634;" horiz-adv-x="2153" arabic-form="medial" 
d="M1056 229q-138 -241 -337 -241q-230 0 -326 239q-129 -227 -331 -227h-61h-26v197h28h104q146 0 256 109v380l124 67v-240q0 -328 293 -328q116 0 246 121v380l124 67v-240q0 -328 270 -328q170 0 269 109v517l124 67v-365q0 -186 53 -251t205 -65h55h51v-197h-54
q-206 0 -275 36.5t-129 178.5q-129 -227 -353 -227q-123 0 -189.5 51.5t-120.5 189.5zM1232 1334l-144 -149q-103 54 -144 149l144 147q45 -96 144 -147zM1442 1062l-144 -149q-103 54 -143 149l143 147q45 -95 144 -147zM1030 1062l-144 -149q-103 54 -143 149l143 147
q45 -95 144 -147z" />
    <glyph glyph-name="sadisoarabic" unicode="&#x635;" horiz-adv-x="3267" arabic-form="isolated" 
d="M280 296h62q-115 -234 -115 -422q0 -343 542 -343q448 0 804 258q0 440 -139 656l143 196q71 -142 105 -367q158 -79 306 -98l56 63q572 649 850 649q115 0 189 -91.5t74 -234.5q0 -271 -262 -429t-713 -158q-282 0 -500 83q0 -328 -265 -526t-704 -198q-602 0 -602 458
q0 233 169 504zM2053 168q98 -6 140 -6q470 0 807 137q7 57 7 84q0 138 -55 229.5t-137 91.5q-104 0 -318 -150.5t-444 -385.5z" />
    <glyph glyph-name="sadfinalarabic" unicode="&#x635;" horiz-adv-x="3267" arabic-form="final" 
d="M1682 58q0 -328 -265 -526t-704 -198q-602 0 -602 458q0 233 169 504h62q-115 -234 -115 -422q0 -343 542 -343q448 0 804 258q0 440 -139 656l143 196q71 -142 105 -367q158 -79 306 -98l56 63q572 649 850 649q116 0 189.5 -92t73.5 -238q0 -153 -115 -294
q69 -67 215 -67h36v-197h-42q-167 0 -257 212q-249 -237 -810 -237q-284 0 -502 83zM2053 168q98 -6 140 -6q470 0 807 137q7 57 7 84q0 138 -55 229.5t-137 91.5q-104 0 -318 -150.5t-444 -385.5z" />
    <glyph glyph-name="sadinitialarabic" unicode="&#x635;" horiz-adv-x="2062" arabic-form="initial" 
d="M859 166q100 -6 143 -6q191 0 426 40.5t378 98.5q7 57 7 84q0 138 -55 229.5t-138 91.5q-105 0 -313.5 -147t-447.5 -391zM393 227q-129 -227 -331 -227h-62h-25v197h28h104q146 0 256 109v331l123 67v-191q0 -173 69.5 -249.5t238.5 -90.5l56 63q573 652 850 652
q115 0 189 -91.5t74 -234.5q0 -280 -267.5 -433.5t-754.5 -153.5q-243 0 -366 56.5t-182 195.5z" />
    <glyph glyph-name="sadmedialarabic" unicode="&#x635;" horiz-adv-x="2074" arabic-form="medial" 
d="M859 166q100 -6 143 -6q191 0 426 40.5t378 98.5q7 57 7 84q0 138 -55 229.5t-138 91.5q-105 0 -313.5 -147t-447.5 -391zM393 227q-129 -227 -331 -227h-62h-25v197h28h104q146 0 256 109v331l123 67v-191q0 -173 69.5 -249.5t238.5 -90.5l56 63q573 652 850 652
q116 0 189.5 -92t73.5 -238q0 -153 -115 -294q68 -67 215 -67h36v-197h-42q-167 0 -257 212q-249 -237 -857 -237q-245 0 -368 56.5t-182 195.5z" />
    <glyph glyph-name="dadisoarabic" unicode="&#x636;" horiz-adv-x="3267" arabic-form="isolated" 
d="M280 296h62q-115 -234 -115 -422q0 -343 542 -343q448 0 804 258q0 440 -139 656l143 196q71 -142 105 -367q158 -79 306 -98l56 63q572 649 850 649q115 0 189 -91.5t74 -234.5q0 -271 -262 -429t-713 -158q-282 0 -500 83q0 -328 -265 -526t-704 -198q-602 0 -602 458
q0 233 169 504zM2053 168q98 -6 140 -6q470 0 807 137q7 57 7 84q0 138 -55 229.5t-137 91.5q-104 0 -318 -150.5t-444 -385.5zM3032 1247l-143 -149q-103 54 -144 149l144 147q45 -95 143 -147z" />
    <glyph glyph-name="dadfinalarabic" unicode="&#x636;" horiz-adv-x="3267" arabic-form="final" 
d="M1682 58q0 -328 -265 -526t-704 -198q-602 0 -602 458q0 233 169 504h62q-115 -234 -115 -422q0 -343 542 -343q448 0 804 258q0 440 -139 656l143 196q71 -142 105 -367q158 -79 306 -98l56 63q572 649 850 649q116 0 189.5 -92t73.5 -238q0 -153 -115 -294
q69 -67 215 -67h36v-197h-42q-167 0 -257 212q-249 -237 -810 -237q-284 0 -502 83zM2053 168q98 -6 140 -6q470 0 807 137q7 57 7 84q0 138 -55 229.5t-137 91.5q-104 0 -318 -150.5t-444 -385.5zM3032 1247l-143 -149q-103 54 -144 149l144 147q45 -95 143 -147z" />
    <glyph glyph-name="dadinitialarabic" unicode="&#x636;" horiz-adv-x="2062" arabic-form="initial" 
d="M859 166q100 -6 143 -6q191 0 426 40.5t378 98.5q7 57 7 84q0 138 -55 229.5t-138 91.5q-105 0 -313.5 -147t-447.5 -391zM393 227q-129 -227 -331 -227h-62h-25v197h28h104q146 0 256 109v331l123 67v-191q0 -173 69.5 -249.5t238.5 -90.5l56 63q573 652 850 652
q115 0 189 -91.5t74 -234.5q0 -280 -267.5 -433.5t-754.5 -153.5q-243 0 -366 56.5t-182 195.5zM1838 1247l-143 -149q-103 54 -144 149l144 147q45 -95 143 -147z" />
    <glyph glyph-name="dadmedialarabic" unicode="&#x636;" horiz-adv-x="2074" arabic-form="medial" 
d="M859 166q100 -6 143 -6q191 0 426 40.5t378 98.5q7 57 7 84q0 138 -55 229.5t-138 91.5q-105 0 -313.5 -147t-447.5 -391zM393 227q-129 -227 -331 -227h-62h-25v197h28h104q146 0 256 109v331l123 67v-191q0 -173 69.5 -249.5t238.5 -90.5l56 63q573 652 850 652
q116 0 189.5 -92t73.5 -238q0 -153 -115 -294q68 -67 215 -67h36v-197h-42q-167 0 -257 212q-249 -237 -857 -237q-245 0 -368 56.5t-182 195.5zM1838 1247l-143 -149q-103 54 -144 149l144 147q45 -95 143 -147z" />
    <glyph glyph-name="tahisoarabic" unicode="&#x637;" horiz-adv-x="1849" arabic-form="isolated" 
d="M709 316q311 339 465 455.5t294 116.5q112 0 185 -92.5t73 -233.5q0 -232 -237 -418q-216 -169 -855 -169q-346 0 -634 123l95 10l201 22l193 22l51 6q23 20 29 27l45 53q4 5 27 23q41 149 41 468v783l146 166q12 -212 78 -387q8 -21 24 -62l-125 109v-493
q0 -260 -96 -529zM619 164q154 13 335 26q453 31 616 109q6 57 6 84q0 136 -54 228.5t-133 92.5q-96 0 -311 -151t-459 -389z" />
    <glyph glyph-name="tahfinalarabic" unicode="&#x637;" horiz-adv-x="1837" arabic-form="final" 
d="M0 98l94 10l201 22l193 22l51 6q23 20 29 27l45 53q4 5 27 23q41 149 41 468v783l147 166q11 -212 78 -387q8 -21 23 -62l-124 109v-493q0 -260 -96 -529q310 339 464.5 455.5t293.5 116.5q112 0 185.5 -92.5t73.5 -234.5q0 -154 -115 -297q68 -67 214 -67h36v-197h-42
q-167 0 -256 212q-248 -237 -906 -237q-370 0 -657 123zM618 164q155 13 336 26q453 31 615 109q6 57 6 84q0 136 -54 228.5t-133 92.5q-96 0 -311 -151t-459 -389z" />
    <glyph glyph-name="tahinitialarabic" unicode="&#x637;" horiz-adv-x="1483" arabic-form="initial" 
d="M185 197q19 15 23 18l51 47q7 7 27 24q42 148 42 468v754l146 167q11 -214 78 -387q8 -21 23 -62l-124 109v-466q0 -261 -96 -529l77 84q422 461 686 461q108 0 181 -94t73 -233q0 -244 -237 -412q-128 -90 -290.5 -118t-564.5 -28h-305v197h210zM264 197h104
q249 0 492 36.5t355 89.5q6 57 6 85q0 136 -54 228t-134 92q-154 0 -680 -454q-29 -26 -89 -77z" />
    <glyph glyph-name="tahmedialarabic" unicode="&#x637;" horiz-adv-x="1483" arabic-form="medial" 
d="M-25 0v197h210q19 15 23 18l51 47q7 7 27 24q42 148 42 468v754l146 167q11 -214 78 -387q8 -21 23 -62l-124 109v-466q0 -261 -96 -529l77 84q422 461 686 461q109 0 181.5 -94t72.5 -234q0 -151 -115 -293q68 -67 214 -67h36v-197h-42q-167 0 -256 212
q-143 -135 -311.5 -173.5t-617.5 -38.5h-305zM264 197h104q249 0 492 36.5t355 89.5q6 57 6 85q0 136 -54 228t-134 92q-154 0 -680 -454q-29 -26 -89 -77z" />
    <glyph glyph-name="zahaisorabic" unicode="&#x638;" horiz-adv-x="1849" arabic-form="isolated" 
d="M709 316q311 339 465 455.5t294 116.5q112 0 185 -92.5t73 -233.5q0 -232 -237 -418q-216 -169 -855 -169q-346 0 -634 123l95 10l201 22l193 22l51 6q23 20 29 27l45 53q4 5 27 23q41 149 41 468v783l146 166q12 -212 78 -387q8 -21 24 -62l-125 109v-493
q0 -260 -96 -529zM619 164q154 13 335 26q453 31 616 109q6 57 6 84q0 136 -54 228.5t-133 92.5q-96 0 -311 -151t-459 -389zM1613 1235l-143 -149q-103 54 -144 149l144 147q45 -95 143 -147z" />
    <glyph glyph-name="zahfinalarabic" unicode="&#x638;" horiz-adv-x="1837" arabic-form="final" 
d="M0 98l94 10l201 22l193 22l51 6q23 20 29 27l45 53q4 5 27 23q41 149 41 468v783l147 166q11 -212 78 -387q8 -21 23 -62l-124 109v-493q0 -260 -96 -529q310 339 464.5 455.5t293.5 116.5q112 0 185.5 -92.5t73.5 -234.5q0 -154 -115 -297q68 -67 214 -67h36v-197h-42
q-167 0 -256 212q-248 -237 -906 -237q-370 0 -657 123zM618 164q155 13 336 26q453 31 615 109q6 57 6 84q0 136 -54 228.5t-133 92.5q-96 0 -311 -151t-459 -389zM1612 1235l-143 -149q-103 54 -144 149l144 147q45 -95 143 -147z" />
    <glyph glyph-name="zahinitialarabic" unicode="&#x638;" horiz-adv-x="1483" arabic-form="initial" 
d="M185 197q19 15 23 18l51 47q7 7 27 24q42 148 42 468v754l146 167q11 -214 78 -387q8 -21 23 -62l-124 109v-466q0 -261 -96 -529l77 84q422 461 686 461q108 0 181 -94t73 -233q0 -244 -237 -412q-128 -90 -290.5 -118t-564.5 -28h-305v197h210zM264 197h104
q249 0 492 36.5t355 89.5q6 57 6 85q0 136 -54 228t-134 92q-154 0 -680 -454q-29 -26 -89 -77zM1263 1235l-143 -149q-103 54 -144 149l144 147q45 -95 143 -147z" />
    <glyph glyph-name="zahmedialarabic" unicode="&#x638;" horiz-adv-x="1483" arabic-form="medial" 
d="M-25 0v197h210q19 15 23 18l51 47q7 7 27 24q42 148 42 468v754l146 167q11 -214 78 -387q8 -21 23 -62l-124 109v-466q0 -261 -96 -529l77 84q422 461 686 461q109 0 181.5 -94t72.5 -234q0 -151 -115 -293q68 -67 214 -67h36v-197h-42q-167 0 -256 212
q-143 -135 -311.5 -173.5t-617.5 -38.5h-305zM264 197h104q249 0 492 36.5t355 89.5q6 57 6 85q0 136 -54 228t-134 92q-154 0 -680 -454q-29 -26 -89 -77zM1258 1235l-143 -149q-103 54 -144 149l144 147q45 -95 143 -147z" />
    <glyph glyph-name="ainisoarabic" unicode="&#x639;" horiz-adv-x="1433" arabic-form="isolated" 
d="M404 328q-154 116 -154 341q0 181 98.5 299t249.5 118q204 0 284 -218q-140 21 -240 21q-194 0 -325 -101q13 -119 65.5 -180t201.5 -129q202 149 420 230l-32 -199q-307 -73 -500 -252.5t-193 -390.5q0 -459 707 -459q231 0 483 45q-110 -152 -205.5 -197.5
t-306.5 -45.5q-402 0 -611.5 153.5t-209.5 446.5q0 255 268 518z" />
    <glyph glyph-name="ainfinalarabic" unicode="&#x639;" horiz-adv-x="1275" arabic-form="final" 
d="M775 345q171 101 171 224q0 140 -216 140q-162 0 -311 -54q116 -61 207 -156l96 -100q12 -13 53 -54zM1483 -547q-111 -153 -207 -198t-313 -45q-380 0 -597.5 145.5t-217.5 398.5q0 189 107 307.5t355 203.5q-38 31 -45 37l-122 106q-117 102 -238 150l133 190
q226 140 441 140q152 0 243.5 -71t91.5 -188q0 -110 -60.5 -183t-217.5 -153q138 -96 342 -96h122v-197h-131q-199 0 -286.5 34.5t-222.5 164.5q-203 -77 -285 -165.5t-82 -228.5q0 -182 188 -289.5t507 -107.5q242 0 495 45z" />
    <glyph glyph-name="aininitialarabic" unicode="&#x639;" horiz-adv-x="1043" arabic-form="initial" 
d="M-25 0v197h63l92 -1q192 0 345 91q-229 176 -229 420q0 150 124.5 265t285.5 115q198 0 277 -219q-141 21 -240 21q-235 0 -364 -101q46 -128 104.5 -188.5t231.5 -158.5q228 150 365 171l-31 -198q-169 -32 -376 -161q-76 -47 -139 -83l-59 -33l-129 -73
q-120 -64 -280 -64h-41z" />
    <glyph glyph-name="ainmedialarabic" unicode="&#x639;" horiz-adv-x="1147" arabic-form="medial" 
d="M-25 0v197h148q221 0 394 35l-79 70q-233 205 -360 256l133 190q226 140 440 140q150 0 242.5 -70.5t92.5 -184.5q0 -106 -56 -181t-207 -171q150 -84 328 -84h121v-197h-131q-190 0 -274.5 29.5t-199.5 137.5q-35 -25 -52 -38q-124 -88 -186 -108.5t-210 -20.5h-144z
M673 334q156 116 156 231q0 144 -215 144q-173 0 -305 -54q147 -100 311 -268q17 -18 53 -53z" />
    <glyph glyph-name="ghainisoarabic" unicode="&#x63a;" horiz-adv-x="1433" arabic-form="isolated" 
d="M404 328q-154 116 -154 341q0 181 98.5 299t249.5 118q204 0 284 -218q-140 21 -240 21q-194 0 -325 -101q13 -119 65.5 -180t201.5 -129q202 149 420 230l-32 -199q-307 -73 -500 -252.5t-193 -390.5q0 -459 707 -459q231 0 483 45q-110 -152 -205.5 -197.5
t-306.5 -45.5q-402 0 -611.5 153.5t-209.5 446.5q0 255 268 518zM727 1432l-143 -149q-103 54 -144 149l144 147q45 -95 143 -147z" />
    <glyph glyph-name="ghainfinalarabic" unicode="&#x63a;" horiz-adv-x="1275" arabic-form="final" 
d="M775 345q171 101 171 224q0 140 -216 140q-162 0 -311 -54q116 -61 207 -156l96 -100q12 -13 53 -54zM1483 -547q-111 -153 -207 -198t-313 -45q-380 0 -597.5 145.5t-217.5 398.5q0 189 107 307.5t355 203.5q-38 31 -45 37l-122 106q-117 102 -238 150l133 190
q226 140 441 140q152 0 243.5 -71t91.5 -188q0 -110 -60.5 -183t-217.5 -153q138 -96 342 -96h122v-197h-131q-199 0 -286.5 34.5t-222.5 164.5q-203 -77 -285 -165.5t-82 -228.5q0 -182 188 -289.5t507 -107.5q242 0 495 45zM909 1235l-143 -149q-103 54 -144 149l144 147
q45 -95 143 -147z" />
    <glyph glyph-name="ghaininitialarabic" unicode="&#x63a;" horiz-adv-x="1043" arabic-form="initial" 
d="M-25 0v197h63l92 -1q192 0 345 91q-229 176 -229 420q0 150 124.5 265t285.5 115q198 0 277 -219q-141 21 -240 21q-235 0 -364 -101q46 -128 104.5 -188.5t231.5 -158.5q228 150 365 171l-31 -198q-169 -32 -376 -161q-76 -47 -139 -83l-59 -33l-129 -73
q-120 -64 -280 -64h-41zM779 1432l-143 -149q-103 54 -144 149l144 147q45 -95 143 -147z" />
    <glyph glyph-name="ghainmedialarabic" unicode="&#x63a;" horiz-adv-x="1147" arabic-form="medial" 
d="M-25 0v197h148q221 0 394 35l-79 70q-233 205 -360 256l133 190q226 140 440 140q150 0 242.5 -70.5t92.5 -184.5q0 -106 -56 -181t-207 -171q150 -84 328 -84h121v-197h-131q-190 0 -274.5 29.5t-199.5 137.5q-35 -25 -52 -38q-124 -88 -186 -108.5t-210 -20.5h-144z
M673 334q156 116 156 231q0 144 -215 144q-173 0 -305 -54q147 -100 311 -268q17 -18 53 -53zM792 1235l-143 -149q-103 54 -144 149l144 147q45 -95 143 -147z" />
    <glyph glyph-name="fehisoarabic" unicode="&#x641;" horiz-adv-x="2541" arabic-form="isolated" 
d="M2292 408q-81 -20 -163 -20q-334 0 -334 249q0 194 107.5 346t244.5 152q125 0 204 -135.5t79 -347.5q0 -387 -321 -541q-169 -80 -493.5 -132.5t-654.5 -52.5q-850 0 -850 367q0 133 131 373h62q-78 -172 -78 -285q0 -145 171 -201.5t610 -56.5q785 0 1254 177
q27 63 31 108zM1865 658q121 -72 259 -72q88 0 191 15l1 37q0 122 -62.5 206t-154.5 84q-176 0 -234 -270zM2342 1481l-143 -149q-103 54 -144 149l144 147q45 -95 143 -147z" />
    <glyph glyph-name="fehfinalarabic" unicode="&#x641;" horiz-adv-x="2675" arabic-form="final" 
d="M2295 251q149 -54 371 -54h34v-197h-113q-245 0 -473 115q-460 -189 -1160 -189q-843 0 -843 367q0 133 131 373h62q-78 -172 -78 -285q0 -143 169 -200.5t588 -57.5q616 0 1008 103q-153 132 -153 303q0 154 114.5 272t262.5 118q121 0 199 -87t78 -223
q0 -166 -197 -358zM2175 304q133 109 190 200q-34 218 -182 218q-142 0 -234 -177q66 -147 226 -241zM2365 1235l-143 -149q-103 54 -144 149l144 147q45 -95 143 -147z" />
    <glyph glyph-name="fehinitialarabic" unicode="&#x641;" horiz-adv-x="957" arabic-form="initial" 
d="M-25 0v197h114q205 0 314.5 18.5t284.5 84.5q27 63 31 108q-81 -20 -163 -20q-334 0 -334 250q0 193 107.5 345t245.5 152q125 0 204 -135.5t79 -348.5q0 -267 -157 -421q-102 -100 -282.5 -165t-356.5 -65h-87zM292 658q122 -72 259 -72q88 0 192 15l1 37q0 122 -63 206
t-154 84q-177 0 -235 -270zM769 1481l-143 -149q-103 54 -144 149l144 147q45 -95 143 -147z" />
    <glyph glyph-name="fehmedialarabic" unicode="&#x641;" horiz-adv-x="1024" arabic-form="medial" 
d="M-25 0v197h122q136 0 239 31q-150 130 -150 302q0 153 114 271t262 118q122 0 200 -87t78 -223q0 -166 -197 -358q177 -54 371 -54h34v-197h-114q-258 0 -465 113q-212 -113 -388 -113h-106zM522 304q134 109 190 200q-33 218 -182 218q-142 0 -234 -177
q65 -147 226 -241zM713 1235l-143 -149q-103 54 -144 149l144 147q45 -95 143 -147z" />
    <glyph glyph-name="qafisoarabic" unicode="&#x642;" horiz-adv-x="1754" arabic-form="isolated" 
d="M234 195h61q-88 -186 -88 -355q0 -432 554 -432q469 0 736 361q13 86 15 119l7 114l1 11q-82 -19 -164 -19q-333 0 -333 249q0 194 107.5 345.5t244.5 151.5q127 0 205 -136t78 -357q0 -469 -255.5 -753t-676.5 -284q-292 0 -459.5 144.5t-167.5 397.5q0 208 135 443z
M1771 1087l-144 -149q-102 54 -143 149l144 147q45 -96 143 -147zM1359 1087l-144 -149q-102 54 -143 149l144 147q44 -96 143 -147zM1093 263q121 -72 259 -72q87 0 191 15l1 37q0 123 -62.5 206.5t-154.5 83.5q-176 0 -234 -270z" />
    <glyph glyph-name="qaffinalarabic" unicode="&#x642;" horiz-adv-x="1785" arabic-form="final" 
d="M1770 1087l-143 -149q-103 54 -144 149l144 147q45 -96 143 -147zM1358 1087l-143 -149q-103 54 -144 149l144 147q44 -96 143 -147zM1652 197h158v-197h-176q-161 -790 -909 -790q-292 0 -459 144.5t-167 397.5q0 208 134 443h62q-89 -186 -89 -355q0 -432 554 -432
q469 0 736 361q22 150 22 233q-79 -8 -146 -8q-190 0 -272 57.5t-82 191.5q0 194 108 345.5t245 151.5q123 0 203 -135t80 -344q0 -19 -2 -64zM1089 263q121 -72 259 -72q87 0 191 15l1 37q0 122 -62.5 206t-154.5 84q-176 0 -234 -270z" />
    <glyph glyph-name="qafinitialarabic" unicode="&#x642;" horiz-adv-x="957" arabic-form="initial" 
d="M-25 0v197h114q205 0 314.5 18.5t284.5 84.5q27 63 31 108q-81 -20 -163 -20q-334 0 -334 250q0 193 107.5 345t245.5 152q125 0 204 -135.5t79 -348.5q0 -267 -157 -421q-102 -100 -282.5 -165t-356.5 -65h-87zM292 658q122 -72 259 -72q88 0 192 15l1 37q0 122 -63 206
t-154 84q-177 0 -235 -270zM970 1481l-144 -149q-102 54 -143 149l143 147q46 -96 144 -147zM558 1481l-144 -149q-102 54 -143 149l144 147q45 -96 143 -147z" />
    <glyph glyph-name="qafmedialarabic" unicode="&#x642;" horiz-adv-x="1024" arabic-form="medial" 
d="M-25 0v197h122q136 0 239 31q-150 130 -150 302q0 153 114 271t262 118q122 0 200 -87t78 -223q0 -166 -197 -358q177 -54 371 -54h34v-197h-114q-258 0 -465 113q-212 -113 -388 -113h-106zM522 304q134 109 190 200q-33 218 -182 218q-142 0 -234 -177
q65 -147 226 -241zM914 1266l-144 -149q-102 54 -143 149l143 147q46 -96 144 -147zM502 1266l-144 -149q-102 54 -143 149l144 147q45 -96 143 -147z" />
    <glyph glyph-name="kafisoarabic" unicode="&#x643;" horiz-adv-x="2344" arabic-form="isolated" 
d="M793 597l380 265l-93 49q-120 64 -120 145q0 90 96 172t201 82q13 0 40 -2l-41 -116q-23 2 -35 2q-118 0 -198 -108l104 -59q126 -70 126 -124q0 -47 -115 -178q-67 -75 -137.5 -101.5t-207.5 -26.5zM265 666h62q-73 -162 -73 -251q0 -123 208 -182.5t638 -59.5
q552 0 843 169q41 207 41 468v702l146 166q12 -261 102 -449l-124 121v-401q0 -384 -98 -585q-191 -389 -1106 -389q-402 0 -586 74.5t-184 236.5q0 139 131 380z" />
    <glyph glyph-name="kaffinalarabic" unicode="&#x643;" horiz-adv-x="2448" arabic-form="final" 
d="M793 597l380 265l-93 49q-120 64 -120 145q0 90 96 172t201 82q13 0 40 -2l-41 -116q-23 2 -35 2q-118 0 -198 -108l104 -59q126 -70 126 -124q0 -47 -115 -178q-67 -75 -137.5 -101.5t-207.5 -26.5zM2472 197v-197h-54l-95 2q-193 0 -258 71.5t-86 305.5
q-404 -404 -1074 -404q-403 0 -587 74.5t-184 236.5q0 139 131 380h62q-73 -162 -73 -251q0 -242 726 -242q617 0 983 291q21 212 21 346v702l146 166q12 -261 102 -449l-124 121v-837q0 -192 50.5 -254t208.5 -62h54h51z" />
    <glyph glyph-name="kafinitialarabic" unicode="&#x643;" horiz-adv-x="1121" arabic-form="initial" 
d="M-25 197h166q472 0 656 83q-46 271 -225.5 479.5t-453.5 308.5l89 197l901 408l-88 -197l-686 -317q229 -109 375 -326.5t146 -450.5q0 -382 -728 -382h-152v197z" />
    <glyph glyph-name="kafmedialarabic" unicode="&#x643;" horiz-adv-x="1066" arabic-form="medial" 
d="M1090 197v-197h-38q-97 0 -171 55t-210 229q-46 58 -70 87l-105 126q5 -68 5 -118q0 -168 -117.5 -273.5t-305.5 -105.5h-103v197h90q213 0 358 76q6 66 6 95q0 136 -42 232t-170 250l-184 223l89 198l898 407l-89 -197l-728 -337l536 -671q133 -167 196.5 -221.5
t126.5 -54.5h28z" />
    <glyph glyph-name="lamisoarabic" unicode="&#x644;" horiz-adv-x="2065" arabic-form="isolated" 
d="M222 140h61q-63 -153 -63 -281q0 -180 132 -260t426 -80q281 0 462 39.5t326 133.5q41 208 41 468v1352l147 166q0 -236 101 -449l-124 121v-1000q0 -412 -97 -630q-173 -387 -896 -387q-627 0 -627 407q0 172 111 400z" />
    <glyph glyph-name="lamfinalarabic" unicode="&#x644;" horiz-adv-x="2071" arabic-form="final" 
d="M1714 65l-18 -126q-39 -181 -90 -272.5t-154 -164.5q-239 -169 -714 -169q-627 0 -627 407q0 172 111 400h61q-63 -153 -63 -281q0 -180 132 -260t426 -80q281 0 462 39.5t326 133.5q41 208 41 468v1352l147 166q0 -236 101 -449l-124 121v-837q0 -192 50.5 -254
t208.5 -62h54h51v-197h-54q-245 0 -327 65z" />
    <glyph glyph-name="laminitialarabic" unicode="&#x644;" horiz-adv-x="753" arabic-form="initial" 
d="M-25 0v197h86q159 0 293 40q10 105 11 131l10 182q7 127 7 173v789l146 166q0 -236 102 -449l-124 121v-602q0 -407 -107 -556q-137 -192 -379 -192h-45z" />
    <glyph glyph-name="lammedialarabic" unicode="&#x644;" horiz-adv-x="802" arabic-form="medial" 
d="M368 227q-130 -227 -331 -227h-37h-25v197h27q237 0 336 109v1305l123 67v-1165q0 -186 53.5 -251t205.5 -65h55h51v-197h-54q-211 0 -281.5 40t-122.5 187z" />
    <glyph glyph-name="meemisoarabic" unicode="&#x645;" horiz-adv-x="1123" arabic-form="isolated" 
d="M1069 363l-101 -183q-140 30 -301 30q-255 0 -344.5 -61t-89.5 -234q0 -195 56 -513l-142 -192q12 116 12 218l3 148l2 150v34l-8 139l-4 93l-6 105q0 112 45.5 170t164.5 96q-26 91 -26 180q0 166 63 268t166 102q128 0 296 -298l34 -62q89 -158 180 -190zM791 403
q-34 38 -65 90l-34 59l-16 27q-87 149 -146 149q-124 0 -124 -204q0 -45 12 -142q109 25 262 25q54 0 111 -4z" />
    <glyph glyph-name="meemfinalarabic" unicode="&#x645;" horiz-adv-x="1309" arabic-form="final" 
d="M507 426l44 -40q209 -191 279.5 -242t169.5 -87q0 199 -99 366.5t-217 167.5q-84 0 -149 -115zM441 214q-121 -69 -164 -132t-43 -171q0 -195 56 -509l-142 -192q12 116 12 218l3 148l2 150v34q0 18 -8 139q-5 69 -5 133q0 167 146 281l23 19q94 73 157 189l30 57
q72 132 115.5 172t115.5 40q115 0 218.5 -104t162.5 -279l12 -34q59 -176 167 -176h35v-197h-33q-102 0 -177 150q-62 -175 -218 -175q-172 0 -420 202q-15 13 -45 37z" />
    <glyph glyph-name="meeminitialarabic" unicode="&#x645;" horiz-adv-x="1111" arabic-form="initial" 
d="M366 426l44 -40q210 -191 280 -242t169 -87q0 199 -99 366.5t-217 167.5q-84 0 -149 -115zM-25 0v197h21q120 0 179.5 52t153.5 238l28 55l50 99q77 149 186 149q143 0 274.5 -171t131.5 -357q0 -131 -64.5 -209t-174.5 -78q-238 0 -466 260q-75 -157 -121 -196t-158 -39
h-40z" />
    <glyph glyph-name="meemmedialarabic" unicode="&#x645;" horiz-adv-x="1170" arabic-form="medial" 
d="M294 235q-75 -157 -121 -196t-158 -39h-40v197h21q120 0 179.5 52t153.5 238l28 55l50 99q76 149 191 149q116 0 219 -104t162 -279l12 -34q59 -176 168 -176h35v-197h-34q-101 0 -177 150q-61 -175 -221 -175q-240 0 -468 260zM366 426l44 -40q210 -191 280 -242
t169 -87q0 199 -99 366.5t-217 167.5q-84 0 -149 -115z" />
    <glyph glyph-name="noonisoarabic" unicode="&#x646;" horiz-adv-x="1784" arabic-form="isolated" 
d="M280 296h61q-114 -234 -114 -422q0 -343 533 -343q481 0 809 225q0 339 -135 551l142 196q97 -198 97 -434q0 -361 -248 -548.5t-724 -187.5q-590 0 -590 459q0 233 169 504zM1134 865l-143 -149q-103 54 -144 149l144 147q45 -95 143 -147z" />
    <glyph glyph-name="noonfinalarabic" unicode="&#x646;" horiz-adv-x="1972" arabic-form="final" 
d="M280 296h62q-115 -234 -115 -422q0 -343 533 -343q481 0 810 225q0 358 -162 714l142 196q68 -160 131 -421q77 -48 210 -48h54h52v-197h-55q-187 0 -269 25q-21 -223 -90 -342q-92 -159 -332.5 -254.5t-549.5 -95.5q-590 0 -590 459q0 233 169 504zM1052 963l-143 -149
q-103 54 -144 149l144 147q44 -95 143 -147z" />
    <glyph glyph-name="nooninitialarabic" unicode="&#x646;" horiz-adv-x="681" arabic-form="initial" 
d="M435 258q3 57 3 82q0 238 -101 392l133 184q113 -170 113 -390q0 -219 -163 -372.5t-396 -153.5h-49v197h56l145 -1q118 0 259 62zM333 1235l-143 -149q-103 54 -144 149l144 147q45 -95 143 -147z" />
    <glyph glyph-name="noonmedialarabic" unicode="&#x646;" horiz-adv-x="802" arabic-form="medial" 
d="M368 227q-129 -227 -331 -227h-37h-25v197h28q236 0 335 109v380l123 67v-240q0 -186 53.5 -251t205.5 -65h55h51v-197h-54q-211 0 -281.5 39.5t-122.5 187.5zM547 1062l-143 -149q-103 54 -144 149l144 147q45 -95 143 -147z" />
    <glyph glyph-name="hehisoarabic" unicode="&#x647;" horiz-adv-x="1113" arabic-form="isolated" 
d="M544 925q458 -237 458 -517q0 -182 -147 -307.5t-361 -125.5q-179 0 -281 81t-102 224q0 264 328 504zM474 732q-232 -206 -232 -366q0 -193 291 -193q180 0 368 87q-75 304 -427 472z" />
    <glyph glyph-name="hehfinalarabic" unicode="&#x647;" horiz-adv-x="1078" arabic-form="final" 
d="M1102 197v-197h-56q-196 0 -264 76t-68 295v68q-162 -238 -366 -238q-110 0 -185 52.5t-75 130.5q0 275 626 561v141l123 66v-240v-404l3 -101q0 -118 47.5 -164t170.5 -46h44zM704 517q10 93 10 128v197q-380 -188 -531 -393q65 -63 233 -63q155 0 288 131z" />
    <glyph glyph-name="hehinitialarabic" unicode="&#x647;" horiz-adv-x="1204" arabic-form="initial" 
d="M185 910l126 176q348 -23 565 -222t217 -494q0 -175 -84.5 -273t-236.5 -98q-162 0 -332 114q-142 -113 -358 -113h-107v197h59q195 0 321 35q-125 143 -125 298q0 140 85.5 233t213.5 93l39 -1q-152 61 -275 61q-37 0 -108 -6zM475 291q139 72 249 193q0 236 -195 236
q-129 0 -212 -129q44 -188 158 -300zM580 238q191 -100 322 -100q22 0 72 6q5 71 5 104q0 275 -170 450q13 -70 13 -112q0 -169 -242 -348z" />
    <glyph glyph-name="hehmedialarabic" unicode="&#x647;" horiz-adv-x="1098" arabic-form="medial" 
d="M1123 197v-197h-264q186 -142 186 -380q0 -131 -81 -205t-224 -74q-205 0 -357 181.5t-193 477.5h-215v197h214q32 310 149 543t298 348q212 -344 212 -591q0 -212 -266 -300h541zM253 197h118q100 0 195.5 79t95.5 162q0 117 -146 420q-123 -148 -177.5 -284.5
t-85.5 -376.5zM942 -514q-38 208 -192 361t-324 153h-168q167 -528 550 -528q50 0 134 14z" />
    <glyph glyph-name="wawisoarabic" unicode="&#x648;" horiz-adv-x="905" arabic-form="isolated" 
d="M668 13q-82 -19 -164 -19q-333 0 -333 249q0 194 107.5 345.5t244.5 151.5q125 0 204 -135.5t79 -350.5q0 -368 -260 -706t-545 -338q-118 0 -208 52.5t-227 199.5q197 -55 332 -55q241 0 472 182t298 424zM241 263q121 -72 260 -72q86 0 190 15l1 36q0 123 -62.5 207
t-154.5 84q-176 0 -234 -270z" />
    <glyph glyph-name="wawfinalarabic" unicode="&#x648;" horiz-adv-x="932" arabic-form="final" 
d="M665 2q-79 -8 -146 -8q-190 0 -271.5 57.5t-81.5 191.5q0 194 107.5 345.5t244.5 151.5q123 0 203 -135t80 -344q0 -19 -2 -64h158v-197h-176q-126 -353 -341.5 -571.5t-438.5 -218.5q-118 0 -208 52.5t-227 199.5q197 -55 332 -55q238 0 473.5 183t293.5 412zM236 263
q121 -72 260 -72q86 0 190 15l1 36q0 123 -62.5 207t-154.5 84q-176 0 -234 -270z" />
    <glyph glyph-name="alefmaksuraisoarabic" unicode="&#x649;" horiz-adv-x="2023" arabic-form="isolated" 
d="M1937 1117l-117 -191q-60 12 -103 12q-276 0 -455 -227q-4 -50 -4 -79q0 -188 257 -188h53q188 0 260.5 -34t72.5 -122q0 -137 -177 -330q-346 -377 -952 -377q-673 0 -673 554q0 278 157 556h62q-109 -276 -109 -448q0 -465 616 -465q711 0 987 443q-118 26 -195 26h-39
q-232 0 -325.5 57t-93.5 198q0 237 201 435t441 198q60 0 136 -18z" />
    <glyph glyph-name="alefmaksurafinalarabic" unicode="&#x649;" horiz-adv-x="1929" arabic-form="final" 
d="M1248 -215q0 -174 252 -174h53q190 0 261.5 -34t71.5 -125q0 -127 -159 -269q-176 -156 -441.5 -249.5t-533.5 -93.5q-667 0 -667 555q0 277 156 556h62q-108 -277 -108 -448q0 -465 615 -465q300 0 564 93t424 256q-74 27 -196 27h-38l-101 1q-177 0 -247.5 48
t-70.5 167q0 216 197 398t430 182q36 0 69 -5q58 -8 69 -8h44v-197h-37q-10 0 -57 4q-86 8 -174 8q-256 0 -438 -227z" />
    <glyph glyph-name="yehisoarabic" unicode="&#x64a;" horiz-adv-x="2023" arabic-form="isolated" 
d="M1937 1117l-117 -191q-60 12 -103 12q-276 0 -455 -227q-4 -50 -4 -79q0 -188 257 -188h53q188 0 260.5 -34t72.5 -122q0 -137 -177 -330q-346 -377 -952 -377q-673 0 -673 554q0 278 157 556h62q-109 -276 -109 -448q0 -465 616 -465q711 0 987 443q-118 26 -195 26h-39
q-232 0 -325.5 57t-93.5 198q0 237 201 435t441 198q60 0 136 -18zM1134 -715l-144 -149q-102 54 -143 149l143 147q46 -96 144 -147zM722 -715l-144 -149q-102 54 -143 149l144 147q45 -96 143 -147z" />
    <glyph glyph-name="yehfinalarabic" unicode="&#x64a;" horiz-adv-x="1929" arabic-form="final" 
d="M1248 -215q0 -174 252 -174h53q190 0 261.5 -34t71.5 -125q0 -127 -159 -269q-176 -156 -441.5 -249.5t-533.5 -93.5q-667 0 -667 555q0 277 156 556h62q-108 -277 -108 -448q0 -465 615 -465q300 0 564 93t424 256q-74 27 -196 27h-38l-101 1q-177 0 -247.5 48
t-70.5 167q0 216 197 398t430 182q36 0 69 -5q58 -8 69 -8h44v-197h-37q-10 0 -57 4q-86 8 -174 8q-256 0 -438 -227zM1120 -1381l-144 -149q-102 54 -143 149l143 147q46 -96 144 -147zM708 -1381l-144 -149q-102 54 -143 149l144 147q45 -96 143 -147z" />
    <glyph glyph-name="yehinitialarabic" unicode="&#x64a;" horiz-adv-x="681" arabic-form="initial" 
d="M435 258q3 57 3 82q0 238 -101 392l133 184q113 -170 113 -390q0 -219 -163 -372.5t-396 -153.5h-49v197h56l145 -1q118 0 259 62zM681 -348l-144 -149q-102 54 -143 149l143 147q46 -96 144 -147zM269 -348l-144 -149q-102 54 -143 149l144 147q45 -96 143 -147z" />
    <glyph glyph-name="yehmedialarabic" unicode="&#x64a;" horiz-adv-x="802" arabic-form="medial" 
d="M368 227q-129 -227 -331 -227h-37h-25v197h28q236 0 335 109v380l123 67v-240q0 -186 53.5 -251t205.5 -65h55h51v-197h-54q-211 0 -281.5 39.5t-122.5 187.5zM750 -344l-144 -149q-102 54 -143 149l143 147q46 -96 144 -147zM338 -344l-144 -149q-102 54 -143 149
l144 147q45 -96 143 -147z" />
    <glyph glyph-name="lamalefmaddaabvarabic" unicode="&#xfef5;" horiz-adv-x="1160" arabic-form="isolated" 
d="M708 548q-260 444 -442 692l-80 -126q-20 178 -117 341l132 149q27 -43 31 -49l136 -210q230 -353 400 -685q16 212 16 484v368l146 166q0 -236 101 -449l-124 121v-127q0 -305 -108 -624q139 -229 139 -366q0 -111 -139 -184.5t-350 -73.5q-102 0 -280 25l103 199
q268 117 436 349zM462 173l55 -1q182 0 356 55q-60 160 -128 275q-109 -196 -283 -329zM-144 1736v58q58 158 175 158q42 0 132 -33l42 -16l32 -12l47 -17q41 -15 71 -15q65 0 117 96v-58q-58 -158 -175 -158q-42 0 -132 34l-42 15l-32 12l-47 17q-41 15 -71 15
q-65 0 -117 -96z" />
    <glyph glyph-name="lamalefmaddabvfinlarabic" unicode="&#xfef6;" horiz-adv-x="1316" arabic-form="final" 
d="M0 0q57 34 64 38l281 153q149 81 293 189q-94 509 -355 860l-80 -126q-21 177 -117 341l181 149q299 -398 430 -1075l18 -90q115 124 144.5 203t29.5 263v706l124 67v-1165q0 -208 47 -262t229 -54h51v-197h-54q-236 0 -316.5 87t-80.5 341v121q-163 -253 -369 -428
q-89 -75 -187.5 -98t-332.5 -23zM-88 1736v58q58 158 175 158q42 0 132 -33l42 -16l32 -12l47 -17q41 -15 71 -15q65 0 117 96v-58q-58 -158 -175 -158q-42 0 -132 34l-42 15l-32 12l-47 17q-41 15 -71 15q-65 0 -117 -96z" />
    <glyph glyph-name="lamalefhamzaabvarabic" unicode="&#xfef7;" horiz-adv-x="1160" arabic-form="isolated" 
d="M708 548q-260 444 -442 692l-80 -126q-20 178 -117 341l132 149q27 -43 31 -49l136 -210q230 -353 400 -685q16 212 16 484v368l146 166q0 -236 101 -449l-124 121v-127q0 -305 -108 -624q139 -229 139 -366q0 -111 -139 -184.5t-350 -73.5q-102 0 -280 25l103 199
q268 117 436 349zM462 173l55 -1q182 0 356 55q-60 160 -128 275q-109 -196 -283 -329zM-100 1690l43 135q126 52 261 74q-230 53 -230 200q0 102 114.5 173.5t278.5 71.5q36 0 91 -7l-63 -122q-60 7 -93 7q-155 0 -277 -106q168 -167 407 -167l-68 -131q-213 -18 -464 -128
z" />
    <glyph glyph-name="lamalefhamzabvfinlarabic" unicode="&#xfef8;" horiz-adv-x="1316" arabic-form="final" 
d="M0 0q57 34 64 38l281 153q149 81 293 189q-94 509 -355 860l-80 -126q-21 177 -117 341l181 149q299 -398 430 -1075l18 -90q115 124 144.5 203t29.5 263v706l124 67v-1165q0 -208 47 -262t229 -54h51v-197h-54q-236 0 -316.5 87t-80.5 341v121q-163 -253 -369 -428
q-89 -75 -187.5 -98t-332.5 -23zM-118 1690l43 135q126 52 261 74q-230 53 -230 200q0 102 114.5 173.5t278.5 71.5q36 0 91 -7l-63 -122q-60 7 -93 7q-155 0 -277 -106q168 -167 407 -167l-68 -131q-213 -18 -464 -128z" />
    <glyph glyph-name="lamalefhamzablwisoarabic" unicode="&#xfef9;" horiz-adv-x="1160" arabic-form="isolated" 
d="M708 548q-260 444 -442 692l-80 -126q-20 178 -117 341l132 149q27 -43 31 -49l136 -210q230 -353 400 -685q16 212 16 484v368l146 166q0 -236 101 -449l-124 121v-127q0 -305 -108 -624q139 -229 139 -366q0 -111 -139 -184.5t-350 -73.5q-102 0 -280 25l103 199
q268 117 436 349zM462 173l55 -1q182 0 356 55q-60 160 -128 275q-109 -196 -283 -329zM176 -778l43 135q126 52 261 74q-230 53 -230 200q0 102 114.5 173.5t278.5 71.5q36 0 91 -7l-63 -122q-60 7 -93 7q-155 0 -277 -106q168 -167 407 -167l-68 -131q-213 -18 -464 -128z
" />
    <glyph glyph-name="lamalefhamzablofinarabic" unicode="&#xfefa;" horiz-adv-x="1316" arabic-form="final" 
d="M0 0q57 34 64 38l281 153q149 81 293 189q-94 509 -355 860l-80 -126q-21 177 -117 341l181 149q299 -398 430 -1075l18 -90q115 124 144.5 203t29.5 263v706l124 67v-1165q0 -208 47 -262t229 -54h51v-197h-54q-236 0 -316.5 87t-80.5 341v121q-163 -253 -369 -428
q-89 -75 -187.5 -98t-332.5 -23zM-118 -790l43 135q126 52 261 74q-230 53 -230 200q0 102 114.5 173.5t278.5 71.5q36 0 91 -7l-63 -122q-60 7 -93 7q-155 0 -277 -106q168 -167 407 -167l-68 -131q-213 -18 -464 -128z" />
    <glyph glyph-name="lamalefisoarabic" unicode="&#xfefb;" horiz-adv-x="1160" arabic-form="isolated" 
d="M708 548q-260 444 -442 692l-80 -126q-20 178 -117 341l132 149q27 -43 31 -49l136 -210q230 -353 400 -685q16 212 16 484v368l146 166q0 -236 101 -449l-124 121v-127q0 -305 -108 -624q139 -229 139 -366q0 -111 -139 -184.5t-350 -73.5q-102 0 -280 25l103 199
q268 117 436 349zM462 173l55 -1q182 0 356 55q-60 160 -128 275q-109 -196 -283 -329z" />
    <glyph glyph-name="lamaleffinalarabic" unicode="&#xfefc;" horiz-adv-x="1316" arabic-form="final" 
d="M0 0q57 34 64 38l281 153q149 81 293 189q-94 509 -355 860l-80 -126q-21 177 -117 341l181 149q299 -398 430 -1075l18 -90q115 124 144.5 203t29.5 263v706l124 67v-1165q0 -208 47 -262t229 -54h51v-197h-54q-236 0 -316.5 87t-80.5 341v121q-163 -253 -369 -428
q-89 -75 -187.5 -98t-332.5 -23z" />
    <glyph glyph-name=".notdef" horiz-adv-x="1536" 
d="M256 0v1280h1024v-1280h-1024zM320 64h896v1152h-896v-1152z" />
    <glyph glyph-name=".null" horiz-adv-x="0" 
 />
    <glyph glyph-name="nonmarkingreturn" horiz-adv-x="1536" 
 />
    <glyph glyph-name="space" unicode=" " horiz-adv-x="623" 
 />
    <glyph glyph-name="exclam" unicode="!" horiz-adv-x="543" 
d="M173 0v197h197v-197h-197zM241 395l-68 789v296h197v-296l-67 -789h-62z" />
    <glyph glyph-name="quotedbl" unicode="&#x22;" horiz-adv-x="790" 
d="M191 1086l-68 493h197l-67 -493h-62zM536 1086l-68 493h198l-68 -493h-62z" />
    <glyph glyph-name="numbersign" unicode="#" horiz-adv-x="1246" 
d="M192 0l114 456h-312l18 99h318l93 370h-336l19 99h342l114 456h102l-114 -456h289l114 456h102l-114 -456h312l-19 -99h-318l-92 -370h336l-19 -99h-342l-114 -456h-103l115 456h-289l-114 -456h-102zM433 555h288l93 370h-289z" />
    <glyph glyph-name="dollar" unicode="$" horiz-adv-x="1246" 
d="M606 -123v123q-210 0 -415 86v247h111l1 -18q3 -46 3 -68q0 -81 72.5 -131.5t189.5 -50.5l38 1v607q-205 119 -285.5 219t-80.5 238q0 297 366 357v117h61l1 -119q173 -8 356 -77v-230h-111l-2 19q-3 49 -3 66q0 70 -60.5 112t-161.5 42h-18v-580l150 -96
q129 -81 176.5 -151t47.5 -177q0 -160 -100 -271t-274 -145v-120h-62zM668 78q202 62 202 288q0 137 -156 241l-46 30v-559zM606 879v531q-194 -29 -194 -246q0 -157 194 -285z" />
    <glyph glyph-name="percent" unicode="%" horiz-adv-x="1382" 
d="M34 -37l1190 1554h124l-1189 -1554h-125zM332 740q-135 0 -222.5 104.5t-87.5 265.5q0 164 88 267t227 103q138 0 226 -103t88 -265q0 -167 -88 -269.5t-231 -102.5zM333 802q170 0 170 312q0 305 -166 305q-167 0 -167 -307q0 -310 163 -310zM1041 0
q-135 0 -222.5 104.5t-87.5 265.5q0 163 88 266.5t227 103.5q138 0 226.5 -103t88.5 -266q0 -166 -88.5 -268.5t-231.5 -102.5zM1043 61q170 0 170 313q0 305 -167 305t-167 -308q0 -310 164 -310z" />
    <glyph glyph-name="ampersand" unicode="&#x26;" horiz-adv-x="1413" 
d="M1040 0l-94 103q-217 -140 -411 -140q-209 0 -353.5 138t-144.5 338q0 329 374 449q-115 177 -115 306q0 139 99 231.5t249 92.5q158 0 253.5 -81.5t95.5 -215.5q0 -248 -334 -368q26 -42 38 -63q128 -211 268 -400l76 -104q90 132 90 317l-2 57q0 59 -62 59q-10 0 -88 5
l-19 1v61h469v-61l-21 -1l-79 -4q-38 -2 -48.5 -18t-10.5 -74q0 -158 -184 -392q20 -21 30 -32q53 -55 61 -63q60 -67 135 -72l91 -6l14 -1v-62h-377zM902 155l-73 95q-197 260 -389 584q-206 -120 -206 -340q0 -179 114.5 -299t285.5 -120q140 0 268 80zM628 903
q181 124 181 348q0 205 -155 205q-161 0 -161 -203q0 -110 98 -283q12 -22 37 -67z" />
    <glyph glyph-name="quotesingle" unicode="'" horiz-adv-x="493" 
d="M216 1036l-93 543h247l-93 -543h-61z" />
    <glyph glyph-name="parenleft" unicode="(" horiz-adv-x="648" 
d="M562 -234v-62q-214 132 -338.5 386t-124.5 555q0 291 127.5 548.5t335.5 385.5v-62q-153 -172 -209.5 -358.5t-56.5 -517.5q0 -329 56.5 -515.5t209.5 -359.5z" />
    <glyph glyph-name="parenright" unicode=")" horiz-adv-x="648" 
d="M86 -234v-62q214 132 338.5 386t124.5 555q0 291 -127.5 548.5t-335.5 385.5v-62q153 -172 209.5 -358.5t56.5 -517.5q0 -329 -56.5 -515.5t-209.5 -359.5z" />
    <glyph glyph-name="asterisk" unicode="*" horiz-adv-x="962" 
d="M546 1152l282 130l46 -140l-305 -61q1 10 1 16q0 29 -24 55zM558 1049l212 -228l-120 -87l-151 271q40 9 59 44zM464 1005l-151 -271l-120 87l211 228q22 -36 60 -44zM394 1081l-305 61l46 140l282 -130q-24 -28 -24 -55q0 -5 1 -16zM445 1172l-38 308h149l-38 -308
q-21 9 -37 9t-36 -9z" />
    <glyph glyph-name="plus" unicode="+" 
d="M765 0v543h-543v99h543v542h99v-542h542v-99h-542v-543h-99z" />
    <glyph glyph-name="comma" unicode="," horiz-adv-x="543" 
d="M247 0h-99v247h247v-215q0 -127 -14 -174.5t-65 -100.5q-70 -72 -168 -78v62q99 9 99 194v65z" />
    <glyph glyph-name="hyphen" unicode="-" horiz-adv-x="1185" 
d="M148 543v123h888v-123h-888z" />
    <glyph glyph-name="period" unicode="." horiz-adv-x="543" 
d="M148 0v247h247v-247h-247z" />
    <glyph glyph-name="slash" unicode="/" horiz-adv-x="1074" 
d="M222 -296l526 1777h104l-526 -1777h-104z" />
    <glyph glyph-name="zero" unicode="0" horiz-adv-x="1246" 
d="M615 -37q-229 0 -369.5 212.5t-140.5 560.5q0 357 140.5 569t377.5 212q236 0 377 -211.5t141 -566.5q0 -358 -141.5 -567t-384.5 -209zM618 25q314 -15 314 725q0 706 -309 706q-308 0 -308 -715q0 -702 303 -716z" />
    <glyph glyph-name="one" unicode="1" horiz-adv-x="1246" 
d="M722 1493v-1234l6 -99q4 -60 34.5 -78.5t126.5 -18.5l117 -1v-62h-765v62l117 1q95 0 126 18.5t35 78.5l6 99v918l-6 101q0 71 -42 71q-30 0 -137 -20l-99 -18v62z" />
    <glyph glyph-name="two" unicode="2" horiz-adv-x="1246" 
d="M160 0v99q85 248 267 418l106 98q184 172 245 273t61 233q0 151 -74.5 242t-197.5 91q-136 0 -229 -73q-36 -28 -45 -199l-1 -24h-99v269q215 91 397 91q201 0 329.5 -112.5t128.5 -286.5q0 -233 -290 -433l-120 -83q-289 -198 -316 -430h720v-173h-882z" />
    <glyph glyph-name="three" unicode="3" horiz-adv-x="1246" 
d="M185 10v261h99l1 -22l3 -69q0 -65 75.5 -110.5t185.5 -45.5q130 0 210 103.5t80 272.5t-105 264t-291 95h-122v61h66q419 0 419 337q0 299 -265 299q-115 0 -202 -49q-32 -18 -43 -158l-1 -15h-99v226q160 58 362 58q206 0 325 -91.5t119 -249.5q0 -264 -311 -377
q191 -49 273 -140t82 -253q0 -205 -133 -324.5t-361 -119.5q-211 0 -367 47z" />
    <glyph glyph-name="four" unicode="4" horiz-adv-x="1246" 
d="M741 419h-679v99l740 987h111v-937h198v-149h-198v-160q0 -118 18 -152.5t81 -38.5l68 -5l18 -1v-62h-567v62l18 1l104 5q54 3 71 40.5t17 150.5v160zM173 568h568v754z" />
    <glyph glyph-name="five" unicode="5" horiz-adv-x="1246" 
d="M234 -3v250h99l1 -24l2 -76q7 -122 193 -122q139 0 219.5 107.5t80.5 293.5q0 211 -125 302.5t-410 91.5h-35v660h746v-172h-685v-414h92q624 0 624 -475q0 -214 -144 -335t-398 -121q-125 0 -260 34z" />
    <glyph glyph-name="six" unicode="6" horiz-adv-x="1246" 
d="M333 757q139 193 356 193q194 0 317 -129.5t123 -334.5q0 -222 -139.5 -372.5t-344.5 -150.5q-250 0 -386 196t-136 557q0 383 156 592.5t441 209.5q185 0 325 -66v-237h-98l-2 21l-5 71q-5 66 -71.5 107.5t-167.5 41.5q-175 0 -271.5 -183t-96.5 -516zM339 546
q0 -229 92.5 -374.5t238.5 -145.5q261 0 261 433q0 422 -272 422q-147 0 -233.5 -91t-86.5 -244z" />
    <glyph glyph-name="seven" unicode="7" horiz-adv-x="1246" 
d="M281 0q43 240 142.5 418.5t467.5 676.5l149 200h-833v185h950v-129q-609 -817 -642 -1351h-234z" />
    <glyph glyph-name="eight" unicode="8" horiz-adv-x="1246" 
d="M428 797q-228 157 -228 344q0 168 122 272.5t318 104.5q187 0 299 -88.5t112 -236.5q0 -227 -292 -377q354 -150 354 -433q0 -185 -140.5 -302.5t-362.5 -117.5q-216 0 -350 109.5t-134 287.5q0 298 302 437zM705 850q174 127 174 340q0 120 -71 193t-187 73
q-104 0 -176.5 -72.5t-72.5 -177.5q0 -103 66 -173.5t267 -182.5zM473 754q-150 -138 -150 -369q0 -166 80.5 -263t217.5 -97q127 0 211 86t84 216q0 108 -64 181.5t-240 169.5z" />
    <glyph glyph-name="nine" unicode="9" horiz-adv-x="1246" 
d="M912 723q-138 -193 -355 -193q-194 0 -317 130t-123 334q0 222 139 373t345 151q250 0 386 -196.5t136 -557.5q0 -382 -156 -591.5t-441 -209.5q-185 0 -326 66v236h99l1 -21l6 -71q5 -66 71 -107t168 -41q174 0 270.5 183t96.5 515zM907 935q0 229 -93 374t-239 145
q-261 0 -261 -433q0 -421 273 -421q146 0 233 91t87 244z" />
    <glyph glyph-name="colon" unicode=":" horiz-adv-x="543" 
d="M148 0v247h247v-247h-247zM148 839v247h247v-247h-247z" />
    <glyph glyph-name="semicolon" unicode=";" horiz-adv-x="543" 
d="M247 0h-99v247h247v-215q0 -127 -14 -174.5t-65 -100.5q-70 -72 -168 -78v62q99 9 99 194v65zM148 839v247h247v-247h-247z" />
    <glyph glyph-name="less" unicode="&#x3c;" 
d="M1406 0l-1184 592l1184 592v-110l-961 -481v-2l961 -481v-110z" />
    <glyph glyph-name="equal" unicode="=" 
d="M222 358v98h1184v-98h-1184zM222 728v99h1184v-99h-1184z" />
    <glyph glyph-name="greater" unicode="&#x3e;" 
d="M222 0l1184 592l-1184 592v-110l961 -481v-2l-961 -481v-110z" />
    <glyph glyph-name="question" unicode="?" horiz-adv-x="984" 
d="M309 0v197h197v-197h-197zM309 395v18q0 204 142 345l40 40q188 186 188 385q0 273 -266 273q-211 0 -220 -151l-4 -107l-1 -21h-99v274q188 66 363 66q197 0 317 -89.5t120 -237.5q0 -160 -197 -312q-56 -44 -77 -63l-37 -34q-72 -67 -72 -249v-137h-197z" />
    <glyph glyph-name="at" unicode="@" horiz-adv-x="1789" 
d="M1101 44q-176 -81 -344 -81q-290 0 -478.5 173.5t-188.5 440.5q0 334 246 617q280 323 699 323q283 0 472.5 -179.5t189.5 -447.5q0 -239 -149.5 -417t-350.5 -178q-174 0 -174 137q0 37 9 75l24 86l9 42h-21q-199 -339 -388 -339q-182 0 -182 231q0 239 166 442t361 203
q44 0 82 -10l81 -22q6 -2 27 -7h95l-116 -573q-11 -57 -11 -97q0 -93 102 -93q139 0 256.5 167t117.5 364q0 235 -176 395t-434 160q-335 0 -604 -267t-269 -600q0 -246 170 -405t433 -159q157 0 324 75zM1074 819l42 211q-81 43 -181 43q-135 0 -225.5 -142t-90.5 -354
q0 -158 93 -158q146 0 362 400z" />
    <glyph glyph-name="A" unicode="A" horiz-adv-x="1524" 
d="M374 456l-85 -197l-44 -124q-6 -18 -6 -31q0 -41 77 -41l52 -1h16v-62h-384v62l21 1l48 2q56 3 92 89l46 105l521 1240h70l519 -1247l51 -103q27 -58 46 -70t87 -16l23 -1v-62h-549v62h18l61 1q78 0 78 38q0 60 -41 158l-83 197h-634zM407 537h565l-281 674z" />
    <glyph glyph-name="B" unicode="B" horiz-adv-x="1248" 
d="M735 767q185 -30 290 -135t105 -260q0 -188 -125 -280t-382 -92h-580v62l19 1l67 5q58 4 73.5 19.5t19.5 72.5l6 99v962l-6 99q-4 57 -19.5 73t-73.5 20l-67 4l-19 2v61h608q204 0 311 -84t107 -244q0 -261 -334 -385zM435 734v-475l3 -87q0 -61 34.5 -83t133.5 -22
q137 0 222 82.5t85 214.5q0 370 -478 370zM435 802h61q358 0 358 327q0 157 -82.5 220.5t-285.5 63.5h-51v-611z" />
    <glyph glyph-name="C" unicode="C" horiz-adv-x="1424" 
d="M1307 79q-201 -116 -469 -116q-340 0 -536.5 209t-196.5 571q0 367 189 570.5t530 203.5q173 0 419 -64l38 -10v-283h-123l-1 20q-2 30 -2 59q0 98 -91 154.5t-248 56.5q-225 0 -359 -192t-134 -513q0 -322 157 -502.5t437 -180.5q183 0 390 113v-96z" />
    <glyph glyph-name="D" unicode="D" horiz-adv-x="1573" 
d="M43 0v62l19 1l67 5q58 4 73.5 19.5t19.5 72.5l6 99v962l-6 99q-4 57 -19.5 73t-73.5 20l-67 4l-19 2v61h474l83 1l72 3l72 1q348 0 533.5 -184t185.5 -529q0 -358 -191 -565t-520 -207h-709zM438 1413v-1154l4 -78q0 -64 50.5 -88.5t182.5 -24.5q566 0 566 673
q0 356 -151.5 514t-493.5 158h-158z" />
    <glyph glyph-name="E" unicode="E" horiz-adv-x="1160" 
d="M1110 0h-1067v62l19 1l67 5q58 4 73.5 19.5t19.5 72.5l6 99v962l-6 99q-4 57 -19.5 73t-73.5 20l-67 4l-19 2v61h1012v-259h-111l-2 19l-5 84q0 48 -12.5 61.5t-60.5 13.5l-103 1h-323v-592l271 1l63 2q44 0 55.5 9.5t13.5 46.5q1 15 3 46l1 18h80v-326h-80l-1 18
q-5 76 -23.5 90.5t-111.5 14.5h-271v-469q0 -116 27.5 -144.5t142.5 -28.5h158l141 6q83 0 88 70l3 91l1 18h111v-271z" />
    <glyph glyph-name="F" unicode="F" horiz-adv-x="1123" 
d="M438 718v-459q0 -118 21.5 -154.5t91.5 -36.5q4 0 78 -5l19 -1v-62h-605v62l19 1l67 5q58 4 73.5 19.5t19.5 72.5l6 99v962l-6 99q-4 57 -19.5 73t-73.5 20l-67 4l-19 2v61h999v-259h-111l-1 19l-5 84q0 48 -13 61.5t-60 13.5l-103 1h-311v-601h271l63 2q44 0 55.5 9.5
t13.5 46.5q1 15 3 46l1 18h80v-327h-80l-1 19q-5 76 -23.5 90.5t-111.5 14.5h-271z" />
    <glyph glyph-name="G" unicode="G" horiz-adv-x="1499" 
d="M1305 36q-285 -73 -481 -73q-329 0 -524 211.5t-195 568.5q0 369 189.5 571.5t534.5 202.5q247 0 473 -76v-269h-111l-1 20q-2 27 -2 57q0 94 -92 147.5t-256 53.5q-247 0 -379.5 -187t-132.5 -536q0 -317 149.5 -498.5t410.5 -181.5q81 0 208 33v291q0 118 -18 152.5
t-81 39.5l-68 5l-18 1v61h579v-61l-18 -1l-68 -5q-63 -5 -81 -39.5t-18 -152.5v-335z" />
    <glyph glyph-name="H" unicode="H" horiz-adv-x="1580" 
d="M438 726v-467l6 -99q4 -57 19.5 -72.5t72.5 -19.5l68 -5l19 -1v-62h-580v62l19 1l67 5q58 4 73.5 19.5t19.5 72.5l6 99v962l-6 99q-4 57 -19.5 73t-73.5 20l-67 4l-19 2v61h580v-61l-19 -2l-68 -4q-57 -4 -72.5 -20t-19.5 -73l-6 -99v-409h704v409l-6 99q-4 57 -19.5 73
t-73.5 20l-68 4l-18 2v61h580v-61l-19 -2l-68 -4q-57 -4 -73 -20t-19 -73l-6 -99v-962l6 -99q3 -57 19 -72.5t73 -19.5l68 -5l19 -1v-62h-580v62l18 1l68 5q63 4 81 38.5t18 152.5v467h-704z" />
    <glyph glyph-name="I" unicode="I" horiz-adv-x="666" 
d="M623 62v-62h-580v62l19 1l67 5q58 4 73.5 19.5t19.5 72.5l6 99v962l-6 99q-4 57 -19.5 73t-73.5 20l-67 4l-19 2v61h580v-61l-19 -2l-68 -4q-57 -4 -72.5 -20t-19.5 -73l-6 -99v-962l6 -99q4 -57 19.5 -72.5t72.5 -19.5l68 -5z" />
    <glyph glyph-name="J" unicode="J" horiz-adv-x="864" 
d="M12 -276v230h117l1 -24l4 -47q8 -104 125 -104q76 0 125 64t49 164l-1 141v1073l-6 99q-4 57 -19.5 73t-72.5 20l-68 4l-19 2v61h580v-61l-19 -2l-67 -4q-58 -4 -73.5 -20t-19.5 -73l-6 -99v-951q0 -310 -104.5 -438t-356.5 -128q-78 0 -169 20z" />
    <glyph glyph-name="K" unicode="K" horiz-adv-x="1450" 
d="M438 748v-489l5 -99q0 -62 20.5 -76.5t116.5 -20.5l18 -1v-62h-555v62l19 1l67 5q58 4 73.5 19.5t19.5 72.5l6 99v962l-6 99q-4 57 -19.5 73t-73.5 20l-67 4l-19 2v61h580v-61l-19 -2l-68 -4q-57 -4 -72.5 -20t-19.5 -73l-6 -99v-467l448 467q148 155 148 178
q0 18 -56 18l-90 2h-18v61h456v-61l-17 -2l-61 -1q-50 0 -92 -31.5t-173 -164.5l-378 -385l518 -577l104 -108q55 -57 83 -69.5t119 -17.5l21 -1v-62h-605v62h18q124 0 124 24q0 34 -124 176z" />
    <glyph glyph-name="L" unicode="L" horiz-adv-x="1141" 
d="M1104 0h-1061v62l19 1l67 5q58 4 73.5 19.5t19.5 72.5l6 99v962l-6 99q-4 57 -19.5 73t-73.5 20l-67 4l-19 2v61h580v-61l-19 -2l-68 -4q-57 -4 -72.5 -20t-19.5 -73l-6 -99v-962q0 -133 20 -153t152 -20h151q141 0 186 17.5t48 71.5l3 101l1 20h105v-296z" />
    <glyph glyph-name="M" unicode="M" horiz-adv-x="1762" 
d="M43 1419v61h424l444 -1077l435 1077h372v-61l-19 -2l-67 -4q-58 -4 -73.5 -20t-19.5 -73l-6 -99v-962l6 -99q4 -57 19.5 -72.5t73.5 -19.5l67 -5l19 -1v-62h-564v62l18 1l68 5q56 4 72 19.5t19 72.5l6 99v1017l-466 -1158h-73l-460 1174v-1033l6 -99q4 -57 19.5 -72.5
t72.5 -19.5l68 -5l19 -1v-62h-480v62l19 1l67 5q58 4 73.5 19.5t19.5 72.5l6 99v962l-6 99q-4 57 -19.5 73t-73.5 20l-67 4z" />
    <glyph glyph-name="N" unicode="N" horiz-adv-x="1539" 
d="M1240 -20l-918 1240v-961q0 -118 18 -152.5t81 -38.5l68 -5l18 -1v-62h-463v62l18 1l68 5q63 4 81 38.5t18 152.5v962q0 119 -18 153t-81 39l-68 4l-19 2v61h333l844 -1149v890l-6 99q-4 57 -20 73t-73 20l-68 4l-18 2v61h461v-61l-19 -2l-68 -4q-57 -4 -73 -20t-19 -73
l-6 -99v-1241h-71z" />
    <glyph glyph-name="O" unicode="O" horiz-adv-x="1591" 
d="M786 -37q-313 0 -497 210t-184 567q0 361 185 569t506 208q320 0 505.5 -207.5t185.5 -566.5q0 -366 -186 -573t-515 -207zM789 31q226 0 351 187t125 526q0 330 -125 518t-344 188q-220 0 -344.5 -188.5t-124.5 -520.5q0 -331 123.5 -520.5t338.5 -189.5z" />
    <glyph glyph-name="P" unicode="P" horiz-adv-x="1173" 
d="M436 617v-358l6 -99q4 -57 19.5 -72.5t73.5 -19.5l68 -5l43 -1v-62h-603v62l19 1l67 5q58 4 73.5 19.5t19.5 72.5l6 99v962l-6 99q-4 57 -19.5 73t-73.5 20l-67 4l-19 2v61h440l146 5l69 2q432 0 432 -392q0 -478 -631 -478h-63zM436 685h75q397 0 397 407
q0 173 -75.5 247t-252.5 74h-144v-728z" />
    <glyph glyph-name="Q" unicode="Q" horiz-adv-x="1593" 
d="M1031 1q237 -138 737 -175l-249 -124q-253 75 -537 249l-41 25q-75 -13 -145 -13q-321 0 -506 208.5t-185 568.5q0 361 185 569t507 208q320 0 506 -207t186 -564q0 -589 -458 -745zM1266 730q0 343 -123 531.5t-347 188.5q-221 0 -344.5 -187.5t-123.5 -522.5
t123.5 -522t345.5 -187q219 0 344 186.5t125 512.5z" />
    <glyph glyph-name="R" unicode="R" horiz-adv-x="1390" 
d="M436 651v-392l6 -99q0 -62 20 -76.5t116 -20.5l19 -1v-62h-554v62l19 1l67 5q58 4 73.5 19.5t19.5 72.5l6 99v962l-6 99q-4 57 -19.5 73t-73.5 20l-67 4l-19 2v61h356l98 2l82 3l80 2q459 0 459 -374q0 -311 -306 -416l290 -436l93 -129q46 -66 108 -66q14 0 67 -3l20 -1
v-62h-377l-404 651h-173zM438 719h74q392 0 392 371q0 176 -73.5 249.5t-250.5 73.5h-142v-694z" />
    <glyph glyph-name="S" unicode="S" horiz-adv-x="1110" 
d="M119 30v285h105l1 -18q3 -50 3 -75q0 -82 84 -133.5t217 -51.5q281 0 281 285q0 111 -48 177t-187 144l-105 60q-340 192 -340 419q0 171 122.5 283t307.5 112q159 0 374 -63v-263h-111l-1 17q-4 54 -4 79q0 84 -59.5 123.5t-188.5 39.5q-108 0 -173.5 -70.5
t-65.5 -185.5q0 -98 45.5 -162t165.5 -132l105 -60q218 -124 294 -216t76 -232q0 -184 -137 -306.5t-343 -122.5q-242 0 -418 67z" />
    <glyph glyph-name="T" unicode="T" horiz-adv-x="1357" 
d="M573 1400h-236l-103 -5q-53 0 -68 -14t-15 -64q0 -51 -2 -88l-1 -20h-105v271h1271v-271h-105l-1 20q-3 37 -3 88q0 50 -14.5 64t-67.5 14l-103 5h-237v-1141l6 -99q4 -57 19.5 -72.5t73.5 -19.5l68 -5l43 -1v-62h-629v62l43 1l68 5q57 4 73 19.5t19 72.5l6 99v1141z" />
    <glyph glyph-name="U" unicode="U" horiz-adv-x="1472" 
d="M16 1419v61h583v-61l-18 -2l-68 -4q-63 -5 -81 -39.5t-18 -152.5v-633q0 -230 12 -300t60 -133q97 -126 290 -126q181 0 290 110q61 62 79.5 137t18.5 268v677l-7 99q-3 57 -19 73t-73 20l-68 4l-18 2v61h474v-61l-19 -2l-68 -4q-63 -5 -80.5 -39.5t-17.5 -152.5v-620
q0 -206 -23 -302t-92 -179q-130 -157 -405 -157q-547 0 -547 591v667l-6 99q-4 57 -19.5 73t-73.5 20l-67 4z" />
    <glyph glyph-name="V" unicode="V" horiz-adv-x="1431" 
d="M700 -19l-507 1235l-58 127q-20 48 -37.5 59.5t-76.5 14.5l-21 2v61h537v-61h-22q-154 0 -154 -40q0 -15 60 -163l383 -932l360 933q52 136 52 158q0 42 -70 42l-75 2h-22v61h382v-61l-22 -2q-84 -4 -107 -63l-56 -137l-478 -1236h-68z" />
    <glyph glyph-name="W" unicode="W" horiz-adv-x="1894" 
d="M504 -19l-316 1234l-36 132q-16 69 -72 69l-59 1l-21 2v61h530v-61h-19l-54 -2q-95 0 -95 -53q0 -34 29 -149l219 -861l341 1108h70l341 -1139l256 891q43 148 43 169q0 34 -87 34l-69 2h-18v61h407v-61l-18 -2l-60 -2q-60 -3 -79 -63l-43 -137l-362 -1234h-67l-349 1139
l-343 -1139h-69z" />
    <glyph glyph-name="X" unicode="X" horiz-adv-x="1345" 
d="M566 729l-295 493l-71 115q-43 76 -104 78l-51 2l-20 2v61h573v-61h-18l-65 -1q-81 0 -81 -27q0 -25 85 -168l215 -364l251 364q96 139 96 170q0 24 -65 24l-48 2h-18v61h370v-61l-23 -2q-81 -4 -121 -60l-99 -134l-289 -409l323 -553l88 -142q29 -50 69 -53l57 -3l20 -1
v-62h-555v62h16l61 1q87 0 87 34q0 20 -84 163l-246 416l-286 -415q-94 -138 -94 -166q0 -32 79 -32l62 -1h22v-62h-407v62l13 1l46 3q62 4 111 78l81 117z" />
    <glyph glyph-name="Y" unicode="Y" horiz-adv-x="1388" 
d="M580 656l-338 559l-78 127q-40 70 -86 73l-58 2l-20 2v61h574v-61h-20l-70 -2q-74 0 -74 -32q0 -31 82 -170l277 -467l289 466q86 139 86 174q0 29 -83 29l-56 2h-18v61h401v-61l-19 -2l-55 -3q-56 -4 -89 -57l-90 -142l-345 -559v-397q0 -118 17.5 -152.5t80.5 -38.5
l68 -5l19 -1v-62h-580v62l18 1l68 5q63 4 81 38.5t18 152.5v397z" />
    <glyph glyph-name="Z" unicode="Z" horiz-adv-x="1295" 
d="M114 0v80l794 1320h-450l-109 -4q-55 0 -70 -13t-15 -61q0 -39 -3 -113l-2 -25h-111v296h996v-67l-791 -1320h448l166 6q64 0 67 66l4 100l1 19h112v-284h-1037z" />
    <glyph glyph-name="bracketleft" unicode="[" horiz-adv-x="648" 
d="M173 -296v1875h395v-62h-222v-1751h222v-62h-395z" />
    <glyph glyph-name="backslash" unicode="\" horiz-adv-x="1074" 
d="M852 -296l-526 1777h-104l526 -1777h104z" />
    <glyph glyph-name="bracketright" unicode="]" horiz-adv-x="648" 
d="M475 -296v1875h-395v-62h222v-1751h-222v-62h395z" />
    <glyph glyph-name="asciicircum" unicode="^" horiz-adv-x="1246" 
d="M80 395l543 1085l543 -1085h-127l-416 829l-416 -829h-127z" />
    <glyph glyph-name="underscore" unicode="_" horiz-adv-x="1024" 
d="M99 -123v123h827v-123h-827z" />
    <glyph glyph-name="grave" unicode="`" horiz-adv-x="1234" 
d="M796 1283h-93l-407 321h259z" />
    <glyph glyph-name="a" unicode="a" horiz-adv-x="1112" 
d="M770 149q-176 -174 -348 -174q-138 0 -230 87.5t-92 219.5q0 360 584 360h41v135q0 257 -195 257q-194 0 -213 -195l-1 -19h-134v199q208 91 384 91q356 0 356 -325v-484q0 -236 101 -236q19 0 53 9l6 -74q-71 -25 -128 -25q-145 0 -184 174zM725 171v409h-46
q-370 0 -370 -270q0 -94 60.5 -156t151.5 -62q87 0 204 79z" />
    <glyph glyph-name="b" unicode="b" horiz-adv-x="1252" 
d="M160 -12v1332l-6 99q-4 57 -19.5 72.5t-73.5 19.5l-67 5l-19 1v62h382v-697q147 228 382 228q184 0 293 -145t109 -390q0 -272 -125 -436t-332 -164q-191 0 -327 148h-12l-25 -135h-160zM357 201q157 -116 301 -116q273 0 273 436q0 462 -265 462q-178 0 -309 -170v-612z
" />
    <glyph glyph-name="c" unicode="c" horiz-adv-x="1042" 
d="M938 37q-156 -62 -305 -62q-238 0 -386 159t-148 414q0 254 142 408t376 154q125 0 321 -49v-259h-123l-1 18q0 224 -195 224q-145 0 -229.5 -130t-84.5 -352q0 -227 100 -358t272 -131q148 0 261 50v-86z" />
    <glyph glyph-name="d" unicode="d" horiz-adv-x="1314" 
d="M894 0v204q-145 -229 -381 -229q-184 0 -293 145.5t-109 390.5q0 272 125 435.5t332 163.5q190 0 326 -148v358q0 118 -17.5 152.5t-80.5 38.5l-68 5l-19 1v62h383v-1320q0 -118 17.5 -152.5t81.5 -38.5l67 -5l19 -1v-62h-383zM894 885q-154 115 -300 115
q-274 0 -274 -435q0 -462 266 -462q82 0 170 48.5t138 121.5v612z" />
    <glyph glyph-name="e" unicode="e" horiz-adv-x="1085" 
d="M980 49q-188 -74 -343 -74q-239 0 -388.5 161t-149.5 418q0 245 134 400.5t344 155.5q195 0 299 -131t104 -374v-19h-663q0 -511 351 -511q183 0 312 75v-101zM321 648h450l1 44q0 357 -208 357q-112 0 -177.5 -109t-65.5 -292z" />
    <glyph glyph-name="f" unicode="f" horiz-adv-x="827" 
d="M247 999h-160v87h160v52q0 247 79.5 356.5t258.5 109.5q140 0 267 -74v-235h-124l-1 19q-3 60 -3 93q0 133 -145 133q-79 0 -107 -58t-28 -225v-171h272v-81h-272v-746q0 -118 19.5 -152.5t87.5 -38.5l72 -5l31 -1v-62h-592v62l19 1l67 5q58 4 73.5 19.5t19.5 72.5l6 99
v740z" />
    <glyph glyph-name="g" unicode="g" horiz-adv-x="1169" 
d="M283 42q-113 52 -113 142q0 102 190 197q-221 98 -221 347q0 174 111.5 278t298.5 104q113 0 206 -42l381 30l-50 -120l-261 42q128 -123 128 -290t-112.5 -276t-286.5 -109q-66 0 -140 21q-71 -55 -71 -122q0 -71 125 -71h173q250 0 343.5 -53t93.5 -195
q0 -155 -142 -249.5t-374 -94.5q-225 0 -361 63.5t-136 168.5q0 135 218 229zM336 740q0 -333 211 -333q209 0 209 326q0 316 -208 316q-212 0 -212 -309zM335 25q-74 -72 -74 -179q0 -206 306 -206q146 0 232.5 64t86.5 173q0 148 -209 148h-342z" />
    <glyph glyph-name="h" unicode="h" horiz-adv-x="1295" 
d="M419 882q150 228 392 228q140 0 219.5 -92t79.5 -253v-506l7 -99q3 -57 19 -72.5t73 -19.5l68 -5l18 -1v-62h-567v62l18 1l68 5q57 4 73 19.5t20 72.5l6 99v475q0 140 -36.5 194.5t-129.5 54.5q-134 0 -328 -167v-557q0 -118 18 -152.5t81 -38.5l68 -5l19 -1v-62h-568v62
l19 1l67 5q58 4 73.5 19.5t19.5 72.5l6 99v1061l-6 99q-4 57 -19.5 72.5t-73.5 19.5l-67 5l-19 1v62h382v-697z" />
    <glyph glyph-name="i" unicode="i" horiz-adv-x="629" 
d="M419 1086v-827q0 -118 18 -152.5t81 -38.5l68 -5l19 -1v-62h-568v62l19 1l67 5q58 4 73.5 19.5t19.5 72.5l6 99v568l-6 98q-4 57 -19.5 73t-73.5 20l-67 5l-19 1v62h382zM222 1283v197h197v-197h-197z" />
    <glyph glyph-name="j" unicode="j" horiz-adv-x="709" 
d="M315 1283v197h197v-197h-197zM512 1086v-1074q0 -431 -363 -431q-98 0 -223 39v244h111l1 -18q0 -116 27.5 -160t99.5 -44q150 0 150 173v103v909q0 118 -18 152.5t-81 38.5l-68 5l-18 1v62h382z" />
    <glyph glyph-name="k" unicode="k" horiz-adv-x="1228" 
d="M419 534v-275l6 -99q0 -62 20.5 -76.5t115.5 -20.5l19 -1v-62h-543v62l19 1l67 5q58 4 73.5 19.5t19.5 72.5l6 99v1061l-6 99q-4 57 -19.5 72.5t-73.5 19.5l-67 5l-19 1v62h382v-996h47l252 242l147 152q15 15 15 25q0 19 -36 19l-95 3h-21v62h423v-62l-19 -1
q-106 -7 -135.5 -25.5t-187.5 -174.5l-190 -187l326 -383l108 -118q44 -49 64.5 -58t92.5 -14l19 -1v-62h-305l-458 534h-47z" />
    <glyph glyph-name="l" unicode="l" horiz-adv-x="642" 
d="M419 1579v-1320q0 -118 18 -152.5t81 -38.5l68 -5l19 -1v-62h-568v62l19 1l67 5q58 4 73.5 19.5t19.5 72.5l6 99v1061l-6 99q-4 57 -19.5 72.5t-73.5 19.5l-67 5l-19 1v62h382z" />
    <glyph glyph-name="m" unicode="m" horiz-adv-x="1937" 
d="M419 882q171 228 376 228q237 0 278 -228q190 228 387 228q292 0 292 -320v-531q0 -118 17.5 -152.5t81.5 -38.5l67 -5l19 -1v-62h-568v62l19 1l68 5q63 4 80.5 38.5t17.5 152.5v495q0 128 -33 178t-119 50q-145 0 -316 -168v-555l6 -99q3 -57 19 -72.5t73 -19.5l68 -5
l19 -1v-62h-568v62l19 1l68 5q63 4 80.5 38.5t17.5 152.5v495q0 127 -33 177.5t-117 50.5q-156 0 -319 -168v-555q0 -118 18 -152.5t81 -38.5l68 -5l19 -1v-62h-568v62l19 1l67 5q58 4 73.5 19.5t19.5 72.5l6 99v568l-6 98q-4 57 -19.5 73t-73.5 20l-67 5l-19 1v62h382v-204
z" />
    <glyph glyph-name="n" unicode="n" horiz-adv-x="1295" 
d="M419 882q150 228 392 228q140 0 219.5 -92t79.5 -253v-506l7 -99q3 -57 19 -72.5t73 -19.5l68 -5l18 -1v-62h-567v62l18 1l68 5q57 4 73 19.5t20 72.5l6 99v475q0 140 -36.5 194.5t-129.5 54.5q-134 0 -328 -167v-557q0 -118 18 -152.5t81 -38.5l68 -5l19 -1v-62h-568v62
l19 1l67 5q58 4 73.5 19.5t19.5 72.5l6 99v568l-6 98q-4 57 -19.5 73t-73.5 20l-67 5l-19 1v62h382v-204z" />
    <glyph glyph-name="o" unicode="o" horiz-adv-x="1234" 
d="M610 -25q-235 0 -373 153.5t-138 414.5q0 263 139 415t379 152t379 -152t139 -413q0 -267 -139.5 -418.5t-385.5 -151.5zM613 37q137 0 225 143t88 365q0 215 -88.5 359.5t-220.5 144.5t-220 -144.5t-88 -361.5q0 -216 87 -361t217 -145z" />
    <glyph glyph-name="p" unicode="p" horiz-adv-x="1314" 
d="M419 123v-259q0 -118 18 -152.5t81 -38.5l68 -5l19 -1v-62h-568v62l19 1l67 5q58 4 73.5 19.5t19.5 73.5l6 98v963l-6 98q-4 57 -19.5 73t-73.5 20l-67 5l-19 1v62h382v-204q147 228 382 228q184 0 293 -145t109 -390q0 -272 -125 -436t-332 -164q-191 0 -327 148z
M419 201q157 -116 301 -116q273 0 273 436q0 462 -265 462q-178 0 -309 -170v-612z" />
    <glyph glyph-name="q" unicode="q" horiz-adv-x="1265" 
d="M894 204q-145 -229 -381 -229q-184 0 -293 145.5t-109 390.5q0 272 125 435.5t332 163.5q190 0 326 -148v124h198v-1222q0 -118 17.5 -152.5t81.5 -38.5l67 -5l19 -1v-62h-568v62l19 1l68 5q63 4 80.5 38.5t17.5 152.5v340zM894 885q-154 115 -300 115q-274 0 -274 -435
q0 -462 266 -462q181 0 308 170v612z" />
    <glyph glyph-name="r" unicode="r" horiz-adv-x="901" 
d="M419 790v-531q0 -118 18 -152.5t81 -38.5l68 -5l43 -1v-62h-592v62l19 1l67 5q58 4 73.5 19.5t19.5 72.5l6 99v568l-6 98q-4 57 -19.5 73t-73.5 20l-67 5l-19 1v62h382v-204q135 228 353 228q30 0 67 -11v-297h-111l-2 18l-9 75q-5 53 -54 53q-149 0 -244 -158z" />
    <glyph glyph-name="s" unicode="s" horiz-adv-x="1032" 
d="M139 56v276h111l2 -19l8 -104q7 -77 80 -124.5t184 -47.5q91 0 148.5 54.5t57.5 140.5q0 136 -175 203l-101 39q-309 119 -309 332q0 132 105.5 218t268.5 86q159 0 329 -61v-259h-111v18l-9 91q-14 150 -196 150q-87 0 -144.5 -55.5t-57.5 -140.5q0 -70 46.5 -112.5
t186.5 -99.5l92 -38q151 -62 210.5 -128.5t59.5 -171.5q0 -144 -115 -236t-297 -92q-199 0 -374 81z" />
    <glyph glyph-name="t" unicode="t" horiz-adv-x="802" 
d="M721 6q-75 -31 -143 -31q-173 0 -252.5 87t-79.5 277v666h-160v81h160v197l198 49v-246h302v-81h-302v-692q0 -151 34 -204.5t129 -53.5q47 0 114 31v-80z" />
    <glyph glyph-name="u" unicode="u" horiz-adv-x="1295" 
d="M876 0v204q-150 -229 -391 -229q-140 0 -220 92.5t-80 253.5v506l-6 98q-4 57 -19.5 73t-73.5 20l-67 5l-19 1v62h382v-734q0 -250 178 -250q163 0 316 168v557l-6 98q-4 58 -19.5 73.5t-73.5 19.5l-68 5l-18 1v62h382v-827l7 -99q3 -57 19 -72.5t73 -19.5l68 -5l19 -1
v-62h-383z" />
    <glyph glyph-name="v" unicode="v" horiz-adv-x="1117" 
d="M514 -12l-352 832q-55 131 -79.5 165.5t-65.5 37.5l-17 1v62h471v-62h-19l-54 -1q-78 0 -78 -43q0 -20 61 -162l245 -579l252 578q59 137 59 163q0 43 -70 43l-50 1h-22v62h322v-62l-21 -1q-59 -4 -98 -94l-48 -112l-375 -829h-61z" />
    <glyph glyph-name="w" unicode="w" horiz-adv-x="1629" 
d="M420 -12l-267 839q-41 126 -63.5 159.5t-69.5 36.5l-19 1v62h487v-62h-21l-72 -2q-81 0 -81 -43q0 -45 34 -152l169 -543l315 796h60l321 -816l196 563q41 119 41 151q0 45 -101 45l-54 1h-22v62h355v-62l-22 -1q-44 -3 -63 -31.5t-67 -164.5l-295 -839h-55l-329 826
l-316 -826h-61z" />
    <glyph glyph-name="x" unicode="x" horiz-adv-x="1141" 
d="M4 0v62l16 1q55 4 113 70l109 124l227 269l-230 298l-98 121q-59 73 -125 78l-18 1v62h492v-62h-20l-41 -2q-68 0 -68 -29q0 -19 112 -169l155 -209l150 205q99 137 99 167q0 36 -56 36l-37 1h-23v62h346v-62l-20 -1q-66 -4 -121 -78l-96 -121l-202 -259l236 -307
q145 -189 224 -195l16 -1v-62h-494v62h18l46 1q74 0 74 26q0 20 -114 168l-169 219l-169 -219q-115 -150 -115 -164q0 -30 74 -30l39 -1h23v-62h-353z" />
    <glyph glyph-name="y" unicode="y" horiz-adv-x="1129" 
d="M166 -395l356 395l-342 823q-54 132 -80 164.5t-80 35.5l-20 1v62h496v-62h-21l-65 -1q-71 0 -71 -37q0 -13 6 -30l51 -133l243 -583l259 586q57 129 57 157q0 40 -73 40l-48 1h-27v62h322v-62l-19 -1q-62 -4 -106 -113q-8 -19 -38 -86l-551 -1219h-249z" />
    <glyph glyph-name="z" unicode="z" horiz-adv-x="1220" 
d="M136 0v62l688 962h-355l-96 -1q-65 0 -83 -14.5t-18 -67.5q0 -42 -2 -72l-1 -21h-105v238h889v-62l-680 -950h397l122 5q82 0 82 72v75l1 24h105v-250h-944z" />
    <glyph glyph-name="braceleft" unicode="{" horiz-adv-x="703" 
d="M213 642q220 -96 220 -348q0 -83 -19 -180l-13 -69l-12 -47q-7 -32 -7 -66q0 -166 195 -166h27v-62h-27q-155 0 -255 88t-100 224q0 63 19 167l19 97l9 50q14 72 14 111q0 170 -181 170h-53v61h53q181 0 181 170q0 39 -14 111l-9 50l-19 97q-19 104 -19 167
q0 136 100 224t255 88h27v-62h-27q-195 0 -195 -167q0 -33 7 -64l12 -48l13 -69q19 -96 19 -180q0 -253 -220 -347z" />
    <glyph glyph-name="bar" unicode="|" horiz-adv-x="765" 
d="M333 -296v1875h99v-1875h-99z" />
    <glyph glyph-name="braceright" unicode="}" horiz-adv-x="703" 
d="M490 642q-220 -96 -220 -348q0 -83 19 -180l13 -69l12 -47q7 -32 7 -66q0 -166 -195 -166h-27v-62h27q155 0 255 88t100 224q0 63 -19 167l-19 97l-9 50q-14 72 -14 111q0 170 181 170h53v61h-53q-181 0 -181 170q0 39 14 111l9 50l19 97q19 104 19 167q0 136 -100 224
t-255 88h-27v-62h27q195 0 195 -167q0 -33 -7 -64l-12 -48l-13 -69q-19 -96 -19 -180q0 -253 220 -347z" />
    <glyph glyph-name="asciitilde" unicode="~" 
d="M284 444h-62q15 319 263 319q101 0 332 -104l88 -40q212 -95 272 -95q144 0 168 216h61q-20 -319 -264 -319q-82 0 -267 83l-59 27l-90 40q-199 90 -274 90q-71 0 -119.5 -62.5t-48.5 -154.5z" />
    <glyph glyph-name="nbspace" unicode="&#xa0;" horiz-adv-x="623" 
 />
    <glyph glyph-name="exclamdown" unicode="&#xa1;" horiz-adv-x="543" 
d="M370 1086v-198h-197v198h197zM303 691l67 -790v-296h-197v296l68 790h62z" />
    <glyph glyph-name="cent" unicode="&#xa2;" horiz-adv-x="1246" 
d="M642 0v176q-213 19 -344 176t-131 395q0 496 475 561v172h62v-167q161 -14 302 -61v-253h-111l-1 19q-4 56 -4 69q0 81 -39.5 114t-146.5 41v-969q31 -3 46 -3q96 0 256 61v-97q-139 -53 -302 -63v-171h-62zM642 280v963q-265 -58 -265 -520q0 -378 265 -443z" />
    <glyph glyph-name="sterling" unicode="&#xa3;" horiz-adv-x="1246" 
d="M253 0v148q124 33 167 114.5t43 284.5v193h-173v62h173v222q0 481 370 481q138 0 271 -70v-214h-98l-2 19l-3 74q-8 130 -159 130q-105 0 -143.5 -64.5t-38.5 -241.5v-336h235v-62h-235v-154q0 -280 -282 -438h726v-148h-851z" />
    <glyph glyph-name="currency" unicode="&#xa4;" horiz-adv-x="1246" 
d="M330 405l-192 -192l-43 43l192 192q-109 142 -109 292q0 151 109 292l-192 193l43 43l192 -192q138 108 292 108q155 0 292 -108l193 192l43 -43l-192 -193q108 -141 108 -292q0 -150 -108 -292l192 -192l-43 -43l-193 192q-137 -108 -292 -108q-154 0 -292 108zM618 401
q144 0 243.5 99t99.5 241q0 140 -99 239t-240 99q-140 0 -239.5 -99t-99.5 -240q0 -139 99 -239t236 -100z" />
    <glyph glyph-name="yen" unicode="&#xa5;" horiz-adv-x="1246" 
d="M542 395h-308v61h308v210h-308v62h308l-298 454l-101 149q-38 57 -60 69.5t-93 16.5l-22 2v61h561v-61h-19l-55 -1q-71 0 -71 -35q0 -30 40 -92l280 -437l299 458q39 60 39 77q0 29 -55 29l-68 1h-26v61h426v-61l-17 -2l-51 -2q-58 -4 -100 -68l-113 -168l-298 -451h308
v-62h-308v-210h308v-61h-308v-136q0 -118 17.5 -152.5t81.5 -38.5l67 -5l19 -1v-62h-568v62l19 1l68 5q63 4 80.5 38.5t17.5 152.5v136z" />
    <glyph glyph-name="brokenbar" unicode="&#xa6;" horiz-adv-x="761" 
d="M333 -296v740h99v-740h-99zM333 839v740h99v-740h-99z" />
    <glyph glyph-name="section" unicode="&#xa7;" horiz-adv-x="1246" 
d="M173 -258v221h99l1 -19l3 -48q4 -68 97.5 -112t232.5 -44q131 0 211.5 66.5t80.5 175.5q0 74 -44 114.5t-188 101.5l-107 45q-207 87 -285 164t-78 192q0 153 171 290q-168 88 -168 258q0 171 129.5 270.5t349.5 99.5q175 0 346 -56v-227h-98l-2 18l-2 61q-3 61 -81 102
t-191 41q-121 0 -199 -71t-78 -180q0 -145 205 -221l107 -39q368 -137 368 -371q0 -143 -161 -283q179 -96 179 -279q0 -155 -127.5 -244t-350.5 -89q-198 0 -420 63zM838 329q61 83 61 183q0 121 -135 187l-211 92l-139 61q-52 -91 -52 -171q0 -94 72.5 -159t259.5 -137z
" />
    <glyph glyph-name="dieresis" unicode="&#xa8;" horiz-adv-x="1234" 
d="M333 1283v173h173v-173h-173zM728 1283v173h173v-173h-173z" />
    <glyph glyph-name="copyright" unicode="&#xa9;" horiz-adv-x="1752" 
d="M867 -37q-315 0 -541.5 229.5t-226.5 547.5q0 322 228 549.5t549 227.5t549.5 -227.5t228.5 -547.5q0 -326 -229 -552.5t-558 -226.5zM866 25q304 0 515 208.5t211 508.5q0 294 -210.5 504t-505.5 210t-505 -210t-210 -506q0 -292 208.5 -503.5t496.5 -211.5zM1172 345
q-144 -49 -262 -49q-183 0 -302.5 125.5t-119.5 318.5q0 197 117 317.5t309 120.5q104 0 271 -37l-13 -184l-75 12l-11 108q-89 41 -170 41q-127 0 -204 -101.5t-77 -267.5q0 -164 87.5 -269t223.5 -105q85 0 226 61v-91z" />
    <glyph glyph-name="ordfeminine" unicode="&#xaa;" horiz-adv-x="876" 
d="M561 826q-118 -110 -264 -110q-97 0 -163 59t-66 147q0 250 425 250h68v72q0 212 -173 212q-174 0 -179 -95l-4 -69l-1 -21h-86v181q139 66 296 66q177 0 248.5 -61.5t71.5 -212.5v-302q0 -128 66 -128q24 0 58 12v-64q-105 -47 -159 -47q-91 0 -138 111zM561 901v212
h-55q-265 0 -265 -170q0 -129 136 -129q94 0 184 87z" />
    <glyph glyph-name="guillemotleft" unicode="&#xab;" horiz-adv-x="1086" 
d="M572 936l-274 -393l274 -392l-50 -40l-423 432l423 432zM963 936l-274 -393l274 -392l-50 -40l-423 432l423 432z" />
    <glyph glyph-name="logicalnot" unicode="&#xac;" 
d="M1308 296v395h-1086v99h1184v-99v0v-395h-98z" />
    <glyph glyph-name="sfthyphen" unicode="&#xad;" horiz-adv-x="1185" 
d="M148 543v123h888v-123h-888z" />
    <glyph glyph-name="registered" unicode="&#xae;" horiz-adv-x="1246" 
d="M612 629q-180 0 -309.5 131t-129.5 313q0 185 130 314.5t314 129.5t314 -129.5t130 -313.5q0 -187 -130.5 -316t-318.5 -129zM613 685q162 0 277.5 114t115.5 275q0 159 -115 273.5t-274 114.5t-273.5 -115t-114.5 -273t114 -273.5t270 -115.5zM547 1029v-207h-150v59h75
v388h-72v62h180q239 0 239 -141q0 -89 -109 -149l79 -162h86v-59l-135 1l-108 208h-85zM546 1089h49q149 0 149 95q0 85 -139 85h-59v-180z" />
    <glyph glyph-name="overscore" unicode="&#xaf;" horiz-adv-x="1024" 
d="M99 1480v124h827v-124h-827z" />
    <glyph glyph-name="degree" unicode="&#xb0;" horiz-adv-x="888" 
d="M440 925q-119 0 -205.5 87.5t-86.5 208.5q0 123 86.5 209.5t209.5 86.5q122 0 209 -86.5t87 -208.5q0 -124 -87 -210.5t-213 -86.5zM441 1012q90 0 151.5 61t61.5 149q0 86 -61.5 147.5t-148.5 61.5t-148.5 -61.5t-61.5 -148.5q0 -86 61 -147.5t146 -61.5z" />
    <glyph glyph-name="plusminus" unicode="&#xb1;" 
d="M222 0v99h1184v-99h-1184zM765 296v395h-543v99h543v394h99v-394h542v-99h-542v-395h-99z" />
    <glyph glyph-name="twosuperior" unicode="&#xb2;" horiz-adv-x="864" 
d="M149 592v59q49 140 182 262l50 45q176 162 176 301q0 195 -168 195q-71 0 -148 -59v-108h-70v164q128 52 252 52q129 0 209.5 -67t80.5 -173q0 -134 -157 -243q-59 -42 -66 -47l-61 -44q-134 -98 -146 -211h427v-126h-561z" />
    <glyph glyph-name="threesuperior" unicode="&#xb3;" horiz-adv-x="864" 
d="M158 600v162h70l1 -12q2 -29 2 -39q0 -95 147 -95q175 0 175 210q0 215 -247 215h-67v47h46q245 0 245 191q0 177 -153 177q-131 0 -136 -76l-4 -54v-10h-73v150q108 37 231 37q283 0 283 -207q0 -162 -193 -225q221 -52 221 -239q0 -121 -85.5 -191.5t-232.5 -70.5
q-134 0 -230 30z" />
    <glyph glyph-name="acute" unicode="&#xb4;" horiz-adv-x="1234" 
d="M438 1283l241 321h259l-407 -321h-93z" />
    <glyph glyph-name="micro" unicode="&#xb5;" horiz-adv-x="1283" 
d="M876 0v204q-135 -230 -363 -230q-79 0 -131 34v-304h-197v1123l-6 98q-4 57 -19.5 73t-73.5 20l-67 5l-19 1v62h382v-734q0 -138 40 -194t138 -56q169 0 316 168v557l-6 98q-4 58 -19.5 73.5t-73.5 19.5l-68 5l-18 1v62h382v-827l7 -99q3 -57 19 -72.5t73 -19.5l68 -5
l18 -1v-62h-382z" />
    <glyph glyph-name="paragraph" unicode="&#xb6;" horiz-adv-x="1246" 
d="M555 -296v1036q-210 0 -339.5 115t-129.5 302q0 330 343 330l73 -1l105 -4l117 -2h226v-1776h-74v1678h-247v-1678h-74z" />
    <glyph glyph-name="middot" unicode="&#xb7;" horiz-adv-x="543" 
d="M148 491v247h247v-247h-247z" />
    <glyph glyph-name="cedilla" unicode="&#xb8;" horiz-adv-x="1234" 
d="M444 -411v67q59 -15 98 -15q110 0 110 83q0 101 -187 101l95 175h79l-66 -119q217 -14 217 -146q0 -71 -57.5 -119t-142.5 -48q-72 0 -146 21z" />
    <glyph glyph-name="onesuperior" unicode="&#xb9;" horiz-adv-x="864" 
d="M547 1488v-731q0 -74 11 -92.5t58 -21.5l53 -4l41 -1v-46h-474v46l41 1l54 5q44 3 56 23t12 90v523l-4 61q0 43 -25 43q-18 0 -82 -12l-52 -10v48z" />
    <glyph glyph-name="ordmasculine" unicode="&#xba;" horiz-adv-x="876" 
d="M433 716q-165 0 -265 109.5t-100 291.5q0 183 100.5 291.5t269.5 108.5t269.5 -108.5t100.5 -290.5q0 -186 -100.5 -294t-274.5 -108zM435 777q188 0 188 337q0 342 -185 342t-185 -343q0 -336 182 -336z" />
    <glyph glyph-name="guillemotright" unicode="&#xbb;" horiz-adv-x="1086" 
d="M514 936l274 -393l-274 -392l50 -40l423 432l-423 432zM123 936l274 -393l-274 -392l50 -40l423 432l-423 432z" />
    <glyph glyph-name="onequarter" unicode="&#xbc;" horiz-adv-x="1641" 
d="M395 1488v-731q0 -74 11 -92.5t58 -21.5l53 -4l41 -1v-46h-474v46l41 1l54 5q44 3 56 23t12 90v523l-4 61q0 43 -25 43q-18 0 -82 -12l-52 -10v48zM235 -37l1088 1554h86l-1088 -1554h-86zM1283 246h-415v80l442 575h108v-547h111v-108h-111v-81l4 -59q3 -52 51 -56
l38 -3l11 -1v-46h-350v46l11 1l48 3q45 3 48 56l4 59v81zM946 354h337v436z" />
    <glyph glyph-name="onehalf" unicode="&#xbd;" horiz-adv-x="1641" 
d="M395 1488v-731q0 -74 11 -92.5t58 -21.5l53 -4l41 -1v-46h-474v46l41 1l54 5q44 3 56 23t12 90v523l-4 61q0 43 -25 43q-18 0 -82 -12l-52 -10v48zM222 -37l1088 1554h86l-1088 -1554h-86zM978 0v59q49 140 182 262l50 45q176 162 176 301q0 195 -168 195q-71 0 -148 -59
v-108h-70v164q128 52 252 52q129 0 209.5 -67t80.5 -173q0 -134 -157 -243q-59 -42 -66 -47l-61 -44q-134 -98 -146 -211h427v-126h-561z" />
    <glyph glyph-name="threequarters" unicode="&#xbe;" horiz-adv-x="1641" 
d="M99 600v162h70l1 -12q2 -29 2 -39q0 -95 147 -95q175 0 175 210q0 215 -247 215h-67v47h46q245 0 245 191q0 177 -153 177q-131 0 -136 -76l-4 -54v-10h-73v150q108 37 231 37q283 0 283 -207q0 -162 -193 -225q221 -52 221 -239q0 -121 -85.5 -191.5t-232.5 -70.5
q-134 0 -230 30zM284 -37l1088 1554h86l-1088 -1554h-86zM1283 246h-415v80l442 575h108v-547h111v-108h-111v-81l4 -59q3 -52 51 -56l38 -3l11 -1v-46h-350v46l11 1l48 3q45 3 48 56l4 59v81zM946 354h337v436z" />
    <glyph glyph-name="questiondown" unicode="&#xbf;" horiz-adv-x="984" 
d="M676 1086v-198h-198v198h198zM676 691v-19q0 -204 -143 -345l-40 -39q-187 -186 -187 -385q0 -273 266 -273q210 0 219 151l5 106l1 22h99v-274q-190 -67 -364 -67q-197 0 -316.5 89.5t-119.5 238.5q0 160 197 312q56 43 77 63l36 34q72 67 72 248v138h198z" />
    <glyph glyph-name="Agrave" unicode="&#xc0;" horiz-adv-x="1524" 
d="M374 456l-85 -197l-44 -124q-6 -18 -6 -31q0 -41 77 -41l52 -1h16v-62h-384v62l21 1l48 2q56 3 92 89l46 105l521 1240h70l519 -1247l51 -103q27 -58 46 -70t87 -16l23 -1v-62h-549v62h18l61 1q78 0 78 38q0 60 -41 158l-83 197h-634zM407 537h565l-281 674zM896 1604
h-93l-407 321h259z" />
    <glyph glyph-name="Aacute" unicode="&#xc1;" horiz-adv-x="1524" 
d="M374 456l-85 -197l-44 -124q-6 -18 -6 -31q0 -41 77 -41l52 -1h16v-62h-384v62l21 1l48 2q56 3 92 89l46 105l521 1240h70l519 -1247l51 -103q27 -58 46 -70t87 -16l23 -1v-62h-549v62h18l61 1q78 0 78 38q0 60 -41 158l-83 197h-634zM407 537h565l-281 674zM635 1604
l241 321h259l-407 -321h-93z" />
    <glyph glyph-name="Acircumflex" unicode="&#xc2;" horiz-adv-x="1524" 
d="M374 456l-85 -197l-44 -124q-6 -18 -6 -31q0 -41 77 -41l52 -1h16v-62h-384v62l21 1l48 2q56 3 92 89l46 105l521 1240h70l519 -1247l51 -103q27 -58 46 -70t87 -16l23 -1v-62h-549v62h18l61 1q78 0 78 38q0 60 -41 158l-83 197h-634zM407 537h565l-281 674zM411 1604
l241 321h222l240 -321h-86l-265 222l-266 -222h-86z" />
    <glyph glyph-name="Atilde" unicode="&#xc3;" horiz-adv-x="1524" 
d="M374 456l-85 -197l-44 -124q-6 -18 -6 -31q0 -41 77 -41l52 -1h16v-62h-384v62l21 1l48 2q56 3 92 89l46 105l521 1240h70l519 -1247l51 -103q27 -58 46 -70t87 -16l23 -1v-62h-549v62h18l61 1q78 0 78 38q0 60 -41 158l-83 197h-634zM407 537h565l-281 674zM435 1604
q40 235 229 235q61 0 116 -38l35 -25q54 -37 105 -37q100 0 120 99h61q-39 -234 -229 -234q-60 0 -115 38l-36 24q-54 38 -105 38q-93 0 -119 -100h-62z" />
    <glyph glyph-name="Adieresis" unicode="&#xc4;" horiz-adv-x="1524" 
d="M374 456l-85 -197l-44 -124q-6 -18 -6 -31q0 -41 77 -41l52 -1h16v-62h-384v62l21 1l48 2q56 3 92 89l46 105l521 1240h70l519 -1247l51 -103q27 -58 46 -70t87 -16l23 -1v-62h-549v62h18l61 1q78 0 78 38q0 60 -41 158l-83 197h-634zM407 537h565l-281 674zM478 1604
v173h173v-173h-173zM873 1604v173h173v-173h-173z" />
    <glyph glyph-name="Aring" unicode="&#xc5;" horiz-adv-x="1524" 
d="M374 456l-85 -197l-44 -124q-6 -18 -6 -31q0 -41 77 -41l52 -1h16v-62h-384v62l21 1l48 2q56 3 92 89l46 105l521 1240h70l519 -1247l51 -103q27 -58 46 -70t87 -16l23 -1v-62h-549v62h18l61 1q78 0 78 38q0 60 -41 158l-83 197h-634zM407 537h565l-281 674zM760 1480
q-93 0 -158.5 66.5t-65.5 160.5t66 160.5t161 66.5q94 0 160.5 -66t66.5 -161q0 -96 -66.5 -161.5t-163.5 -65.5zM761 1548q68 0 114.5 46t46.5 114q0 66 -46.5 112t-112.5 46t-112.5 -46.5t-46.5 -111.5q0 -66 46 -113t111 -47z" />
    <glyph glyph-name="AE" unicode="&#xc6;" horiz-adv-x="1881" 
d="M1832 0h-1072v62l19 1l68 5q57 4 73 19.5t19 72.5l7 99v197h-538l-123 -198q-26 -43 -46 -79q-27 -50 -33 -59q-9 -16 -9 -27q0 -25 72 -25q16 0 64 -3l23 -1v-62h-358v62l23 1q62 3 111 86l67 107l743 1222h830v-259h-111l-1 19l-5 84q0 47 -13.5 61t-60.5 14l-102 1
h-323v-592l283 1l63 2q44 0 55.5 9.5t13.5 46.5q0 9 3 46l1 18h93v-326h-93l-1 18q-5 76 -23.5 90.5t-111.5 14.5h-283v-469q0 -116 27.5 -144.5t142.5 -28.5h157l141 6q83 0 88 70l4 72l1 19h111zM459 537h487v801z" />
    <glyph glyph-name="Ccedilla" unicode="&#xc7;" horiz-adv-x="1424" 
d="M1307 79q-201 -116 -469 -116q-340 0 -536.5 209t-196.5 571q0 367 189 570.5t530 203.5q173 0 419 -64l38 -10v-283h-123l-1 20q-2 30 -2 59q0 98 -91 154.5t-248 56.5q-225 0 -359 -192t-134 -513q0 -322 157 -502.5t437 -180.5q183 0 390 113v-96zM643 -411v67
q59 -15 98 -15q110 0 110 83q0 101 -187 101l95 175h79l-66 -119q217 -14 217 -146q0 -71 -57.5 -119t-142.5 -48q-72 0 -146 21z" />
    <glyph glyph-name="Egrave" unicode="&#xc8;" horiz-adv-x="1160" 
d="M1110 0h-1067v62l19 1l67 5q58 4 73.5 19.5t19.5 72.5l6 99v962l-6 99q-4 57 -19.5 73t-73.5 20l-67 4l-19 2v61h1012v-259h-111l-2 19l-5 84q0 48 -12.5 61.5t-60.5 13.5l-103 1h-323v-592l271 1l63 2q44 0 55.5 9.5t13.5 46.5q1 15 3 46l1 18h80v-326h-80l-1 18
q-5 76 -23.5 90.5t-111.5 14.5h-271v-469q0 -116 27.5 -144.5t142.5 -28.5h158l141 6q83 0 88 70l3 91l1 18h111v-271zM792 1604h-93l-407 321h259z" />
    <glyph glyph-name="Eacute" unicode="&#xc9;" horiz-adv-x="1160" 
d="M1110 0h-1067v62l19 1l67 5q58 4 73.5 19.5t19.5 72.5l6 99v962l-6 99q-4 57 -19.5 73t-73.5 20l-67 4l-19 2v61h1012v-259h-111l-2 19l-5 84q0 48 -12.5 61.5t-60.5 13.5l-103 1h-323v-592l271 1l63 2q44 0 55.5 9.5t13.5 46.5q1 15 3 46l1 18h80v-326h-80l-1 18
q-5 76 -23.5 90.5t-111.5 14.5h-271v-469q0 -116 27.5 -144.5t142.5 -28.5h158l141 6q83 0 88 70l3 91l1 18h111v-271zM413 1604l241 321h259l-407 -321h-93z" />
    <glyph glyph-name="Ecircumflex" unicode="&#xca;" horiz-adv-x="1160" 
d="M1110 0h-1067v62l19 1l67 5q58 4 73.5 19.5t19.5 72.5l6 99v962l-6 99q-4 57 -19.5 73t-73.5 20l-67 4l-19 2v61h1012v-259h-111l-2 19l-5 84q0 48 -12.5 61.5t-60.5 13.5l-103 1h-323v-592l271 1l63 2q44 0 55.5 9.5t13.5 46.5q1 15 3 46l1 18h80v-326h-80l-1 18
q-5 76 -23.5 90.5t-111.5 14.5h-271v-469q0 -116 27.5 -144.5t142.5 -28.5h158l141 6q83 0 88 70l3 91l1 18h111v-271zM265 1604l241 321h222l240 -321h-86l-265 222l-266 -222h-86z" />
    <glyph glyph-name="Edieresis" unicode="&#xcb;" horiz-adv-x="1160" 
d="M1110 0h-1067v62l19 1l67 5q58 4 73.5 19.5t19.5 72.5l6 99v962l-6 99q-4 57 -19.5 73t-73.5 20l-67 4l-19 2v61h1012v-259h-111l-2 19l-5 84q0 48 -12.5 61.5t-60.5 13.5l-103 1h-323v-592l271 1l63 2q44 0 55.5 9.5t13.5 46.5q1 15 3 46l1 18h80v-326h-80l-1 18
q-5 76 -23.5 90.5t-111.5 14.5h-271v-469q0 -116 27.5 -144.5t142.5 -28.5h158l141 6q83 0 88 70l3 91l1 18h111v-271zM326 1604v173h173v-173h-173zM721 1604v173h173v-173h-173z" />
    <glyph glyph-name="Igrave" unicode="&#xcc;" horiz-adv-x="666" 
d="M623 62v-62h-580v62l19 1l67 5q58 4 73.5 19.5t19.5 72.5l6 99v962l-6 99q-4 57 -19.5 73t-73.5 20l-67 4l-19 2v61h580v-61l-19 -2l-68 -4q-57 -4 -72.5 -20t-19.5 -73l-6 -99v-962l6 -99q4 -57 19.5 -72.5t72.5 -19.5l68 -5zM531 1604h-93l-407 321h259z" />
    <glyph glyph-name="Iacute" unicode="&#xcd;" horiz-adv-x="666" 
d="M623 62v-62h-580v62l19 1l67 5q58 4 73.5 19.5t19.5 72.5l6 99v962l-6 99q-4 57 -19.5 73t-73.5 20l-67 4l-19 2v61h580v-61l-19 -2l-68 -4q-57 -4 -72.5 -20t-19.5 -73l-6 -99v-962l6 -99q4 -57 19.5 -72.5t72.5 -19.5l68 -5zM129 1604l241 321h259l-407 -321h-93z" />
    <glyph glyph-name="Icircumflex" unicode="&#xce;" horiz-adv-x="666" 
d="M623 62v-62h-580v62l19 1l67 5q58 4 73.5 19.5t19.5 72.5l6 99v962l-6 99q-4 57 -19.5 73t-73.5 20l-67 4l-19 2v61h580v-61l-19 -2l-68 -4q-57 -4 -72.5 -20t-19.5 -73l-6 -99v-962l6 -99q4 -57 19.5 -72.5t72.5 -19.5l68 -5zM-18 1604l241 321h222l240 -321h-86
l-265 222l-266 -222h-86z" />
    <glyph glyph-name="Idieresis" unicode="&#xcf;" horiz-adv-x="666" 
d="M623 62v-62h-580v62l19 1l67 5q58 4 73.5 19.5t19.5 72.5l6 99v962l-6 99q-4 57 -19.5 73t-73.5 20l-67 4l-19 2v61h580v-61l-19 -2l-68 -4q-57 -4 -72.5 -20t-19.5 -73l-6 -99v-962l6 -99q4 -57 19.5 -72.5t72.5 -19.5l68 -5zM49 1604v173h173v-173h-173zM444 1604v173
h173v-173h-173z" />
    <glyph glyph-name="Eth" unicode="&#xd0;" horiz-adv-x="1573" 
d="M44 0v62l18 1l68 5q63 4 81 38.5t18 152.5v457h-210v67h210v438q0 118 -18 152.5t-81 39.5l-68 4l-18 2v61h473l84 1l72 3l72 1q348 0 533.5 -184t185.5 -529q0 -358 -191 -565t-521 -207h-708zM438 1413v-630h346v-67h-346v-457l4 -78q0 -64 51 -88.5t183 -24.5
q566 0 566 672q0 357 -151.5 515t-494.5 158h-158z" />
    <glyph glyph-name="Ntilde" unicode="&#xd1;" horiz-adv-x="1539" 
d="M1240 -20l-918 1240v-961q0 -118 18 -152.5t81 -38.5l68 -5l18 -1v-62h-463v62l18 1l68 5q63 4 81 38.5t18 152.5v962q0 119 -18 153t-81 39l-68 4l-19 2v61h333l844 -1149v890l-6 99q-4 57 -20 73t-73 20l-68 4l-18 2v61h461v-61l-19 -2l-68 -4q-57 -4 -73 -20t-19 -73
l-6 -99v-1241h-71zM442 1604q40 235 229 235q61 0 116 -38l35 -25q54 -37 105 -37q100 0 120 99h61q-39 -234 -229 -234q-60 0 -115 38l-36 24q-54 38 -105 38q-93 0 -119 -100h-62z" />
    <glyph glyph-name="Ograve" unicode="&#xd2;" horiz-adv-x="1591" 
d="M786 -37q-313 0 -497 210t-184 567q0 361 185 569t506 208q320 0 505.5 -207.5t185.5 -566.5q0 -366 -186 -573t-515 -207zM789 31q226 0 351 187t125 526q0 330 -125 518t-344 188q-220 0 -344.5 -188.5t-124.5 -520.5q0 -331 123.5 -520.5t338.5 -189.5zM975 1604h-93
l-407 321h259z" />
    <glyph glyph-name="Oacute" unicode="&#xd3;" horiz-adv-x="1591" 
d="M786 -37q-313 0 -497 210t-184 567q0 361 185 569t506 208q320 0 505.5 -207.5t185.5 -566.5q0 -366 -186 -573t-515 -207zM789 31q226 0 351 187t125 526q0 330 -125 518t-344 188q-220 0 -344.5 -188.5t-124.5 -520.5q0 -331 123.5 -520.5t338.5 -189.5zM642 1604
l241 321h259l-407 -321h-93z" />
    <glyph glyph-name="Ocircumflex" unicode="&#xd4;" horiz-adv-x="1591" 
d="M786 -37q-313 0 -497 210t-184 567q0 361 185 569t506 208q320 0 505.5 -207.5t185.5 -566.5q0 -366 -186 -573t-515 -207zM789 31q226 0 351 187t125 526q0 330 -125 518t-344 188q-220 0 -344.5 -188.5t-124.5 -520.5q0 -331 123.5 -520.5t338.5 -189.5zM444 1604
l241 321h222l240 -321h-86l-265 222l-266 -222h-86z" />
    <glyph glyph-name="Otilde" unicode="&#xd5;" horiz-adv-x="1591" 
d="M786 -37q-313 0 -497 210t-184 567q0 361 185 569t506 208q320 0 505.5 -207.5t185.5 -566.5q0 -366 -186 -573t-515 -207zM789 31q226 0 351 187t125 526q0 330 -125 518t-344 188q-220 0 -344.5 -188.5t-124.5 -520.5q0 -331 123.5 -520.5t338.5 -189.5zM469 1604
q40 235 229 235q61 0 116 -38l35 -25q54 -37 105 -37q100 0 120 99h61q-39 -234 -229 -234q-60 0 -115 38l-36 24q-54 38 -105 38q-93 0 -119 -100h-62z" />
    <glyph glyph-name="Odieresis" unicode="&#xd6;" horiz-adv-x="1591" 
d="M786 -37q-313 0 -497 210t-184 567q0 361 185 569t506 208q320 0 505.5 -207.5t185.5 -566.5q0 -366 -186 -573t-515 -207zM789 31q226 0 351 187t125 526q0 330 -125 518t-344 188q-220 0 -344.5 -188.5t-124.5 -520.5q0 -331 123.5 -520.5t338.5 -189.5zM512 1604v173
h173v-173h-173zM907 1604v173h173v-173h-173z" />
    <glyph glyph-name="multiply" unicode="&#xd7;" 
d="M222 70l522 522l-522 523l70 69l522 -522l523 522l69 -69l-522 -523l522 -522l-69 -70l-523 523l-522 -523z" />
    <glyph glyph-name="Oslash" unicode="&#xd8;" horiz-adv-x="1591" 
d="M342 123l-138 -160h-99l182 214q-182 215 -182 581q0 342 188 550.5t497 208.5q268 0 472 -169l136 169h89l-172 -223q172 -215 172 -569q0 -348 -189.5 -555t-508.5 -207q-254 0 -447 160zM403 316l760 913q-125 221 -367 221q-218 0 -343.5 -188.5t-125.5 -513.5
q0 -256 76 -432zM441 241q117 -210 352 -210q222 0 347 187t125 519q0 236 -64 417z" />
    <glyph glyph-name="Ugrave" unicode="&#xd9;" horiz-adv-x="1472" 
d="M16 1419v61h583v-61l-18 -2l-68 -4q-63 -5 -81 -39.5t-18 -152.5v-633q0 -230 12 -300t60 -133q97 -126 290 -126q181 0 290 110q61 62 79.5 137t18.5 268v677l-7 99q-3 57 -19 73t-73 20l-68 4l-18 2v61h474v-61l-19 -2l-68 -4q-63 -5 -80.5 -39.5t-17.5 -152.5v-620
q0 -206 -23 -302t-92 -179q-130 -157 -405 -157q-547 0 -547 591v667l-6 99q-4 57 -19.5 73t-73.5 20l-67 4zM929 1604h-93l-407 321h259z" />
    <glyph glyph-name="Uacute" unicode="&#xda;" horiz-adv-x="1472" 
d="M16 1419v61h583v-61l-18 -2l-68 -4q-63 -5 -81 -39.5t-18 -152.5v-633q0 -230 12 -300t60 -133q97 -126 290 -126q181 0 290 110q61 62 79.5 137t18.5 268v677l-7 99q-3 57 -19 73t-73 20l-68 4l-18 2v61h474v-61l-19 -2l-68 -4q-63 -5 -80.5 -39.5t-17.5 -152.5v-620
q0 -206 -23 -302t-92 -179q-130 -157 -405 -157q-547 0 -547 591v667l-6 99q-4 57 -19.5 73t-73.5 20l-67 4zM591 1604l241 321h259l-407 -321h-93z" />
    <glyph glyph-name="Ucircumflex" unicode="&#xdb;" horiz-adv-x="1472" 
d="M16 1419v61h583v-61l-18 -2l-68 -4q-63 -5 -81 -39.5t-18 -152.5v-633q0 -230 12 -300t60 -133q97 -126 290 -126q181 0 290 110q61 62 79.5 137t18.5 268v677l-7 99q-3 57 -19 73t-73 20l-68 4l-18 2v61h474v-61l-19 -2l-68 -4q-63 -5 -80.5 -39.5t-17.5 -152.5v-620
q0 -206 -23 -302t-92 -179q-130 -157 -405 -157q-547 0 -547 591v667l-6 99q-4 57 -19.5 73t-73.5 20l-67 4zM432 1604l241 321h222l240 -321h-86l-265 222l-266 -222h-86z" />
    <glyph glyph-name="Udieresis" unicode="&#xdc;" horiz-adv-x="1472" 
d="M16 1419v61h583v-61l-18 -2l-68 -4q-63 -5 -81 -39.5t-18 -152.5v-633q0 -230 12 -300t60 -133q97 -126 290 -126q181 0 290 110q61 62 79.5 137t18.5 268v677l-7 99q-3 57 -19 73t-73 20l-68 4l-18 2v61h474v-61l-19 -2l-68 -4q-63 -5 -80.5 -39.5t-17.5 -152.5v-620
q0 -206 -23 -302t-92 -179q-130 -157 -405 -157q-547 0 -547 591v667l-6 99q-4 57 -19.5 73t-73.5 20l-67 4zM488 1604v173h173v-173h-173zM883 1604v173h173v-173h-173z" />
    <glyph glyph-name="Yacute" unicode="&#xdd;" horiz-adv-x="1388" 
d="M580 656l-338 559l-78 127q-40 70 -86 73l-58 2l-20 2v61h574v-61h-20l-70 -2q-74 0 -74 -32q0 -31 82 -170l277 -467l289 466q86 139 86 174q0 29 -83 29l-56 2h-18v61h401v-61l-19 -2l-55 -3q-56 -4 -89 -57l-90 -142l-345 -559v-397q0 -118 17.5 -152.5t80.5 -38.5
l68 -5l19 -1v-62h-580v62l18 1l68 5q63 4 81 38.5t18 152.5v397zM569 1604l241 321h259l-407 -321h-93z" />
    <glyph glyph-name="Thorn" unicode="&#xde;" horiz-adv-x="1173" 
d="M438 315v-56l6 -99q4 -57 19.5 -72.5t72.5 -19.5l68 -5l19 -1v-62h-580v62l19 1l67 5q58 4 73.5 19.5t19.5 72.5l6 99v962l-6 99q-4 57 -19.5 73t-73.5 20l-67 4l-19 2v61h580v-61l-19 -2l-68 -4q-57 -4 -72.5 -20t-19.5 -73l-6 -99v-43l138 1q307 0 433 -87.5
t126 -300.5q0 -476 -634 -476h-63zM438 382h75q400 0 400 411q0 317 -361 317h-114v-728z" />
    <glyph glyph-name="germandbls" unicode="&#xdf;" horiz-adv-x="1258" 
d="M623 4v224h99l1 -18l4 -71q7 -102 118 -102q80 0 129.5 51t49.5 134q0 110 -119 214l-189 166q-136 119 -136 240q0 74 79 175l26 34q80 103 80 241q0 250 -172 250q-96 0 -135 -72.5t-39 -253.5v-957l5 -100q0 -58 18 -75t82 -21l19 -1v-62h-506v62l19 1l67 5
q58 4 73.5 19.5t19.5 72.5l6 99v853q0 276 81.5 384t288.5 108q158 0 258 -74.5t100 -191.5q0 -89 -133 -230l-38 -40q-76 -81 -76 -137q0 -66 117 -166l176 -150q188 -159 188 -324q0 -135 -96.5 -225.5t-241.5 -90.5q-102 0 -223 29z" />
    <glyph glyph-name="agrave" unicode="&#xe0;" horiz-adv-x="1112" 
d="M770 149q-176 -174 -348 -174q-138 0 -230 87.5t-92 219.5q0 360 584 360h41v135q0 257 -195 257q-194 0 -213 -195l-1 -19h-134v199q208 91 384 91q356 0 356 -325v-484q0 -236 101 -236q19 0 53 9l6 -74q-71 -25 -128 -25q-145 0 -184 174zM725 171v409h-46
q-370 0 -370 -270q0 -94 60.5 -156t151.5 -62q87 0 204 79zM751 1283h-93l-407 321h259z" />
    <glyph glyph-name="aacute" unicode="&#xe1;" horiz-adv-x="1112" 
d="M770 149q-176 -174 -348 -174q-138 0 -230 87.5t-92 219.5q0 360 584 360h41v135q0 257 -195 257q-194 0 -213 -195l-1 -19h-134v199q208 91 384 91q356 0 356 -325v-484q0 -236 101 -236q19 0 53 9l6 -74q-71 -25 -128 -25q-145 0 -184 174zM725 171v409h-46
q-370 0 -370 -270q0 -94 60.5 -156t151.5 -62q87 0 204 79zM393 1283l241 321h259l-407 -321h-93z" />
    <glyph glyph-name="acircumflex" unicode="&#xe2;" horiz-adv-x="1112" 
d="M770 149q-176 -174 -348 -174q-138 0 -230 87.5t-92 219.5q0 360 584 360h41v135q0 257 -195 257q-194 0 -213 -195l-1 -19h-134v199q208 91 384 91q356 0 356 -325v-484q0 -236 101 -236q19 0 53 9l6 -74q-71 -25 -128 -25q-145 0 -184 174zM725 171v409h-46
q-370 0 -370 -270q0 -94 60.5 -156t151.5 -62q87 0 204 79zM220 1283l241 321h222l240 -321h-86l-265 222l-266 -222h-86z" />
    <glyph glyph-name="atilde" unicode="&#xe3;" horiz-adv-x="1112" 
d="M770 149q-176 -174 -348 -174q-138 0 -230 87.5t-92 219.5q0 360 584 360h41v135q0 257 -195 257q-194 0 -213 -195l-1 -19h-134v199q208 91 384 91q356 0 356 -325v-484q0 -236 101 -236q19 0 53 9l6 -74q-71 -25 -128 -25q-145 0 -184 174zM725 171v409h-46
q-370 0 -370 -270q0 -94 60.5 -156t151.5 -62q87 0 204 79zM236 1283q40 235 229 235q61 0 116 -38l35 -25q54 -37 105 -37q100 0 120 99h61q-39 -234 -229 -234q-60 0 -115 38l-36 24q-54 38 -105 38q-93 0 -119 -100h-62z" />
    <glyph glyph-name="adieresis" unicode="&#xe4;" horiz-adv-x="1112" 
d="M770 149q-176 -174 -348 -174q-138 0 -230 87.5t-92 219.5q0 360 584 360h41v135q0 257 -195 257q-194 0 -213 -195l-1 -19h-134v199q208 91 384 91q356 0 356 -325v-484q0 -236 101 -236q19 0 53 9l6 -74q-71 -25 -128 -25q-145 0 -184 174zM725 171v409h-46
q-370 0 -370 -270q0 -94 60.5 -156t151.5 -62q87 0 204 79zM298 1283v173h173v-173h-173zM693 1283v173h173v-173h-173z" />
    <glyph glyph-name="aring" unicode="&#xe5;" horiz-adv-x="1112" 
d="M770 149q-176 -174 -348 -174q-138 0 -230 87.5t-92 219.5q0 360 584 360h41v135q0 257 -195 257q-194 0 -213 -195l-1 -19h-134v199q208 91 384 91q356 0 356 -325v-484q0 -236 101 -236q19 0 53 9l6 -74q-71 -25 -128 -25q-145 0 -184 174zM725 171v409h-46
q-370 0 -370 -270q0 -94 60.5 -156t151.5 -62q87 0 204 79zM544 1283q-93 0 -158.5 66.5t-65.5 160.5t66 160.5t161 66.5q94 0 160.5 -66t66.5 -161q0 -96 -66.5 -161.5t-163.5 -65.5zM545 1351q68 0 114.5 46t46.5 114q0 66 -46.5 112t-112.5 46t-112.5 -46.5t-46.5 -111.5
q0 -66 46 -113t111 -47z" />
    <glyph glyph-name="ae" unicode="&#xe6;" horiz-adv-x="1677" 
d="M1572 45q-215 -70 -343 -70q-282 0 -445 225q-200 -225 -380 -225q-140 0 -232 87.5t-92 219.5q0 360 584 360h41v135q0 257 -195 257q-194 0 -213 -195l-1 -19h-134v199q196 92 353 92q229 0 337 -129q131 128 311 128q195 0 299.5 -132.5t104.5 -380.5v-18h-663
q0 -511 360 -511q144 0 302 75zM706 199v381h-47q-370 0 -370 -270q0 -94 60.5 -156t151.5 -62q89 0 205 107zM908 641h450l1 44q0 357 -209 357q-111 0 -176.5 -108t-65.5 -293z" />
    <glyph glyph-name="ccedilla" unicode="&#xe7;" horiz-adv-x="1042" 
d="M938 37q-156 -62 -305 -62q-238 0 -386 159t-148 414q0 254 142 408t376 154q125 0 321 -49v-259h-123l-1 18q0 224 -195 224q-145 0 -229.5 -130t-84.5 -352q0 -227 100 -358t272 -131q148 0 261 50v-86zM429 -411v67q59 -15 98 -15q110 0 110 83q0 101 -187 101l95 175
h79l-66 -119q217 -14 217 -146q0 -71 -57.5 -119t-142.5 -48q-72 0 -146 21z" />
    <glyph glyph-name="egrave" unicode="&#xe8;" horiz-adv-x="1085" 
d="M980 49q-188 -74 -343 -74q-239 0 -388.5 161t-149.5 418q0 245 134 400.5t344 155.5q195 0 299 -131t104 -374v-19h-663q0 -511 351 -511q183 0 312 75v-101zM321 648h450l1 44q0 357 -208 357q-112 0 -177.5 -109t-65.5 -292zM747 1283h-93l-407 321h259z" />
    <glyph glyph-name="eacute" unicode="&#xe9;" horiz-adv-x="1085" 
d="M980 49q-188 -74 -343 -74q-239 0 -388.5 161t-149.5 418q0 245 134 400.5t344 155.5q195 0 299 -131t104 -374v-19h-663q0 -511 351 -511q183 0 312 75v-101zM321 648h450l1 44q0 357 -208 357q-112 0 -177.5 -109t-65.5 -292zM395 1283l241 321h259l-407 -321h-93z" />
    <glyph glyph-name="ecircumflex" unicode="&#xea;" horiz-adv-x="1085" 
d="M980 49q-188 -74 -343 -74q-239 0 -388.5 161t-149.5 418q0 245 134 400.5t344 155.5q195 0 299 -131t104 -374v-19h-663q0 -511 351 -511q183 0 312 75v-101zM321 648h450l1 44q0 357 -208 357q-112 0 -177.5 -109t-65.5 -292zM200 1283l241 321h222l240 -321h-86
l-265 222l-266 -222h-86z" />
    <glyph glyph-name="edieresis" unicode="&#xeb;" horiz-adv-x="1085" 
d="M980 49q-188 -74 -343 -74q-239 0 -388.5 161t-149.5 418q0 245 134 400.5t344 155.5q195 0 299 -131t104 -374v-19h-663q0 -511 351 -511q183 0 312 75v-101zM321 648h450l1 44q0 357 -208 357q-112 0 -177.5 -109t-65.5 -292zM305 1283v173h173v-173h-173zM700 1283
v173h173v-173h-173z" />
    <glyph glyph-name="igrave" unicode="&#xec;" horiz-adv-x="629" 
d="M419 1086v-827q0 -118 18 -152.5t81 -38.5l68 -5l19 -1v-62h-568v62l19 1l67 5q58 4 73.5 19.5t19.5 72.5l6 99v568l-6 98q-4 57 -19.5 73t-73.5 20l-67 5l-19 1v62h382zM512 1283h-93l-407 321h259z" />
    <glyph glyph-name="iacute" unicode="&#xed;" horiz-adv-x="629" 
d="M419 1086v-827q0 -118 18 -152.5t81 -38.5l68 -5l19 -1v-62h-568v62l19 1l67 5q58 4 73.5 19.5t19.5 72.5l6 99v568l-6 98q-4 57 -19.5 73t-73.5 20l-67 5l-19 1v62h382zM129 1283l241 321h259l-407 -321h-93z" />
    <glyph glyph-name="icircumflex" unicode="&#xee;" horiz-adv-x="629" 
d="M419 1086v-827q0 -118 18 -152.5t81 -38.5l68 -5l19 -1v-62h-568v62l19 1l67 5q58 4 73.5 19.5t19.5 72.5l6 99v568l-6 98q-4 57 -19.5 73t-73.5 20l-67 5l-19 1v62h382zM-55 1283l241 321h222l240 -321h-86l-265 222l-266 -222h-86z" />
    <glyph glyph-name="idieresis" unicode="&#xef;" horiz-adv-x="629" 
d="M419 1086v-827q0 -118 18 -152.5t81 -38.5l68 -5l19 -1v-62h-568v62l19 1l67 5q58 4 73.5 19.5t19.5 72.5l6 99v568l-6 98q-4 57 -19.5 73t-73.5 20l-67 5l-19 1v62h382zM12 1283v173h173v-173h-173zM407 1283v173h173v-173h-173z" />
    <glyph glyph-name="eth" unicode="&#xf0;" horiz-adv-x="1221" 
d="M739 1060q-83 143 -213 254l-287 -195l-36 53l274 182q-179 136 -378 153v72q260 0 512 -135l210 141l35 -50l-197 -131q213 -141 339.5 -363.5t126.5 -456.5q0 -272 -144 -440.5t-377 -168.5q-226 0 -364.5 154t-138.5 405q0 242 139.5 397t356.5 155q67 0 142 -26z
M621 37q307 0 307 531q0 208 -83.5 332t-223.5 124t-225 -136t-85 -359q0 -213 88 -352.5t222 -139.5z" />
    <glyph glyph-name="ntilde" unicode="&#xf1;" horiz-adv-x="1295" 
d="M419 882q150 228 392 228q140 0 219.5 -92t79.5 -253v-506l7 -99q3 -57 19 -72.5t73 -19.5l68 -5l18 -1v-62h-567v62l18 1l68 5q57 4 73 19.5t20 72.5l6 99v475q0 140 -36.5 194.5t-129.5 54.5q-134 0 -328 -167v-557q0 -118 18 -152.5t81 -38.5l68 -5l19 -1v-62h-568v62
l19 1l67 5q58 4 73.5 19.5t19.5 72.5l6 99v568l-6 98q-4 57 -19.5 73t-73.5 20l-67 5l-19 1v62h382v-204zM321 1283q40 235 229 235q61 0 116 -38l35 -25q54 -37 105 -37q100 0 120 99h61q-39 -234 -229 -234q-60 0 -115 38l-36 24q-54 38 -105 38q-93 0 -119 -100h-62z" />
    <glyph glyph-name="ograve" unicode="&#xf2;" horiz-adv-x="1234" 
d="M610 -25q-235 0 -373 153.5t-138 414.5q0 263 139 415t379 152t379 -152t139 -413q0 -267 -139.5 -418.5t-385.5 -151.5zM613 37q137 0 225 143t88 365q0 215 -88.5 359.5t-220.5 144.5t-220 -144.5t-88 -361.5q0 -216 87 -361t217 -145zM796 1283h-93l-407 321h259z" />
    <glyph glyph-name="oacute" unicode="&#xf3;" horiz-adv-x="1234" 
d="M610 -25q-235 0 -373 153.5t-138 414.5q0 263 139 415t379 152t379 -152t139 -413q0 -267 -139.5 -418.5t-385.5 -151.5zM613 37q137 0 225 143t88 365q0 215 -88.5 359.5t-220.5 144.5t-220 -144.5t-88 -361.5q0 -216 87 -361t217 -145zM438 1283l241 321h259l-407 -321
h-93z" />
    <glyph glyph-name="ocircumflex" unicode="&#xf4;" horiz-adv-x="1234" 
d="M610 -25q-235 0 -373 153.5t-138 414.5q0 263 139 415t379 152t379 -152t139 -413q0 -267 -139.5 -418.5t-385.5 -151.5zM613 37q137 0 225 143t88 365q0 215 -88.5 359.5t-220.5 144.5t-220 -144.5t-88 -361.5q0 -216 87 -361t217 -145zM266 1283l241 321h222l240 -321
h-86l-265 222l-266 -222h-86z" />
    <glyph glyph-name="otilde" unicode="&#xf5;" horiz-adv-x="1234" 
d="M610 -25q-235 0 -373 153.5t-138 414.5q0 263 139 415t379 152t379 -152t139 -413q0 -267 -139.5 -418.5t-385.5 -151.5zM613 37q137 0 225 143t88 365q0 215 -88.5 359.5t-220.5 144.5t-220 -144.5t-88 -361.5q0 -216 87 -361t217 -145zM287 1283q40 235 229 235
q61 0 116 -38l35 -25q54 -37 105 -37q100 0 120 99h61q-39 -234 -229 -234q-60 0 -115 38l-36 24q-54 38 -105 38q-93 0 -119 -100h-62z" />
    <glyph glyph-name="odieresis" unicode="&#xf6;" horiz-adv-x="1234" 
d="M610 -25q-235 0 -373 153.5t-138 414.5q0 263 139 415t379 152t379 -152t139 -413q0 -267 -139.5 -418.5t-385.5 -151.5zM613 37q137 0 225 143t88 365q0 215 -88.5 359.5t-220.5 144.5t-220 -144.5t-88 -361.5q0 -216 87 -361t217 -145zM333 1283v173h173v-173h-173z
M728 1283v173h173v-173h-173z" />
    <glyph glyph-name="divide" unicode="&#xf7;" 
d="M715 99v197h198v-197h-198zM222 543v99h1184v-99h-1184zM715 888v198h198v-198h-198z" />
    <glyph glyph-name="oslash" unicode="&#xf8;" horiz-adv-x="1234" 
d="M285 78l-90 -103h-96l132 155q-132 177 -132 413q0 258 137.5 412.5t367.5 154.5q178 0 337 -112l92 112h102l-140 -166q140 -162 140 -401q0 -261 -138 -414.5t-372 -153.5q-201 0 -340 103zM358 281l489 601q-84 167 -228 167q-131 0 -220.5 -147.5t-89.5 -363.5
q0 -132 49 -257zM396 200q85 -163 217 -163t222.5 144t90.5 354q0 146 -50 267z" />
    <glyph glyph-name="ugrave" unicode="&#xf9;" horiz-adv-x="1295" 
d="M876 0v204q-150 -229 -391 -229q-140 0 -220 92.5t-80 253.5v506l-6 98q-4 57 -19.5 73t-73.5 20l-67 5l-19 1v62h382v-734q0 -250 178 -250q163 0 316 168v557l-6 98q-4 58 -19.5 73.5t-73.5 19.5l-68 5l-18 1v62h382v-827l7 -99q3 -57 19 -72.5t73 -19.5l68 -5l19 -1
v-62h-383zM784 1283h-93l-407 321h259z" />
    <glyph glyph-name="uacute" unicode="&#xfa;" horiz-adv-x="1295" 
d="M876 0v204q-150 -229 -391 -229q-140 0 -220 92.5t-80 253.5v506l-6 98q-4 57 -19.5 73t-73.5 20l-67 5l-19 1v62h382v-734q0 -250 178 -250q163 0 316 168v557l-6 98q-4 58 -19.5 73.5t-73.5 19.5l-68 5l-18 1v62h382v-827l7 -99q3 -57 19 -72.5t73 -19.5l68 -5l19 -1
v-62h-383zM465 1283l241 321h259l-407 -321h-93z" />
    <glyph glyph-name="ucircumflex" unicode="&#xfb;" horiz-adv-x="1295" 
d="M876 0v204q-150 -229 -391 -229q-140 0 -220 92.5t-80 253.5v506l-6 98q-4 57 -19.5 73t-73.5 20l-67 5l-19 1v62h382v-734q0 -250 178 -250q163 0 316 168v557l-6 98q-4 58 -19.5 73.5t-73.5 19.5l-68 5l-18 1v62h382v-827l7 -99q3 -57 19 -72.5t73 -19.5l68 -5l19 -1
v-62h-383zM259 1283l241 321h222l240 -321h-86l-265 222l-266 -222h-86z" />
    <glyph glyph-name="udieresis" unicode="&#xfc;" horiz-adv-x="1295" 
d="M876 0v204q-150 -229 -391 -229q-140 0 -220 92.5t-80 253.5v506l-6 98q-4 57 -19.5 73t-73.5 20l-67 5l-19 1v62h382v-734q0 -250 178 -250q163 0 316 168v557l-6 98q-4 58 -19.5 73.5t-73.5 19.5l-68 5l-18 1v62h382v-827l7 -99q3 -57 19 -72.5t73 -19.5l68 -5l19 -1
v-62h-383zM339 1283v173h173v-173h-173zM734 1283v173h173v-173h-173z" />
    <glyph glyph-name="yacute" unicode="&#xfd;" horiz-adv-x="1129" 
d="M166 -395l356 395l-342 823q-54 132 -80 164.5t-80 35.5l-20 1v62h496v-62h-21l-65 -1q-71 0 -71 -37q0 -13 6 -30l51 -133l243 -583l259 586q57 129 57 157q0 40 -73 40l-48 1h-27v62h322v-62l-19 -1q-62 -4 -106 -113q-8 -19 -38 -86l-551 -1219h-249zM460 1283
l241 321h259l-407 -321h-93z" />
    <glyph glyph-name="thorn" unicode="&#xfe;" horiz-adv-x="1314" 
d="M419 123v-259q0 -118 18 -152.5t81 -38.5l68 -5l19 -1v-62h-568v62l19 1l67 5q58 4 73.5 19.5t19.5 73.5l6 98v1456l-6 99q-4 57 -19.5 73t-73.5 19l-67 5l-19 2v61h382v-697q147 228 382 228q184 0 293 -145t109 -390q0 -272 -125 -436t-332 -164q-191 0 -327 148z
M419 201q157 -116 301 -116q273 0 273 436q0 462 -265 462q-178 0 -309 -170v-612z" />
    <glyph glyph-name="ydieresis" unicode="&#xff;" horiz-adv-x="1129" 
d="M166 -395l356 395l-342 823q-54 132 -80 164.5t-80 35.5l-20 1v62h496v-62h-21l-65 -1q-71 0 -71 -37q0 -13 6 -30l51 -133l243 -583l259 586q57 129 57 157q0 40 -73 40l-48 1h-27v62h322v-62l-19 -1q-62 -4 -106 -113q-8 -19 -38 -86l-551 -1219h-249zM355 1283v173
h173v-173h-173zM750 1283v173h173v-173h-173z" />
    <glyph glyph-name="Amacron" unicode="&#x100;" horiz-adv-x="1524" 
d="M374 456l-85 -197l-44 -124q-6 -18 -6 -31q0 -41 77 -41l52 -1h16v-62h-384v62l21 1l48 2q56 3 92 89l46 105l521 1240h70l519 -1247l51 -103q27 -58 46 -70t87 -16l23 -1v-62h-549v62h18l61 1q78 0 78 38q0 60 -41 158l-83 197h-634zM407 537h565l-281 674zM442 1604
v123h642v-123h-642z" />
    <glyph glyph-name="amacron" unicode="&#x101;" horiz-adv-x="1112" 
d="M770 149q-176 -174 -348 -174q-138 0 -230 87.5t-92 219.5q0 360 584 360h41v135q0 257 -195 257q-194 0 -213 -195l-1 -19h-134v199q208 91 384 91q356 0 356 -325v-484q0 -236 101 -236q19 0 53 9l6 -74q-71 -25 -128 -25q-145 0 -184 174zM725 171v409h-46
q-370 0 -370 -270q0 -94 60.5 -156t151.5 -62q87 0 204 79zM237 1283v123h642v-123h-642z" />
    <glyph glyph-name="Abreve" unicode="&#x102;" horiz-adv-x="1524" 
d="M374 456l-85 -197l-44 -124q-6 -18 -6 -31q0 -41 77 -41l52 -1h16v-62h-384v62l21 1l48 2q56 3 92 89l46 105l521 1240h70l519 -1247l51 -103q27 -58 46 -70t87 -16l23 -1v-62h-549v62h18l61 1q78 0 78 38q0 60 -41 158l-83 197h-634zM407 537h565l-281 674zM430 1925h65
q46 -179 268 -179t269 179h64q-19 -147 -109 -234t-224 -87t-224 87t-109 234z" />
    <glyph glyph-name="abreve" unicode="&#x103;" horiz-adv-x="1112" 
d="M770 149q-176 -174 -348 -174q-138 0 -230 87.5t-92 219.5q0 360 584 360h41v135q0 257 -195 257q-194 0 -213 -195l-1 -19h-134v199q208 91 384 91q356 0 356 -325v-484q0 -236 101 -236q19 0 53 9l6 -74q-71 -25 -128 -25q-145 0 -184 174zM725 171v409h-46
q-370 0 -370 -270q0 -94 60.5 -156t151.5 -62q87 0 204 79zM239 1604h65q46 -179 268 -179t269 179h64q-19 -147 -109 -234t-224 -87t-224 87t-109 234z" />
    <glyph glyph-name="Aogonek" unicode="&#x104;" horiz-adv-x="1524" 
d="M374 456l-85 -197l-44 -124q-6 -18 -6 -31q0 -41 77 -41l52 -1h16v-62h-384v62l21 1l48 2q56 3 92 89l46 105l521 1240h70l519 -1247l51 -103q27 -58 46 -70t87 -16l23 -1v-62h-549v62h18l61 1q78 0 78 38q0 60 -41 158l-83 197h-634zM407 537h565l-281 674zM1462 -273
v-68q-68 -29 -147 -29q-222 0 -222 159q0 125 158 211h107q-129 -77 -129 -181q0 -108 133 -108q53 0 100 16z" />
    <glyph glyph-name="aogonek" unicode="&#x105;" horiz-adv-x="1112" 
d="M770 149q-176 -174 -348 -174q-138 0 -230 87.5t-92 219.5q0 360 584 360h41v135q0 257 -195 257q-194 0 -213 -195l-1 -19h-134v199q208 91 384 91q356 0 356 -325v-484q0 -236 101 -236q19 0 53 9l6 -74q-71 -25 -128 -25q-145 0 -184 174zM725 171v409h-46
q-370 0 -370 -270q0 -94 60.5 -156t151.5 -62q87 0 204 79zM1065 -273v-68q-68 -29 -147 -29q-222 0 -222 159q0 125 158 211h107q-129 -77 -129 -181q0 -108 133 -108q53 0 100 16z" />
    <glyph glyph-name="Cacute" unicode="&#x106;" horiz-adv-x="1424" 
d="M1307 79q-201 -116 -469 -116q-340 0 -536.5 209t-196.5 571q0 367 189 570.5t530 203.5q173 0 419 -64l38 -10v-283h-123l-1 20q-2 30 -2 59q0 98 -91 154.5t-248 56.5q-225 0 -359 -192t-134 -513q0 -322 157 -502.5t437 -180.5q183 0 390 113v-96zM641 1604l241 321
h259l-407 -321h-93z" />
    <glyph glyph-name="cacute" unicode="&#x107;" horiz-adv-x="1042" 
d="M938 37q-156 -62 -305 -62q-238 0 -386 159t-148 414q0 254 142 408t376 154q125 0 321 -49v-259h-123l-1 18q0 224 -195 224q-145 0 -229.5 -130t-84.5 -352q0 -227 100 -358t272 -131q148 0 261 50v-86zM444 1283l241 321h259l-407 -321h-93z" />
    <glyph glyph-name="Ccircumflex" unicode="&#x108;" horiz-adv-x="1424" 
d="M1307 79q-201 -116 -469 -116q-340 0 -536.5 209t-196.5 571q0 367 189 570.5t530 203.5q173 0 419 -64l38 -10v-283h-123l-1 20q-2 30 -2 59q0 98 -91 154.5t-248 56.5q-225 0 -359 -192t-134 -513q0 -322 157 -502.5t437 -180.5q183 0 390 113v-96zM468 1604l241 321
h222l240 -321h-86l-265 222l-266 -222h-86z" />
    <glyph glyph-name="ccircumflex" unicode="&#x109;" horiz-adv-x="1042" 
d="M938 37q-156 -62 -305 -62q-238 0 -386 159t-148 414q0 254 142 408t376 154q125 0 321 -49v-259h-123l-1 18q0 224 -195 224q-145 0 -229.5 -130t-84.5 -352q0 -227 100 -358t272 -131q148 0 261 50v-86zM272 1283l241 321h222l240 -321h-86l-265 222l-266 -222h-86z
" />
    <glyph glyph-name="Cdot" unicode="&#x10a;" horiz-adv-x="1424" 
d="M1307 79q-201 -116 -469 -116q-340 0 -536.5 209t-196.5 571q0 367 189 570.5t530 203.5q173 0 419 -64l38 -10v-283h-123l-1 20q-2 30 -2 59q0 98 -91 154.5t-248 56.5q-225 0 -359 -192t-134 -513q0 -322 157 -502.5t437 -180.5q183 0 390 113v-96zM721 1604v197h197
v-197h-197z" />
    <glyph glyph-name="cdot" unicode="&#x10b;" horiz-adv-x="1042" 
d="M938 37q-156 -62 -305 -62q-238 0 -386 159t-148 414q0 254 142 408t376 154q125 0 321 -49v-259h-123l-1 18q0 224 -195 224q-145 0 -229.5 -130t-84.5 -352q0 -227 100 -358t272 -131q148 0 261 50v-86zM525 1283v197h197v-197h-197z" />
    <glyph glyph-name="Ccaron" unicode="&#x10c;" horiz-adv-x="1424" 
d="M1307 79q-201 -116 -469 -116q-340 0 -536.5 209t-196.5 571q0 367 189 570.5t530 203.5q173 0 419 -64l38 -10v-283h-123l-1 20q-2 30 -2 59q0 98 -91 154.5t-248 56.5q-225 0 -359 -192t-134 -513q0 -322 157 -502.5t437 -180.5q183 0 390 113v-96zM1171 1925
l-240 -321h-222l-241 321h86l266 -222l265 222h86z" />
    <glyph glyph-name="ccaron" unicode="&#x10d;" horiz-adv-x="1042" 
d="M938 37q-156 -62 -305 -62q-238 0 -386 159t-148 414q0 254 142 408t376 154q125 0 321 -49v-259h-123l-1 18q0 224 -195 224q-145 0 -229.5 -130t-84.5 -352q0 -227 100 -358t272 -131q148 0 261 50v-86zM975 1604l-240 -321h-222l-241 321h86l266 -222l265 222h86z" />
    <glyph glyph-name="Dcaron" unicode="&#x10e;" horiz-adv-x="1573" 
d="M43 0v62l19 1l67 5q58 4 73.5 19.5t19.5 72.5l6 99v962l-6 99q-4 57 -19.5 73t-73.5 20l-67 4l-19 2v61h474l83 1l72 3l72 1q348 0 533.5 -184t185.5 -529q0 -358 -191 -565t-520 -207h-709zM438 1413v-1154l4 -78q0 -64 50.5 -88.5t182.5 -24.5q566 0 566 673
q0 356 -151.5 514t-493.5 158h-158zM1073 1925l-240 -321h-222l-241 321h86l266 -222l265 222h86z" />
    <glyph glyph-name="dcaron" unicode="&#x10f;" horiz-adv-x="1462" 
d="M894 0v204q-145 -229 -381 -229q-184 0 -293 145.5t-109 390.5q0 272 125 435.5t332 163.5q190 0 326 -148v358q0 118 -17.5 152.5t-80.5 38.5l-68 5l-19 1v62h383v-1320q0 -118 17.5 -152.5t81.5 -38.5l67 -5l19 -1v-62h-383zM894 885q-154 115 -300 115
q-274 0 -274 -435q0 -462 266 -462q82 0 170 48.5t138 121.5v612zM1344 1382h-79v197h197v-171q0 -270 -197 -283v49q79 7 79 156v52z" />
    <glyph glyph-name="Dmacron" unicode="&#x110;" horiz-adv-x="1573" 
d="M43 0v62l18 1l68 5q63 4 81 38.5t18 152.5v457h-185v67h185v438q0 118 -18 152.5t-81 39.5l-68 4l-18 2v61h474l83 1l72 3l72 1q348 0 533.5 -184t185.5 -529q0 -358 -191 -565t-520 -207h-709zM438 1413v-630h345v-67h-345v-457l4 -78q0 -64 50.5 -88.5t182.5 -24.5
q566 0 566 672q0 357 -151.5 515t-493.5 158h-158z" />
    <glyph glyph-name="dmacron" unicode="&#x111;" horiz-adv-x="1314" 
d="M894 0v204q-145 -229 -381 -229q-182 0 -292 144.5t-110 384.5q0 260 126.5 421t330.5 161q190 0 326 -148v308h-357v62h357v12q0 118 -17.5 152.5t-80.5 38.5l-68 5l-19 1v62h383v-271h185v-62h-185v-987q0 -118 17.5 -152.5t81.5 -38.5l67 -5l19 -1v-62h-383zM894 860
q-154 116 -300 116q-273 0 -273 -415q0 -458 265 -458q178 0 308 170v587z" />
    <glyph glyph-name="Emacron" unicode="&#x112;" horiz-adv-x="1160" 
d="M1110 0h-1067v62l19 1l67 5q58 4 73.5 19.5t19.5 72.5l6 99v962l-6 99q-4 57 -19.5 73t-73.5 20l-67 4l-19 2v61h1012v-259h-111l-2 19l-5 84q0 48 -12.5 61.5t-60.5 13.5l-103 1h-323v-592l271 1l63 2q44 0 55.5 9.5t13.5 46.5q1 15 3 46l1 18h80v-326h-80l-1 18
q-5 76 -23.5 90.5t-111.5 14.5h-271v-469q0 -116 27.5 -144.5t142.5 -28.5h158l141 6q83 0 88 70l3 91l1 18h111v-271zM327 1604v123h642v-123h-642z" />
    <glyph glyph-name="emacron" unicode="&#x113;" horiz-adv-x="1085" 
d="M980 49q-188 -74 -343 -74q-239 0 -388.5 161t-149.5 418q0 245 134 400.5t344 155.5q195 0 299 -131t104 -374v-19h-663q0 -511 351 -511q183 0 312 75v-101zM321 648h450l1 44q0 357 -208 357q-112 0 -177.5 -109t-65.5 -292zM259 1283v123h642v-123h-642z" />
    <glyph glyph-name="Ebreve" unicode="&#x114;" horiz-adv-x="1160" 
d="M1110 0h-1067v62l19 1l67 5q58 4 73.5 19.5t19.5 72.5l6 99v962l-6 99q-4 57 -19.5 73t-73.5 20l-67 4l-19 2v61h1012v-259h-111l-2 19l-5 84q0 48 -12.5 61.5t-60.5 13.5l-103 1h-323v-592l271 1l63 2q44 0 55.5 9.5t13.5 46.5q1 15 3 46l1 18h80v-326h-80l-1 18
q-5 76 -23.5 90.5t-111.5 14.5h-271v-469q0 -116 27.5 -144.5t142.5 -28.5h158l141 6q83 0 88 70l3 91l1 18h111v-271zM265 1925h65q46 -179 268 -179t269 179h64q-19 -147 -109 -234t-224 -87t-224 87t-109 234z" />
    <glyph glyph-name="ebreve" unicode="&#x115;" horiz-adv-x="1085" 
d="M980 49q-188 -74 -343 -74q-239 0 -388.5 161t-149.5 418q0 245 134 400.5t344 155.5q195 0 299 -131t104 -374v-19h-663q0 -511 351 -511q183 0 312 75v-101zM321 648h450l1 44q0 357 -208 357q-112 0 -177.5 -109t-65.5 -292zM247 1604h65q46 -179 268 -179t269 179h64
q-19 -147 -109 -234t-224 -87t-224 87t-109 234z" />
    <glyph glyph-name="Edot" unicode="&#x116;" horiz-adv-x="1160" 
d="M1110 0h-1067v62l19 1l67 5q58 4 73.5 19.5t19.5 72.5l6 99v962l-6 99q-4 57 -19.5 73t-73.5 20l-67 4l-19 2v61h1012v-259h-111l-2 19l-5 84q0 48 -12.5 61.5t-60.5 13.5l-103 1h-323v-592l271 1l63 2q44 0 55.5 9.5t13.5 46.5q1 15 3 46l1 18h80v-326h-80l-1 18
q-5 76 -23.5 90.5t-111.5 14.5h-271v-469q0 -116 27.5 -144.5t142.5 -28.5h158l141 6q83 0 88 70l3 91l1 18h111v-271zM537 1604v197h197v-197h-197z" />
    <glyph glyph-name="edot" unicode="&#x117;" horiz-adv-x="1085" 
d="M980 49q-188 -74 -343 -74q-239 0 -388.5 161t-149.5 418q0 245 134 400.5t344 155.5q195 0 299 -131t104 -374v-19h-663q0 -511 351 -511q183 0 312 75v-101zM321 648h450l1 44q0 357 -208 357q-112 0 -177.5 -109t-65.5 -292zM469 1283v197h197v-197h-197z" />
    <glyph glyph-name="Eogonek" unicode="&#x118;" horiz-adv-x="1160" 
d="M1110 0h-1067v62l19 1l67 5q58 4 73.5 19.5t19.5 72.5l6 99v962l-6 99q-4 57 -19.5 73t-73.5 20l-67 4l-19 2v61h1012v-259h-111l-2 19l-5 84q0 48 -12.5 61.5t-60.5 13.5l-103 1h-323v-592l271 1l63 2q44 0 55.5 9.5t13.5 46.5q1 15 3 46l1 18h80v-326h-80l-1 18
q-5 76 -23.5 90.5t-111.5 14.5h-271v-469q0 -116 27.5 -144.5t142.5 -28.5h158l141 6q83 0 88 70l3 91l1 18h111v-271zM1048 -273v-68q-68 -29 -147 -29q-222 0 -222 159q0 125 158 211h107q-129 -77 -129 -181q0 -108 133 -108q53 0 100 16z" />
    <glyph glyph-name="eogonek" unicode="&#x119;" horiz-adv-x="1085" 
d="M980 49q-188 -74 -343 -74q-239 0 -388.5 161t-149.5 418q0 245 134 400.5t344 155.5q195 0 299 -131t104 -374v-19h-663q0 -511 351 -511q183 0 312 75v-101zM321 648h450l1 44q0 357 -208 357q-112 0 -177.5 -109t-65.5 -292zM892 -273v-68q-68 -29 -147 -29
q-222 0 -222 159q0 125 158 211h107q-129 -77 -129 -181q0 -108 133 -108q53 0 100 16z" />
    <glyph glyph-name="Ecaron" unicode="&#x11a;" horiz-adv-x="1160" 
d="M1110 0h-1067v62l19 1l67 5q58 4 73.5 19.5t19.5 72.5l6 99v962l-6 99q-4 57 -19.5 73t-73.5 20l-67 4l-19 2v61h1012v-259h-111l-2 19l-5 84q0 48 -12.5 61.5t-60.5 13.5l-103 1h-323v-592l271 1l63 2q44 0 55.5 9.5t13.5 46.5q1 15 3 46l1 18h80v-326h-80l-1 18
q-5 76 -23.5 90.5t-111.5 14.5h-271v-469q0 -116 27.5 -144.5t142.5 -28.5h158l141 6q83 0 88 70l3 91l1 18h111v-271zM950 1925l-240 -321h-222l-241 321h86l266 -222l265 222h86z" />
    <glyph glyph-name="ecaron" unicode="&#x11b;" horiz-adv-x="1085" 
d="M980 49q-188 -74 -343 -74q-239 0 -388.5 161t-149.5 418q0 245 134 400.5t344 155.5q195 0 299 -131t104 -374v-19h-663q0 -511 351 -511q183 0 312 75v-101zM321 648h450l1 44q0 357 -208 357q-112 0 -177.5 -109t-65.5 -292zM919 1604l-240 -321h-222l-241 321h86
l266 -222l265 222h86z" />
    <glyph glyph-name="Gcircumflex" unicode="&#x11c;" horiz-adv-x="1499" 
d="M1305 36q-285 -73 -481 -73q-329 0 -524 211.5t-195 568.5q0 369 189.5 571.5t534.5 202.5q247 0 473 -76v-269h-111l-1 20q-2 27 -2 57q0 94 -92 147.5t-256 53.5q-247 0 -379.5 -187t-132.5 -536q0 -317 149.5 -498.5t410.5 -181.5q81 0 208 33v291q0 118 -18 152.5
t-81 39.5l-68 5l-18 1v61h579v-61l-18 -1l-68 -5q-63 -5 -81 -39.5t-18 -152.5v-335zM489 1604l241 321h222l240 -321h-86l-265 222l-266 -222h-86z" />
    <glyph glyph-name="gcircumflex" unicode="&#x11d;" horiz-adv-x="1169" 
d="M283 42q-113 52 -113 142q0 102 190 197q-221 98 -221 347q0 174 111.5 278t298.5 104q113 0 206 -42l381 30l-50 -120l-261 42q128 -123 128 -290t-112.5 -276t-286.5 -109q-66 0 -140 21q-71 -55 -71 -122q0 -71 125 -71h173q250 0 343.5 -53t93.5 -195
q0 -155 -142 -249.5t-374 -94.5q-225 0 -361 63.5t-136 168.5q0 135 218 229zM336 740q0 -333 211 -333q209 0 209 326q0 316 -208 316q-212 0 -212 -309zM335 25q-74 -72 -74 -179q0 -206 306 -206q146 0 232.5 64t86.5 173q0 148 -209 148h-342zM190 1283l241 321h222
l240 -321h-86l-265 222l-266 -222h-86z" />
    <glyph glyph-name="Gbreve" unicode="&#x11e;" horiz-adv-x="1499" 
d="M1305 36q-285 -73 -481 -73q-329 0 -524 211.5t-195 568.5q0 369 189.5 571.5t534.5 202.5q247 0 473 -76v-269h-111l-1 20q-2 27 -2 57q0 94 -92 147.5t-256 53.5q-247 0 -379.5 -187t-132.5 -536q0 -317 149.5 -498.5t410.5 -181.5q81 0 208 33v291q0 118 -18 152.5
t-81 39.5l-68 5l-18 1v61h579v-61l-18 -1l-68 -5q-63 -5 -81 -39.5t-18 -152.5v-335zM508 1925h65q46 -179 268 -179t269 179h64q-19 -147 -109 -234t-224 -87t-224 87t-109 234z" />
    <glyph glyph-name="gbreve" unicode="&#x11f;" horiz-adv-x="1169" 
d="M283 42q-113 52 -113 142q0 102 190 197q-221 98 -221 347q0 174 111.5 278t298.5 104q113 0 206 -42l381 30l-50 -120l-261 42q128 -123 128 -290t-112.5 -276t-286.5 -109q-66 0 -140 21q-71 -55 -71 -122q0 -71 125 -71h173q250 0 343.5 -53t93.5 -195
q0 -155 -142 -249.5t-374 -94.5q-225 0 -361 63.5t-136 168.5q0 135 218 229zM336 740q0 -333 211 -333q209 0 209 326q0 316 -208 316q-212 0 -212 -309zM335 25q-74 -72 -74 -179q0 -206 306 -206q146 0 232.5 64t86.5 173q0 148 -209 148h-342zM209 1604h65
q46 -179 268 -179t269 179h64q-19 -147 -109 -234t-224 -87t-224 87t-109 234z" />
    <glyph glyph-name="Gdot" unicode="&#x120;" horiz-adv-x="1499" 
d="M1305 36q-285 -73 -481 -73q-329 0 -524 211.5t-195 568.5q0 369 189.5 571.5t534.5 202.5q247 0 473 -76v-269h-111l-1 20q-2 27 -2 57q0 94 -92 147.5t-256 53.5q-247 0 -379.5 -187t-132.5 -536q0 -317 149.5 -498.5t410.5 -181.5q81 0 208 33v291q0 118 -18 152.5
t-81 39.5l-68 5l-18 1v61h579v-61l-18 -1l-68 -5q-63 -5 -81 -39.5t-18 -152.5v-335zM742 1604v197h197v-197h-197z" />
    <glyph glyph-name="gdot" unicode="&#x121;" horiz-adv-x="1169" 
d="M283 42q-113 52 -113 142q0 102 190 197q-221 98 -221 347q0 174 111.5 278t298.5 104q113 0 206 -42l381 30l-50 -120l-261 42q128 -123 128 -290t-112.5 -276t-286.5 -109q-66 0 -140 21q-71 -55 -71 -122q0 -71 125 -71h173q250 0 343.5 -53t93.5 -195
q0 -155 -142 -249.5t-374 -94.5q-225 0 -361 63.5t-136 168.5q0 135 218 229zM336 740q0 -333 211 -333q209 0 209 326q0 316 -208 316q-212 0 -212 -309zM335 25q-74 -72 -74 -179q0 -206 306 -206q146 0 232.5 64t86.5 173q0 148 -209 148h-342zM443 1283v197h197v-197
h-197z" />
    <glyph glyph-name="Gcedilla" unicode="&#x122;" horiz-adv-x="1499" 
d="M1305 36q-285 -73 -481 -73q-329 0 -524 211.5t-195 568.5q0 369 189.5 571.5t534.5 202.5q247 0 473 -76v-269h-111l-1 20q-2 27 -2 57q0 94 -92 147.5t-256 53.5q-247 0 -379.5 -187t-132.5 -536q0 -317 149.5 -498.5t410.5 -181.5q81 0 208 33v291q0 118 -18 152.5
t-81 39.5l-68 5l-18 1v61h579v-61l-18 -1l-68 -5q-63 -5 -81 -39.5t-18 -152.5v-335zM798 -395h-79v198h197v-172q0 -270 -197 -282v49q79 7 79 155v52z" />
    <glyph glyph-name="gcedilla" unicode="&#x123;" horiz-adv-x="1169" 
d="M283 42q-113 52 -113 142q0 102 190 197q-221 98 -221 347q0 174 111.5 278t298.5 104q113 0 206 -42l381 30l-50 -120l-261 42q128 -123 128 -290t-112.5 -276t-286.5 -109q-66 0 -140 21q-71 -55 -71 -122q0 -71 125 -71h173q250 0 343.5 -53t93.5 -195
q0 -155 -142 -249.5t-374 -94.5q-225 0 -361 63.5t-136 168.5q0 135 218 229zM336 740q0 -333 211 -333q209 0 209 326q0 316 -208 316q-212 0 -212 -309zM335 25q-74 -72 -74 -179q0 -206 306 -206q146 0 232.5 64t86.5 173q0 148 -209 148h-342zM562 1480h78v-197h-197
v171q0 270 197 283v-49q-78 -7 -78 -156v-52z" />
    <glyph glyph-name="Hcircumflex" unicode="&#x124;" horiz-adv-x="1580" 
d="M438 726v-467l6 -99q4 -57 19.5 -72.5t72.5 -19.5l68 -5l19 -1v-62h-580v62l19 1l67 5q58 4 73.5 19.5t19.5 72.5l6 99v962l-6 99q-4 57 -19.5 73t-73.5 20l-67 4l-19 2v61h580v-61l-19 -2l-68 -4q-57 -4 -72.5 -20t-19.5 -73l-6 -99v-409h704v409l-6 99q-4 57 -19.5 73
t-73.5 20l-68 4l-18 2v61h580v-61l-19 -2l-68 -4q-57 -4 -73 -20t-19 -73l-6 -99v-962l6 -99q3 -57 19 -72.5t73 -19.5l68 -5l19 -1v-62h-580v62l18 1l68 5q63 4 81 38.5t18 152.5v467h-704zM438 1604l241 321h222l240 -321h-86l-265 222l-266 -222h-86z" />
    <glyph glyph-name="hcircumflex" unicode="&#x125;" horiz-adv-x="1295" 
d="M419 882q150 228 392 228q140 0 219.5 -92t79.5 -253v-506l7 -99q3 -57 19 -72.5t73 -19.5l68 -5l18 -1v-62h-567v62l18 1l68 5q57 4 73 19.5t20 72.5l6 99v475q0 140 -36.5 194.5t-129.5 54.5q-134 0 -328 -167v-557q0 -118 18 -152.5t81 -38.5l68 -5l19 -1v-62h-568v62
l19 1l67 5q58 4 73.5 19.5t19.5 72.5l6 99v1061l-6 99q-4 57 -19.5 72.5t-73.5 19.5l-67 5l-19 1v62h382v-697zM308 1678l241 321h222l240 -321h-86l-265 222l-266 -222h-86z" />
    <glyph glyph-name="Hbar" unicode="&#x126;" horiz-adv-x="1580" 
d="M438 812h704v274h-704v-274zM438 726v-467l6 -99q4 -57 19.5 -72.5t72.5 -19.5l68 -5l19 -1v-62h-580v62l19 1l67 5q58 4 73.5 19.5t19.5 72.5l6 99v827h-185v74h185v61l-6 99q-4 57 -19.5 73t-73.5 20l-67 4l-19 2v61h580v-61l-19 -2l-68 -4q-57 -4 -72.5 -20t-19.5 -73
l-6 -99v-61h704v61l-6 99q-4 57 -19.5 73t-73.5 20l-68 4l-18 2v61h580v-61l-19 -2l-68 -4q-57 -4 -73 -20t-19 -73l-6 -99v-61h185v-74h-185v-827l6 -99q3 -57 19 -72.5t73 -19.5l68 -5l19 -1v-62h-580v62l18 1l68 5q63 4 81 38.5t18 152.5v467h-704z" />
    <glyph glyph-name="hbar" unicode="&#x127;" horiz-adv-x="1295" 
d="M37 1517v62h382v-271h358v-62h-358v-388q150 228 392 228q140 0 219.5 -92t79.5 -254v-481l7 -99q3 -57 19 -72.5t73 -19.5l68 -5l18 -1v-62h-567v62l18 1l68 5q57 4 73 19.5t20 72.5l6 99v450q0 140 -36.5 195t-129.5 55q-134 0 -328 -168v-532q0 -118 18 -152.5
t81 -38.5l68 -5l19 -1v-62h-568v62l19 1l67 5q58 4 73.5 19.5t19.5 72.5l6 99v987h-185v62h185l-1 26l-5 85q-3 57 -19 72.5t-74 19.5l-67 5z" />
    <glyph glyph-name="Itilde" unicode="&#x128;" horiz-adv-x="666" 
d="M623 62v-62h-580v62l19 1l67 5q58 4 73.5 19.5t19.5 72.5l6 99v962l-6 99q-4 57 -19.5 73t-73.5 20l-67 4l-19 2v61h580v-61l-19 -2l-68 -4q-57 -4 -72.5 -20t-19.5 -73l-6 -99v-962l6 -99q4 -57 19.5 -72.5t72.5 -19.5l68 -5zM0 1604q40 235 229 235q61 0 116 -38
l35 -25q54 -37 105 -37q100 0 120 99h61q-39 -234 -229 -234q-60 0 -115 38l-36 24q-54 38 -105 38q-93 0 -119 -100h-62z" />
    <glyph glyph-name="itilde" unicode="&#x129;" horiz-adv-x="629" 
d="M419 1086v-827q0 -118 18 -152.5t81 -38.5l68 -5l19 -1v-62h-568v62l19 1l67 5q58 4 73.5 19.5t19.5 72.5l6 99v568l-6 98q-4 57 -19.5 73t-73.5 20l-67 5l-19 1v62h382zM-25 1283q40 235 229 235q61 0 116 -38l35 -25q54 -37 105 -37q100 0 120 99h61
q-39 -234 -229 -234q-60 0 -115 38l-36 24q-54 38 -105 38q-93 0 -119 -100h-62z" />
    <glyph glyph-name="Imacron" unicode="&#x12a;" horiz-adv-x="666" 
d="M623 62v-62h-580v62l19 1l67 5q58 4 73.5 19.5t19.5 72.5l6 99v962l-6 99q-4 57 -19.5 73t-73.5 20l-67 4l-19 2v61h580v-61l-19 -2l-68 -4q-57 -4 -72.5 -20t-19.5 -73l-6 -99v-962l6 -99q4 -57 19.5 -72.5t72.5 -19.5l68 -5zM12 1604v123h642v-123h-642z" />
    <glyph glyph-name="imacron" unicode="&#x12b;" horiz-adv-x="629" 
d="M419 1086v-827q0 -118 18 -152.5t81 -38.5l68 -5l19 -1v-62h-568v62l19 1l67 5q58 4 73.5 19.5t19.5 72.5l6 99v568l-6 98q-4 57 -19.5 73t-73.5 20l-67 5l-19 1v62h382zM-25 1283v123h642v-123h-642z" />
    <glyph glyph-name="Ibreve" unicode="&#x12c;" horiz-adv-x="666" 
d="M623 62v-62h-580v62l19 1l67 5q58 4 73.5 19.5t19.5 72.5l6 99v962l-6 99q-4 57 -19.5 73t-73.5 20l-67 4l-19 2v61h580v-61l-19 -2l-68 -4q-57 -4 -72.5 -20t-19.5 -73l-6 -99v-962l6 -99q4 -57 19.5 -72.5t72.5 -19.5l68 -5zM0 1925h65q46 -179 268 -179t269 179h64
q-19 -147 -109 -234t-224 -87t-224 87t-109 234z" />
    <glyph glyph-name="ibreve" unicode="&#x12d;" horiz-adv-x="629" 
d="M419 1086v-827q0 -118 18 -152.5t81 -38.5l68 -5l19 -1v-62h-568v62l19 1l67 5q58 4 73.5 19.5t19.5 72.5l6 99v568l-6 98q-4 57 -19.5 73t-73.5 20l-67 5l-19 1v62h382zM-18 1604h65q46 -179 268 -179t269 179h64q-19 -147 -109 -234t-224 -87t-224 87t-109 234z" />
    <glyph glyph-name="Iogonek" unicode="&#x12e;" horiz-adv-x="666" 
d="M623 62v-62h-580v62l19 1l67 5q58 4 73.5 19.5t19.5 72.5l6 99v962l-6 99q-4 57 -19.5 73t-73.5 20l-67 4l-19 2v61h580v-61l-19 -2l-68 -4q-57 -4 -72.5 -20t-19.5 -73l-6 -99v-962l6 -99q4 -57 19.5 -72.5t72.5 -19.5l68 -5zM544 -273v-68q-68 -29 -147 -29
q-222 0 -222 159q0 125 158 211h107q-129 -77 -129 -181q0 -108 133 -108q53 0 100 16z" />
    <glyph glyph-name="iogonek" unicode="&#x12f;" horiz-adv-x="629" 
d="M419 1086v-827q0 -118 18 -152.5t81 -38.5l68 -5l19 -1v-62h-568v62l19 1l67 5q58 4 73.5 19.5t19.5 72.5l6 99v568l-6 98q-4 57 -19.5 73t-73.5 20l-67 5l-19 1v62h382zM222 1283v197h197v-197h-197zM531 -273v-68q-68 -29 -147 -29q-222 0 -222 159q0 125 158 211h107
q-129 -77 -129 -181q0 -108 133 -108q53 0 100 16z" />
    <glyph glyph-name="Idot" unicode="&#x130;" horiz-adv-x="666" 
d="M623 62v-62h-580v62l19 1l67 5q58 4 73.5 19.5t19.5 72.5l6 99v962l-6 99q-4 57 -19.5 73t-73.5 20l-67 4l-19 2v61h580v-61l-19 -2l-68 -4q-57 -4 -72.5 -20t-19.5 -73l-6 -99v-962l6 -99q4 -57 19.5 -72.5t72.5 -19.5l68 -5zM234 1604v197h197v-197h-197z" />
    <glyph glyph-name="dotlessi" unicode="&#x131;" horiz-adv-x="629" 
d="M419 1086v-827q0 -118 18 -152.5t81 -38.5l68 -5l19 -1v-62h-568v62l19 1l67 5q58 4 73.5 19.5t19.5 72.5l6 99v568l-6 98q-4 57 -19.5 73t-73.5 20l-67 5l-19 1v62h382z" />
    <glyph glyph-name="IJ" unicode="&#x132;" horiz-adv-x="1428" 
d="M623 62v-62h-580v62l19 1l67 5q58 4 73.5 19.5t19.5 72.5l6 99v962l-6 99q-4 57 -19.5 73t-73.5 20l-67 4l-19 2v61h580v-61l-19 -2l-68 -4q-57 -4 -72.5 -20t-19.5 -73l-6 -99v-962l6 -99q4 -57 19.5 -72.5t72.5 -19.5l68 -5zM585 -276v230h117l1 -24l4 -47
q8 -104 125 -104q76 0 125 64t49 164l-1 141v1073l-6 99q-4 57 -19.5 73t-72.5 20l-68 4l-19 2v61h580v-61l-19 -2l-67 -4q-58 -4 -73.5 -20t-19.5 -73l-6 -99v-951q0 -310 -104.5 -438t-356.5 -128q-78 0 -169 20z" />
    <glyph glyph-name="ij" unicode="&#x133;" horiz-adv-x="1308" 
d="M419 1086v-827q0 -118 18 -152.5t81 -38.5l68 -5l19 -1v-62h-568v62l19 1l67 5q58 4 73.5 19.5t19.5 72.5l6 99v568l-6 98q-4 57 -19.5 73t-73.5 20l-67 5l-19 1v62h382zM222 1283v197h197v-197h-197zM1110 1086v-1074q0 -431 -363 -431q-98 0 -223 39v244h111l1 -18
q0 -116 27.5 -160t100.5 -44q149 0 149 173v103v909q0 118 -18 152.5t-81 38.5l-68 5l-18 1v62h382zM913 1283v197h197v-197h-197z" />
    <glyph glyph-name="Jcircumflex" unicode="&#x134;" horiz-adv-x="864" 
d="M12 -276v230h117l1 -24l4 -47q8 -104 125 -104q76 0 125 64t49 164l-1 141v1073l-6 99q-4 57 -19.5 73t-72.5 20l-68 4l-19 2v61h580v-61l-19 -2l-67 -4q-58 -4 -73.5 -20t-19.5 -73l-6 -99v-951q0 -310 -104.5 -438t-356.5 -128q-78 0 -169 20zM185 1604l241 321h222
l240 -321h-86l-265 222l-266 -222h-86z" />
    <glyph glyph-name="jcircumflex" unicode="&#x135;" horiz-adv-x="709" 
d="M512 1086v-1074q0 -431 -363 -431q-98 0 -223 39v244h111l1 -18q0 -116 27.5 -160t99.5 -44q150 0 150 173v103v909q0 118 -18 152.5t-81 38.5l-68 5l-18 1v62h382zM12 1283l241 321h222l240 -321h-86l-265 222l-266 -222h-86z" />
    <glyph glyph-name="Kcedilla" unicode="&#x136;" horiz-adv-x="1450" 
d="M438 748v-489l5 -99q0 -62 20.5 -76.5t116.5 -20.5l18 -1v-62h-555v62l19 1l67 5q58 4 73.5 19.5t19.5 72.5l6 99v962l-6 99q-4 57 -19.5 73t-73.5 20l-67 4l-19 2v61h580v-61l-19 -2l-68 -4q-57 -4 -72.5 -20t-19.5 -73l-6 -99v-467l448 467q148 155 148 178
q0 18 -56 18l-90 2h-18v61h456v-61l-17 -2l-61 -1q-50 0 -92 -31.5t-173 -164.5l-378 -385l518 -577l104 -108q55 -57 83 -69.5t119 -17.5l21 -1v-62h-605v62h18q124 0 124 24q0 34 -124 176zM689 -395h-79v198h197v-172q0 -270 -197 -282v49q79 7 79 155v52z" />
    <glyph glyph-name="kcedilla" unicode="&#x137;" horiz-adv-x="1228" 
d="M419 534v-275l6 -99q0 -62 20.5 -76.5t115.5 -20.5l19 -1v-62h-543v62l19 1l67 5q58 4 73.5 19.5t19.5 72.5l6 99v1061l-6 99q-4 57 -19.5 72.5t-73.5 19.5l-67 5l-19 1v62h382v-996h47l252 242l147 152q15 15 15 25q0 19 -36 19l-95 3h-21v62h423v-62l-19 -1
q-106 -7 -135.5 -25.5t-187.5 -174.5l-190 -187l326 -383l108 -118q44 -49 64.5 -58t92.5 -14l19 -1v-62h-305l-458 534h-47zM671 -395h-79v198h197v-172q0 -270 -197 -282v49q79 7 79 155v52z" />
    <glyph glyph-name="kra" unicode="&#x138;" horiz-adv-x="1228" 
d="M419 534v-275l6 -99q0 -62 20.5 -76.5t115.5 -20.5l19 -1v-62h-543v62l19 1l67 5q58 4 73.5 19.5t19.5 72.5l6 99v568l-6 98q-4 58 -19.5 73.5t-73.5 19.5l-67 5l-19 1v62h382v-503h47l252 242q33 32 96 100q30 33 50 52q16 15 16 26q0 18 -36 18q-4 0 -45 2q-29 1 -50 1
h-21v62h423v-62l-19 -1q-106 -7 -135.5 -25.5t-187.5 -174.5l-190 -187l326 -383l108 -118q44 -49 64.5 -58t92.5 -14l19 -1v-62h-305l-458 534h-47z" />
    <glyph glyph-name="Lacute" unicode="&#x139;" horiz-adv-x="1141" 
d="M1104 0h-1061v62l19 1l67 5q58 4 73.5 19.5t19.5 72.5l6 99v962l-6 99q-4 57 -19.5 73t-73.5 20l-67 4l-19 2v61h580v-61l-19 -2l-68 -4q-57 -4 -72.5 -20t-19.5 -73l-6 -99v-962q0 -133 20 -153t152 -20h151q141 0 186 17.5t48 71.5l3 101l1 20h105v-296zM240 1604
l241 321h259l-407 -321h-93z" />
    <glyph glyph-name="lacute" unicode="&#x13a;" horiz-adv-x="642" 
d="M419 1579v-1320q0 -118 18 -152.5t81 -38.5l68 -5l19 -1v-62h-568v62l19 1l67 5q58 4 73.5 19.5t19.5 72.5l6 99v1061l-6 99q-4 57 -19.5 72.5t-73.5 19.5l-67 5l-19 1v62h382zM129 1678l241 321h259l-407 -321h-93z" />
    <glyph glyph-name="Lcedilla" unicode="&#x13b;" horiz-adv-x="1141" 
d="M1104 0h-1061v62l19 1l67 5q58 4 73.5 19.5t19.5 72.5l6 99v962l-6 99q-4 57 -19.5 73t-73.5 20l-67 4l-19 2v61h580v-61l-19 -2l-68 -4q-57 -4 -72.5 -20t-19.5 -73l-6 -99v-962q0 -133 20 -153t152 -20h151q141 0 186 17.5t48 71.5l3 101l1 20h105v-296zM579 -395h-79
v198h197v-172q0 -270 -197 -282v49q79 7 79 155v52z" />
    <glyph glyph-name="lcedilla" unicode="&#x13c;" horiz-adv-x="642" 
d="M419 1579v-1320q0 -118 18 -152.5t81 -38.5l68 -5l19 -1v-62h-568v62l19 1l67 5q58 4 73.5 19.5t19.5 72.5l6 99v1061l-6 99q-4 57 -19.5 72.5t-73.5 19.5l-67 5l-19 1v62h382zM301 -395h-79v198h197v-172q0 -270 -197 -282v49q79 7 79 155v52z" />
    <glyph glyph-name="Lcaron" unicode="&#x13d;" horiz-adv-x="1141" 
d="M1104 0h-1061v62l19 1l67 5q58 4 73.5 19.5t19.5 72.5l6 99v962l-6 99q-4 57 -19.5 73t-73.5 20l-67 4l-19 2v61h580v-61l-19 -2l-68 -4q-57 -4 -72.5 -20t-19.5 -73l-6 -99v-962q0 -133 20 -153t152 -20h151q141 0 186 17.5t48 71.5l3 101l1 20h105v-296zM850 1283h-79
v197h197v-171q0 -270 -197 -283v49q79 7 79 156v52z" />
    <glyph glyph-name="lcaron" unicode="&#x13e;" horiz-adv-x="790" 
d="M419 1579v-1320q0 -118 18 -152.5t81 -38.5l68 -5l19 -1v-62h-568v62l19 1l67 5q58 4 73.5 19.5t19.5 72.5l6 99v1061l-6 99q-4 57 -19.5 72.5t-73.5 19.5l-67 5l-19 1v62h382zM672 1382h-79v197h197v-171q0 -270 -197 -283v49q79 7 79 156v52z" />
    <glyph glyph-name="Ldot" unicode="&#x13f;" horiz-adv-x="1141" 
d="M1104 0h-1061v62l19 1l67 5q58 4 73.5 19.5t19.5 72.5l6 99v962l-6 99q-4 57 -19.5 73t-73.5 20l-67 4l-19 2v61h580v-61l-19 -2l-68 -4q-57 -4 -72.5 -20t-19.5 -73l-6 -99v-962q0 -133 20 -153t152 -20h151q141 0 186 17.5t48 71.5l3 101l1 20h105v-296zM808 642v197
h197v-197h-197z" />
    <glyph glyph-name="ldot" unicode="&#x140;" horiz-adv-x="839" 
d="M419 1579v-1320q0 -118 18 -152.5t81 -38.5l68 -5l19 -1v-62h-568v62l19 1l67 5q58 4 73.5 19.5t19.5 72.5l6 99v1061l-6 99q-4 57 -19.5 72.5t-73.5 19.5l-67 5l-19 1v62h382zM642 691v197h197v-197h-197z" />
    <glyph glyph-name="Lslash" unicode="&#x141;" horiz-adv-x="1141" 
d="M43 0v62l18 1l68 5q63 4 81 38.5t18 152.5v489l-185 -107v85l185 107v388q0 118 -18 152.5t-81 39.5l-68 4l-18 2v61h580v-61l-19 -2l-68 -4q-63 -5 -81 -39.5t-18 -152.5v-267l272 156v-85l-272 -156v-610q0 -132 20 -152.5t152 -20.5h151q142 0 187 17t48 72l3 88l1 21
h105v-284h-1061z" />
    <glyph glyph-name="lslash" unicode="&#x142;" horiz-adv-x="691" 
d="M450 1579v-597l223 128v-85l-223 -128v-638q0 -118 18 -152.5t81 -38.5l68 -5l19 -1v-62h-568v62l19 1l67 5q58 4 73.5 19.5t19.5 72.5l6 99v524l-222 -128v85l222 128v452l-6 99q-4 57 -19.5 72.5t-73.5 19.5l-67 5l-19 1v62h382z" />
    <glyph glyph-name="Nacute" unicode="&#x143;" horiz-adv-x="1539" 
d="M1240 -20l-918 1240v-961q0 -118 18 -152.5t81 -38.5l68 -5l18 -1v-62h-463v62l18 1l68 5q63 4 81 38.5t18 152.5v962q0 119 -18 153t-81 39l-68 4l-19 2v61h333l844 -1149v890l-6 99q-4 57 -20 73t-73 20l-68 4l-18 2v61h461v-61l-19 -2l-68 -4q-57 -4 -73 -20t-19 -73
l-6 -99v-1241h-71zM635 1604l241 321h259l-407 -321h-93z" />
    <glyph glyph-name="nacute" unicode="&#x144;" horiz-adv-x="1295" 
d="M419 882q150 228 392 228q140 0 219.5 -92t79.5 -253v-506l7 -99q3 -57 19 -72.5t73 -19.5l68 -5l18 -1v-62h-567v62l18 1l68 5q57 4 73 19.5t20 72.5l6 99v475q0 140 -36.5 194.5t-129.5 54.5q-134 0 -328 -167v-557q0 -118 18 -152.5t81 -38.5l68 -5l19 -1v-62h-568v62
l19 1l67 5q58 4 73.5 19.5t19.5 72.5l6 99v568l-6 98q-4 57 -19.5 73t-73.5 20l-67 5l-19 1v62h382v-204zM432 1283l241 321h259l-407 -321h-93z" />
    <glyph glyph-name="Ncedilla" unicode="&#x145;" horiz-adv-x="1539" 
d="M1240 -20l-918 1240v-961q0 -118 18 -152.5t81 -38.5l68 -5l18 -1v-62h-463v62l18 1l68 5q63 4 81 38.5t18 152.5v962q0 119 -18 153t-81 39l-68 4l-19 2v61h333l844 -1149v890l-6 99q-4 57 -20 73t-73 20l-68 4l-18 2v61h461v-61l-19 -2l-68 -4q-57 -4 -73 -20t-19 -73
l-6 -99v-1241h-71zM747 -395h-79v198h197v-172q0 -270 -197 -282v49q79 7 79 155v52z" />
    <glyph glyph-name="ncedilla" unicode="&#x146;" horiz-adv-x="1295" 
d="M419 882q150 228 392 228q140 0 219.5 -92t79.5 -253v-506l7 -99q3 -57 19 -72.5t73 -19.5l68 -5l18 -1v-62h-567v62l18 1l68 5q57 4 73 19.5t20 72.5l6 99v475q0 140 -36.5 194.5t-129.5 54.5q-134 0 -328 -167v-557q0 -118 18 -152.5t81 -38.5l68 -5l19 -1v-62h-568v62
l19 1l67 5q58 4 73.5 19.5t19.5 72.5l6 99v568l-6 98q-4 57 -19.5 73t-73.5 20l-67 5l-19 1v62h382v-204zM646 -395h-79v198h197v-172q0 -270 -197 -282v49q79 7 79 155v52z" />
    <glyph glyph-name="Ncaron" unicode="&#x147;" horiz-adv-x="1539" 
d="M1240 -20l-918 1240v-961q0 -118 18 -152.5t81 -38.5l68 -5l18 -1v-62h-463v62l18 1l68 5q63 4 81 38.5t18 152.5v962q0 119 -18 153t-81 39l-68 4l-19 2v61h333l844 -1149v890l-6 99q-4 57 -20 73t-73 20l-68 4l-18 2v61h461v-61l-19 -2l-68 -4q-57 -4 -73 -20t-19 -73
l-6 -99v-1241h-71zM1122 1925l-240 -321h-222l-241 321h86l266 -222l265 222h86z" />
    <glyph glyph-name="ncaron" unicode="&#x148;" horiz-adv-x="1295" 
d="M419 882q150 228 392 228q140 0 219.5 -92t79.5 -253v-506l7 -99q3 -57 19 -72.5t73 -19.5l68 -5l18 -1v-62h-567v62l18 1l68 5q57 4 73 19.5t20 72.5l6 99v475q0 140 -36.5 194.5t-129.5 54.5q-134 0 -328 -167v-557q0 -118 18 -152.5t81 -38.5l68 -5l19 -1v-62h-568v62
l19 1l67 5q58 4 73.5 19.5t19.5 72.5l6 99v568l-6 98q-4 57 -19.5 73t-73.5 20l-67 5l-19 1v62h382v-204zM999 1604l-240 -321h-222l-241 321h86l266 -222l265 222h86z" />
    <glyph glyph-name="napostrophe" unicode="&#x149;" horiz-adv-x="1505" 
d="M628 882q150 228 392 228q140 0 219.5 -92t79.5 -253v-506l7 -99q3 -57 19 -72.5t73 -19.5l68 -5l18 -1v-62h-567v62l18 1l68 5q57 4 73 19.5t20 72.5l6 99v475q0 140 -36.5 194.5t-129.5 54.5q-134 0 -328 -167v-557q0 -118 18 -152.5t81 -38.5l68 -5l19 -1v-62h-568v62
l19 1l67 5q58 4 73.5 19.5t19.5 72.5l6 99v568l-6 98q-4 57 -19.5 73t-73.5 20l-67 5l-19 1v62h382v-204zM128 1382h-79v197h197v-171q0 -270 -197 -283v49q79 7 79 156v52z" />
    <glyph glyph-name="Eng" unicode="&#x14a;" horiz-adv-x="1539" 
d="M1224 1l-902 1219v-961q0 -118 18 -152.5t81 -38.5l68 -5l18 -1v-62h-463v62l18 1l68 5q63 4 81 38.5t18 152.5v962q0 119 -18 153t-81 39l-68 4l-19 2v61h333l844 -1149v890l-6 99q-4 57 -20 73t-73 20l-68 4l-18 2v61h461v-61l-19 -2l-68 -4q-57 -4 -73 -20t-19 -73
l-6 -99v-1221q0 -232 -66 -325.5t-229 -93.5q-88 0 -208 26v244h106l1 -21q3 -57 3 -68q0 -107 126 -107q180 0 180 288v58z" />
    <glyph glyph-name="eng" unicode="&#x14b;" horiz-adv-x="1295" 
d="M37 1086h382v-204q150 228 392 228q140 0 219.5 -92t79.5 -253v-753q0 -431 -363 -431q-98 0 -223 39v244h111l1 -18q0 -116 27.5 -160t100.5 -44q149 0 149 173v103v816q0 140 -36.5 194.5t-129.5 54.5q-134 0 -328 -167v-557q0 -118 18 -152.5t81 -38.5l68 -5l19 -1
v-62h-568v62l19 1l67 5q58 4 73.5 19.5t19.5 72.5l6 99v568l-6 98q-4 57 -19.5 73t-73.5 20l-67 5l-19 1v62z" />
    <glyph glyph-name="Omacron" unicode="&#x14c;" horiz-adv-x="1591" 
d="M786 -37q-313 0 -497 210t-184 567q0 361 185 569t506 208q320 0 505.5 -207.5t185.5 -566.5q0 -366 -186 -573t-515 -207zM789 31q226 0 351 187t125 526q0 330 -125 518t-344 188q-220 0 -344.5 -188.5t-124.5 -520.5q0 -331 123.5 -520.5t338.5 -189.5zM475 1604v123
h642v-123h-642z" />
    <glyph glyph-name="omacron" unicode="&#x14d;" horiz-adv-x="1234" 
d="M610 -25q-235 0 -373 153.5t-138 414.5q0 263 139 415t379 152t379 -152t139 -413q0 -267 -139.5 -418.5t-385.5 -151.5zM613 37q137 0 225 143t88 365q0 215 -88.5 359.5t-220.5 144.5t-220 -144.5t-88 -361.5q0 -216 87 -361t217 -145zM296 1283v123h642v-123h-642z
" />
    <glyph glyph-name="Obreve" unicode="&#x14e;" horiz-adv-x="1591" 
d="M786 -37q-313 0 -497 210t-184 567q0 361 185 569t506 208q320 0 505.5 -207.5t185.5 -566.5q0 -366 -186 -573t-515 -207zM789 31q226 0 351 187t125 526q0 330 -125 518t-344 188q-220 0 -344.5 -188.5t-124.5 -520.5q0 -331 123.5 -520.5t338.5 -189.5zM463 1925h65
q46 -179 268 -179t269 179h64q-19 -147 -109 -234t-224 -87t-224 87t-109 234z" />
    <glyph glyph-name="obreve" unicode="&#x14f;" horiz-adv-x="1234" 
d="M610 -25q-235 0 -373 153.5t-138 414.5q0 263 139 415t379 152t379 -152t139 -413q0 -267 -139.5 -418.5t-385.5 -151.5zM613 37q137 0 225 143t88 365q0 215 -88.5 359.5t-220.5 144.5t-220 -144.5t-88 -361.5q0 -216 87 -361t217 -145zM284 1604h65q46 -179 268 -179
t269 179h64q-19 -147 -109 -234t-224 -87t-224 87t-109 234z" />
    <glyph glyph-name="Odblacute" unicode="&#x150;" horiz-adv-x="1591" 
d="M786 -37q-313 0 -497 210t-184 567q0 361 185 569t506 208q320 0 505.5 -207.5t185.5 -566.5q0 -366 -186 -573t-515 -207zM789 31q226 0 351 187t125 526q0 330 -125 518t-344 188q-220 0 -344.5 -188.5t-124.5 -520.5q0 -331 123.5 -520.5t338.5 -189.5zM557 1604
l214 321h169l-321 -321h-62zM866 1604l214 321h168l-321 -321h-61z" />
    <glyph glyph-name="odblacute" unicode="&#x151;" horiz-adv-x="1234" 
d="M610 -25q-235 0 -373 153.5t-138 414.5q0 263 139 415t379 152t379 -152t139 -413q0 -267 -139.5 -418.5t-385.5 -151.5zM613 37q137 0 225 143t88 365q0 215 -88.5 359.5t-220.5 144.5t-220 -144.5t-88 -361.5q0 -216 87 -361t217 -145zM378 1283l214 321h169l-321 -321
h-62zM687 1283l214 321h168l-321 -321h-61z" />
    <glyph glyph-name="OE" unicode="&#x152;" horiz-adv-x="2076" 
d="M2027 0h-902v64q-149 -101 -342 -101q-310 0 -494 211t-184 567q0 353 182 565t485 212q199 0 357 -110v72h842v-259h-111l-1 19q-5 76 -5 84q0 48 -13 61.5t-60 13.5l-104 1h-323v-592l284 1l63 2q44 0 55.5 9.5t13.5 46.5q0 9 2 46l2 18h92v-326h-92l-2 18
q-5 76 -23 90.5t-111 14.5h-284v-469q0 -116 28 -144.5t143 -28.5h157l141 6q83 0 88 70l3 72l2 19h111v-253zM1129 600v270q0 327 -74.5 453.5t-266.5 126.5q-215 0 -337.5 -189t-122.5 -520q0 -326 122.5 -518.5t329.5 -192.5q184 0 266.5 134.5t82.5 435.5z" />
    <glyph glyph-name="oe" unicode="&#x153;" horiz-adv-x="1860" 
d="M1755 46q-202 -71 -340 -71q-140 0 -233 45t-204 165q-162 -210 -380 -210q-222 0 -360.5 157.5t-138.5 409.5q0 260 138.5 414t372.5 154q240 0 360 -201q153 200 382 200q194 0 298.5 -131t104.5 -375v-18h-663q0 -511 351 -511q181 0 311 72zM310 546q0 -221 89 -366
t224 -145q257 0 257 525q0 487 -254 487q-135 0 -225.5 -143.5t-90.5 -357.5zM1093 648h450l1 44q0 357 -209 357q-111 0 -176.5 -108.5t-65.5 -292.5z" />
    <glyph glyph-name="Racute" unicode="&#x154;" horiz-adv-x="1390" 
d="M436 651v-392l6 -99q0 -62 20 -76.5t116 -20.5l19 -1v-62h-554v62l19 1l67 5q58 4 73.5 19.5t19.5 72.5l6 99v962l-6 99q-4 57 -19.5 73t-73.5 20l-67 4l-19 2v61h356l98 2l82 3l80 2q459 0 459 -374q0 -311 -306 -416l290 -436l93 -129q46 -66 108 -66q14 0 67 -3l20 -1
v-62h-377l-404 651h-173zM438 719h74q392 0 392 371q0 176 -73.5 249.5t-250.5 73.5h-142v-694zM475 1604l241 321h259l-407 -321h-93z" />
    <glyph glyph-name="racute" unicode="&#x155;" horiz-adv-x="901" 
d="M419 790v-531q0 -118 18 -152.5t81 -38.5l68 -5l43 -1v-62h-592v62l19 1l67 5q58 4 73.5 19.5t19.5 72.5l6 99v568l-6 98q-4 57 -19.5 73t-73.5 20l-67 5l-19 1v62h382v-204q135 228 353 228q30 0 67 -11v-297h-111l-2 18l-9 75q-5 53 -54 53q-149 0 -244 -158zM327 1283
l241 321h259l-407 -321h-93z" />
    <glyph glyph-name="Rcedilla" unicode="&#x156;" horiz-adv-x="1390" 
d="M436 651v-392l6 -99q0 -62 20 -76.5t116 -20.5l19 -1v-62h-554v62l19 1l67 5q58 4 73.5 19.5t19.5 72.5l6 99v962l-6 99q-4 57 -19.5 73t-73.5 20l-67 4l-19 2v61h356l98 2l82 3l80 2q459 0 459 -374q0 -311 -306 -416l290 -436l93 -129q46 -66 108 -66q14 0 67 -3l20 -1
v-62h-377l-404 651h-173zM438 719h74q392 0 392 371q0 176 -73.5 249.5t-250.5 73.5h-142v-694zM676 -395h-79v198h197v-172q0 -270 -197 -282v49q79 7 79 155v52z" />
    <glyph glyph-name="rcedilla" unicode="&#x157;" horiz-adv-x="901" 
d="M419 790v-531q0 -118 18 -152.5t81 -38.5l68 -5l43 -1v-62h-592v62l19 1l67 5q58 4 73.5 19.5t19.5 72.5l6 99v568l-6 98q-4 57 -19.5 73t-73.5 20l-67 5l-19 1v62h382v-204q135 228 353 228q30 0 67 -11v-297h-111l-2 18l-9 75q-5 53 -54 53q-149 0 -244 -158zM301 -395
h-79v198h197v-172q0 -270 -197 -282v49q79 7 79 155v52z" />
    <glyph glyph-name="Rcaron" unicode="&#x158;" horiz-adv-x="1390" 
d="M436 651v-392l6 -99q0 -62 20 -76.5t116 -20.5l19 -1v-62h-554v62l19 1l67 5q58 4 73.5 19.5t19.5 72.5l6 99v962l-6 99q-4 57 -19.5 73t-73.5 20l-67 4l-19 2v61h356l98 2l82 3l80 2q459 0 459 -374q0 -311 -306 -416l290 -436l93 -129q46 -66 108 -66q14 0 67 -3l20 -1
v-62h-377l-404 651h-173zM438 719h74q392 0 392 371q0 176 -73.5 249.5t-250.5 73.5h-142v-694zM968 1925l-240 -321h-222l-241 321h86l266 -222l265 222h86z" />
    <glyph glyph-name="rcaron" unicode="&#x159;" horiz-adv-x="901" 
d="M419 790v-531q0 -118 18 -152.5t81 -38.5l68 -5l43 -1v-62h-592v62l19 1l67 5q58 4 73.5 19.5t19.5 72.5l6 99v568l-6 98q-4 57 -19.5 73t-73.5 20l-67 5l-19 1v62h382v-204q135 228 353 228q30 0 67 -11v-297h-111l-2 18l-9 75q-5 53 -54 53q-149 0 -244 -158zM771 1604
l-240 -321h-222l-241 321h86l266 -222l265 222h86z" />
    <glyph glyph-name="Sacute" unicode="&#x15a;" horiz-adv-x="1110" 
d="M119 30v285h105l1 -18q3 -50 3 -75q0 -82 84 -133.5t217 -51.5q281 0 281 285q0 111 -48 177t-187 144l-105 60q-340 192 -340 419q0 171 122.5 283t307.5 112q159 0 374 -63v-263h-111l-1 17q-4 54 -4 79q0 84 -59.5 123.5t-188.5 39.5q-108 0 -173.5 -70.5
t-65.5 -185.5q0 -98 45.5 -162t165.5 -132l105 -60q218 -124 294 -216t76 -232q0 -184 -137 -306.5t-343 -122.5q-242 0 -418 67zM431 1604l241 321h259l-407 -321h-93z" />
    <glyph glyph-name="sacute" unicode="&#x15b;" horiz-adv-x="1032" 
d="M139 56v276h111l2 -19l8 -104q7 -77 80 -124.5t184 -47.5q91 0 148.5 54.5t57.5 140.5q0 136 -175 203l-101 39q-309 119 -309 332q0 132 105.5 218t268.5 86q159 0 329 -61v-259h-111v18l-9 91q-14 150 -196 150q-87 0 -144.5 -55.5t-57.5 -140.5q0 -70 46.5 -112.5
t186.5 -99.5l92 -38q151 -62 210.5 -128.5t59.5 -171.5q0 -144 -115 -236t-297 -92q-199 0 -374 81zM372 1283l241 321h259l-407 -321h-93z" />
    <glyph glyph-name="Scircumflex" unicode="&#x15c;" horiz-adv-x="1110" 
d="M119 30v285h105l1 -18q3 -50 3 -75q0 -82 84 -133.5t217 -51.5q281 0 281 285q0 111 -48 177t-187 144l-105 60q-340 192 -340 419q0 171 122.5 283t307.5 112q159 0 374 -63v-263h-111l-1 17q-4 54 -4 79q0 84 -59.5 123.5t-188.5 39.5q-108 0 -173.5 -70.5
t-65.5 -185.5q0 -98 45.5 -162t165.5 -132l105 -60q218 -124 294 -216t76 -232q0 -184 -137 -306.5t-343 -122.5q-242 0 -418 67zM209 1604l241 321h222l240 -321h-86l-265 222l-266 -222h-86z" />
    <glyph glyph-name="scircumflex" unicode="&#x15d;" horiz-adv-x="1032" 
d="M139 56v276h111l2 -19l8 -104q7 -77 80 -124.5t184 -47.5q91 0 148.5 54.5t57.5 140.5q0 136 -175 203l-101 39q-309 119 -309 332q0 132 105.5 218t268.5 86q159 0 329 -61v-259h-111v18l-9 91q-14 150 -196 150q-87 0 -144.5 -55.5t-57.5 -140.5q0 -70 46.5 -112.5
t186.5 -99.5l92 -38q151 -62 210.5 -128.5t59.5 -171.5q0 -144 -115 -236t-297 -92q-199 0 -374 81zM174 1283l241 321h222l240 -321h-86l-265 222l-266 -222h-86z" />
    <glyph glyph-name="Scedilla" unicode="&#x15e;" horiz-adv-x="1110" 
d="M119 30v285h105l1 -18q3 -50 3 -75q0 -82 84 -133.5t217 -51.5q281 0 281 285q0 111 -48 177t-187 144l-105 60q-340 192 -340 419q0 171 122.5 283t307.5 112q159 0 374 -63v-263h-111l-1 17q-4 54 -4 79q0 84 -59.5 123.5t-188.5 39.5q-108 0 -173.5 -70.5
t-65.5 -185.5q0 -98 45.5 -162t165.5 -132l105 -60q218 -124 294 -216t76 -232q0 -184 -137 -306.5t-343 -122.5q-242 0 -418 67zM382 -411v67q59 -15 98 -15q110 0 110 83q0 101 -187 101l95 175h79l-66 -119q217 -14 217 -146q0 -71 -57.5 -119t-142.5 -48q-72 0 -146 21z
" />
    <glyph glyph-name="scedilla" unicode="&#x15f;" horiz-adv-x="1032" 
d="M139 56v276h111l2 -19l8 -104q7 -77 80 -124.5t184 -47.5q91 0 148.5 54.5t57.5 140.5q0 136 -175 203l-101 39q-309 119 -309 332q0 132 105.5 218t268.5 86q159 0 329 -61v-259h-111v18l-9 91q-14 150 -196 150q-87 0 -144.5 -55.5t-57.5 -140.5q0 -70 46.5 -112.5
t186.5 -99.5l92 -38q151 -62 210.5 -128.5t59.5 -171.5q0 -144 -115 -236t-297 -92q-199 0 -374 81zM361 -411v67q59 -15 98 -15q110 0 110 83q0 101 -187 101l95 175h79l-66 -119q217 -14 217 -146q0 -71 -57.5 -119t-142.5 -48q-72 0 -146 21z" />
    <glyph glyph-name="Scaron" unicode="&#x160;" horiz-adv-x="1110" 
d="M119 30v285h105l1 -18q3 -50 3 -75q0 -82 84 -133.5t217 -51.5q281 0 281 285q0 111 -48 177t-187 144l-105 60q-340 192 -340 419q0 171 122.5 283t307.5 112q159 0 374 -63v-263h-111l-1 17q-4 54 -4 79q0 84 -59.5 123.5t-188.5 39.5q-108 0 -173.5 -70.5
t-65.5 -185.5q0 -98 45.5 -162t165.5 -132l105 -60q218 -124 294 -216t76 -232q0 -184 -137 -306.5t-343 -122.5q-242 0 -418 67zM912 1925l-240 -321h-222l-241 321h86l266 -222l265 222h86z" />
    <glyph glyph-name="scaron" unicode="&#x161;" horiz-adv-x="1032" 
d="M139 56v276h111l2 -19l8 -104q7 -77 80 -124.5t184 -47.5q91 0 148.5 54.5t57.5 140.5q0 136 -175 203l-101 39q-309 119 -309 332q0 132 105.5 218t268.5 86q159 0 329 -61v-259h-111v18l-9 91q-14 150 -196 150q-87 0 -144.5 -55.5t-57.5 -140.5q0 -70 46.5 -112.5
t186.5 -99.5l92 -38q151 -62 210.5 -128.5t59.5 -171.5q0 -144 -115 -236t-297 -92q-199 0 -374 81zM877 1604l-240 -321h-222l-241 321h86l266 -222l265 222h86z" />
    <glyph glyph-name="Tcedilla" unicode="&#x162;" horiz-adv-x="1357" 
d="M573 1400h-236l-103 -5q-53 0 -68 -14t-15 -64q0 -51 -2 -88l-1 -20h-105v271h1271v-271h-105l-1 20q-3 37 -3 88q0 50 -14.5 64t-67.5 14l-103 5h-237v-1141l6 -99q4 -57 19.5 -72.5t73.5 -19.5l68 -5l43 -1v-62h-629v62l43 1l68 5q57 4 73 19.5t19 72.5l6 99v1141z
M526 -411v67q59 -15 98 -15q110 0 110 83q0 101 -187 101l95 175h79l-66 -119q217 -14 217 -146q0 -71 -57.5 -119t-142.5 -48q-72 0 -146 21z" />
    <glyph glyph-name="tcedilla" unicode="&#x163;" horiz-adv-x="802" 
d="M721 6q-75 -31 -143 -31q-173 0 -252.5 87t-79.5 277v666h-160v81h160v197l198 49v-246h302v-81h-302v-692q0 -151 34 -204.5t129 -53.5q47 0 114 31v-80zM326 -411v67q59 -15 98 -15q110 0 110 83q0 101 -187 101l95 175h79l-66 -119q217 -14 217 -146q0 -71 -57.5 -119
t-142.5 -48q-72 0 -146 21z" />
    <glyph glyph-name="Tcaron" unicode="&#x164;" horiz-adv-x="1357" 
d="M573 1400h-236l-103 -5q-53 0 -68 -14t-15 -64q0 -51 -2 -88l-1 -20h-105v271h1271v-271h-105l-1 20q-3 37 -3 88q0 50 -14.5 64t-67.5 14l-103 5h-237v-1141l6 -99q4 -57 19.5 -72.5t73.5 -19.5l68 -5l43 -1v-62h-629v62l43 1l68 5q57 4 73 19.5t19 72.5l6 99v1141z
M1030 1925l-240 -321h-222l-241 321h86l266 -222l265 222h86z" />
    <glyph glyph-name="tcaron" unicode="&#x165;" horiz-adv-x="802" 
d="M721 6q-75 -31 -143 -31q-173 0 -252.5 87t-79.5 277v666h-160v81h160v197l198 49v-246h302v-81h-302v-692q0 -151 34 -204.5t129 -53.5q47 0 114 31v-80zM695 1515h-79v197h197v-171q0 -270 -197 -283v49q79 7 79 156v52z" />
    <glyph glyph-name="Tbar" unicode="&#x166;" horiz-adv-x="1357" 
d="M573 1400h-236l-103 -5q-53 0 -68 -14t-15 -64q0 -51 -2 -88l-1 -20h-105v271h1271v-271h-105l-1 20q-3 37 -3 88q0 50 -14.5 64t-67.5 14l-103 5h-237v-611h303v-74h-303v-456l6 -99q4 -57 19.5 -72.5t73.5 -19.5l68 -5l43 -1v-62h-629v62l43 1l68 5q57 4 73 19.5
t19 72.5l6 99v456h-303v74h303v611z" />
    <glyph glyph-name="tbar" unicode="&#x167;" horiz-adv-x="802" 
d="M721 6q-75 -31 -143 -31q-173 0 -252.5 87t-79.5 277v278h-160v74h160v314h-160v81h160v197l198 49v-246h302v-81h-302v-314h302v-74h-302v-304q0 -151 34 -204.5t129 -53.5q47 0 114 31v-80z" />
    <glyph glyph-name="Utilde" unicode="&#x168;" horiz-adv-x="1472" 
d="M16 1419v61h583v-61l-18 -2l-68 -4q-63 -5 -81 -39.5t-18 -152.5v-633q0 -230 12 -300t60 -133q97 -126 290 -126q181 0 290 110q61 62 79.5 137t18.5 268v677l-7 99q-3 57 -19 73t-73 20l-68 4l-18 2v61h474v-61l-19 -2l-68 -4q-63 -5 -80.5 -39.5t-17.5 -152.5v-620
q0 -206 -23 -302t-92 -179q-130 -157 -405 -157q-547 0 -547 591v667l-6 99q-4 57 -19.5 73t-73.5 20l-67 4zM456 1604q40 235 229 235q61 0 116 -38l35 -25q54 -37 105 -37q100 0 120 99h61q-39 -234 -229 -234q-60 0 -115 38l-36 24q-54 38 -105 38q-93 0 -119 -100h-62z
" />
    <glyph glyph-name="utilde" unicode="&#x169;" horiz-adv-x="1295" 
d="M876 0v204q-150 -229 -391 -229q-140 0 -220 92.5t-80 253.5v506l-6 98q-4 57 -19.5 73t-73.5 20l-67 5l-19 1v62h382v-734q0 -250 178 -250q163 0 316 168v557l-6 98q-4 58 -19.5 73.5t-73.5 19.5l-68 5l-18 1v62h382v-827l7 -99q3 -57 19 -72.5t73 -19.5l68 -5l19 -1
v-62h-383zM271 1283q40 235 229 235q61 0 116 -38l35 -25q54 -37 105 -37q100 0 120 99h61q-39 -234 -229 -234q-60 0 -115 38l-36 24q-54 38 -105 38q-93 0 -119 -100h-62z" />
    <glyph glyph-name="Umacron" unicode="&#x16a;" horiz-adv-x="1472" 
d="M16 1419v61h583v-61l-18 -2l-68 -4q-63 -5 -81 -39.5t-18 -152.5v-633q0 -230 12 -300t60 -133q97 -126 290 -126q181 0 290 110q61 62 79.5 137t18.5 268v677l-7 99q-3 57 -19 73t-73 20l-68 4l-18 2v61h474v-61l-19 -2l-68 -4q-63 -5 -80.5 -39.5t-17.5 -152.5v-620
q0 -206 -23 -302t-92 -179q-130 -157 -405 -157q-547 0 -547 591v667l-6 99q-4 57 -19.5 73t-73.5 20l-67 4zM460 1604v123h642v-123h-642z" />
    <glyph glyph-name="umacron" unicode="&#x16b;" horiz-adv-x="1295" 
d="M876 0v204q-150 -229 -391 -229q-140 0 -220 92.5t-80 253.5v506l-6 98q-4 57 -19.5 73t-73.5 20l-67 5l-19 1v62h382v-734q0 -250 178 -250q163 0 316 168v557l-6 98q-4 58 -19.5 73.5t-73.5 19.5l-68 5l-18 1v62h382v-827l7 -99q3 -57 19 -72.5t73 -19.5l68 -5l19 -1
v-62h-383zM296 1283v123h642v-123h-642z" />
    <glyph glyph-name="Ubreve" unicode="&#x16c;" horiz-adv-x="1472" 
d="M16 1419v61h583v-61l-18 -2l-68 -4q-63 -5 -81 -39.5t-18 -152.5v-633q0 -230 12 -300t60 -133q97 -126 290 -126q181 0 290 110q61 62 79.5 137t18.5 268v677l-7 99q-3 57 -19 73t-73 20l-68 4l-18 2v61h474v-61l-19 -2l-68 -4q-63 -5 -80.5 -39.5t-17.5 -152.5v-620
q0 -206 -23 -302t-92 -179q-130 -157 -405 -157q-547 0 -547 591v667l-6 99q-4 57 -19.5 73t-73.5 20l-67 4zM453 1925h65q46 -179 268 -179t269 179h64q-19 -147 -109 -234t-224 -87t-224 87t-109 234z" />
    <glyph glyph-name="ubreve" unicode="&#x16d;" horiz-adv-x="1295" 
d="M876 0v204q-150 -229 -391 -229q-140 0 -220 92.5t-80 253.5v506l-6 98q-4 57 -19.5 73t-73.5 20l-67 5l-19 1v62h382v-734q0 -250 178 -250q163 0 316 168v557l-6 98q-4 58 -19.5 73.5t-73.5 19.5l-68 5l-18 1v62h382v-827l7 -99q3 -57 19 -72.5t73 -19.5l68 -5l19 -1
v-62h-383zM259 1604h65q46 -179 268 -179t269 179h64q-19 -147 -109 -234t-224 -87t-224 87t-109 234z" />
    <glyph glyph-name="Uring" unicode="&#x16e;" horiz-adv-x="1472" 
d="M16 1419v61h583v-61l-18 -2l-68 -4q-63 -5 -81 -39.5t-18 -152.5v-633q0 -230 12 -300t60 -133q97 -126 290 -126q181 0 290 110q61 62 79.5 137t18.5 268v677l-7 99q-3 57 -19 73t-73 20l-68 4l-18 2v61h474v-61l-19 -2l-68 -4q-63 -5 -80.5 -39.5t-17.5 -152.5v-620
q0 -206 -23 -302t-92 -179q-130 -157 -405 -157q-547 0 -547 591v667l-6 99q-4 57 -19.5 73t-73.5 20l-67 4zM768 1579q-93 0 -158.5 66.5t-65.5 160.5t66 160.5t161 66.5q94 0 160.5 -66t66.5 -161q0 -96 -66.5 -161.5t-163.5 -65.5zM769 1647q68 0 114.5 46t46.5 114
q0 66 -46.5 112t-112.5 46t-112.5 -46.5t-46.5 -111.5q0 -66 46 -113t111 -47z" />
    <glyph glyph-name="uring" unicode="&#x16f;" horiz-adv-x="1295" 
d="M876 0v204q-150 -229 -391 -229q-140 0 -220 92.5t-80 253.5v506l-6 98q-4 57 -19.5 73t-73.5 20l-67 5l-19 1v62h382v-734q0 -250 178 -250q163 0 316 168v557l-6 98q-4 58 -19.5 73.5t-73.5 19.5l-68 5l-18 1v62h382v-827l7 -99q3 -57 19 -72.5t73 -19.5l68 -5l19 -1
v-62h-383zM612 1283q-93 0 -158.5 66.5t-65.5 160.5t66 160.5t161 66.5q94 0 160.5 -66t66.5 -161q0 -96 -66.5 -161.5t-163.5 -65.5zM613 1351q68 0 114.5 46t46.5 114q0 66 -46.5 112t-112.5 46t-112.5 -46.5t-46.5 -111.5q0 -66 46 -113t111 -47z" />
    <glyph glyph-name="Udblacute" unicode="&#x170;" horiz-adv-x="1472" 
d="M16 1419v61h583v-61l-18 -2l-68 -4q-63 -5 -81 -39.5t-18 -152.5v-633q0 -230 12 -300t60 -133q97 -126 290 -126q181 0 290 110q61 62 79.5 137t18.5 268v677l-7 99q-3 57 -19 73t-73 20l-68 4l-18 2v61h474v-61l-19 -2l-68 -4q-63 -5 -80.5 -39.5t-17.5 -152.5v-620
q0 -206 -23 -302t-92 -179q-130 -157 -405 -157q-547 0 -547 591v667l-6 99q-4 57 -19.5 73t-73.5 20l-67 4zM562 1604l214 321h169l-321 -321h-62zM871 1604l214 321h168l-321 -321h-61z" />
    <glyph glyph-name="udblacute" unicode="&#x171;" horiz-adv-x="1295" 
d="M876 0v204q-150 -229 -391 -229q-140 0 -220 92.5t-80 253.5v506l-6 98q-4 57 -19.5 73t-73.5 20l-67 5l-19 1v62h382v-734q0 -250 178 -250q163 0 316 168v557l-6 98q-4 58 -19.5 73.5t-73.5 19.5l-68 5l-18 1v62h382v-827l7 -99q3 -57 19 -72.5t73 -19.5l68 -5l19 -1
v-62h-383zM382 1283l214 321h169l-321 -321h-62zM691 1283l214 321h168l-321 -321h-61z" />
    <glyph glyph-name="Uogonek" unicode="&#x172;" horiz-adv-x="1472" 
d="M16 1419v61h583v-61l-18 -2l-68 -4q-63 -5 -81 -39.5t-18 -152.5v-633q0 -230 12 -300t60 -133q97 -126 290 -126q181 0 290 110q61 62 79.5 137t18.5 268v677l-7 99q-3 57 -19 73t-73 20l-68 4l-18 2v61h474v-61l-19 -2l-68 -4q-63 -5 -80.5 -39.5t-17.5 -152.5v-620
q0 -206 -23 -302t-92 -179q-130 -157 -405 -157q-547 0 -547 591v667l-6 99q-4 57 -19.5 73t-73.5 20l-67 4zM1031 -273v-68q-68 -29 -147 -29q-222 0 -222 159q0 125 158 211h107q-129 -77 -129 -181q0 -108 133 -108q53 0 100 16z" />
    <glyph glyph-name="uogonek" unicode="&#x173;" horiz-adv-x="1295" 
d="M876 0v204q-150 -229 -391 -229q-140 0 -220 92.5t-80 253.5v506l-6 98q-4 57 -19.5 73t-73.5 20l-67 5l-19 1v62h382v-734q0 -250 178 -250q163 0 316 168v557l-6 98q-4 58 -19.5 73.5t-73.5 19.5l-68 5l-18 1v62h382v-827l7 -99q3 -57 19 -72.5t73 -19.5l68 -5l19 -1
v-62h-383zM1185 -273v-68q-68 -29 -147 -29q-222 0 -222 159q0 125 158 211h107q-129 -77 -129 -181q0 -108 133 -108q53 0 100 16z" />
    <glyph glyph-name="Wcircumflex" unicode="&#x174;" horiz-adv-x="1894" 
d="M504 -19l-316 1234l-36 132q-16 69 -72 69l-59 1l-21 2v61h530v-61h-19l-54 -2q-95 0 -95 -53q0 -34 29 -149l219 -861l341 1108h70l341 -1139l256 891q43 148 43 169q0 34 -87 34l-69 2h-18v61h407v-61l-18 -2l-60 -2q-60 -3 -79 -63l-43 -137l-362 -1234h-67l-349 1139
l-343 -1139h-69zM645 1604l241 321h222l240 -321h-86l-265 222l-266 -222h-86z" />
    <glyph glyph-name="wcircumflex" unicode="&#x175;" horiz-adv-x="1629" 
d="M420 -12l-267 839q-41 126 -63.5 159.5t-69.5 36.5l-19 1v62h487v-62h-21l-72 -2q-81 0 -81 -43q0 -45 34 -152l169 -543l315 796h60l321 -816l196 563q41 119 41 151q0 45 -101 45l-54 1h-22v62h355v-62l-22 -1q-44 -3 -63 -31.5t-67 -164.5l-295 -839h-55l-329 826
l-316 -826h-61zM528 1283l241 321h222l240 -321h-86l-265 222l-266 -222h-86z" />
    <glyph glyph-name="Ycircumflex" unicode="&#x176;" horiz-adv-x="1388" 
d="M580 656l-338 559l-78 127q-40 70 -86 73l-58 2l-20 2v61h574v-61h-20l-70 -2q-74 0 -74 -32q0 -31 82 -170l277 -467l289 466q86 139 86 174q0 29 -83 29l-56 2h-18v61h401v-61l-19 -2l-55 -3q-56 -4 -89 -57l-90 -142l-345 -559v-397q0 -118 17.5 -152.5t80.5 -38.5
l68 -5l19 -1v-62h-580v62l18 1l68 5q63 4 81 38.5t18 152.5v397zM417 1604l241 321h222l240 -321h-86l-265 222l-266 -222h-86z" />
    <glyph glyph-name="ycircumflex" unicode="&#x177;" horiz-adv-x="1129" 
d="M166 -395l356 395l-342 823q-54 132 -80 164.5t-80 35.5l-20 1v62h496v-62h-21l-65 -1q-71 0 -71 -37q0 -13 6 -30l51 -133l243 -583l259 586q57 129 57 157q0 40 -73 40l-48 1h-27v62h322v-62l-19 -1q-62 -4 -106 -113q-8 -19 -38 -86l-551 -1219h-249zM275 1283
l241 321h222l240 -321h-86l-265 222l-266 -222h-86z" />
    <glyph glyph-name="Ydieresis" unicode="&#x178;" horiz-adv-x="1388" 
d="M580 656l-338 559l-78 127q-40 70 -86 73l-58 2l-20 2v61h574v-61h-20l-70 -2q-74 0 -74 -32q0 -31 82 -170l277 -467l289 466q86 139 86 174q0 29 -83 29l-56 2h-18v61h401v-61l-19 -2l-55 -3q-56 -4 -89 -57l-90 -142l-345 -559v-397q0 -118 17.5 -152.5t80.5 -38.5
l68 -5l19 -1v-62h-580v62l18 1l68 5q63 4 81 38.5t18 152.5v397zM485 1604v173h173v-173h-173zM880 1604v173h173v-173h-173z" />
    <glyph glyph-name="Zacute" unicode="&#x179;" horiz-adv-x="1295" 
d="M114 0v80l794 1320h-450l-109 -4q-55 0 -70 -13t-15 -61q0 -39 -3 -113l-2 -25h-111v296h996v-67l-791 -1320h448l166 6q64 0 67 66l4 100l1 19h112v-284h-1037zM494 1604l241 321h259l-407 -321h-93z" />
    <glyph glyph-name="zacute" unicode="&#x17a;" horiz-adv-x="1220" 
d="M136 0v62l688 962h-355l-96 -1q-65 0 -83 -14.5t-18 -67.5q0 -42 -2 -72l-1 -21h-105v238h889v-62l-680 -950h397l122 5q82 0 82 72v75l1 24h105v-250h-944zM485 1283l241 321h259l-407 -321h-93z" />
    <glyph glyph-name="Zdot" unicode="&#x17b;" horiz-adv-x="1295" 
d="M114 0v80l794 1320h-450l-109 -4q-55 0 -70 -13t-15 -61q0 -39 -3 -113l-2 -25h-111v296h996v-67l-791 -1320h448l166 6q64 0 67 66l4 100l1 19h112v-284h-1037zM543 1604v197h197v-197h-197z" />
    <glyph glyph-name="zdot" unicode="&#x17c;" horiz-adv-x="1220" 
d="M136 0v62l688 962h-355l-96 -1q-65 0 -83 -14.5t-18 -67.5q0 -42 -2 -72l-1 -21h-105v238h889v-62l-680 -950h397l122 5q82 0 82 72v75l1 24h105v-250h-944zM510 1283v197h197v-197h-197z" />
    <glyph glyph-name="Zcaron" unicode="&#x17d;" horiz-adv-x="1295" 
d="M114 0v80l794 1320h-450l-109 -4q-55 0 -70 -13t-15 -61q0 -39 -3 -113l-2 -25h-111v296h996v-67l-791 -1320h448l166 6q64 0 67 66l4 100l1 19h112v-284h-1037zM993 1925l-240 -321h-222l-241 321h86l266 -222l265 222h86z" />
    <glyph glyph-name="zcaron" unicode="&#x17e;" horiz-adv-x="1220" 
d="M136 0v62l688 962h-355l-96 -1q-65 0 -83 -14.5t-18 -67.5q0 -42 -2 -72l-1 -21h-105v238h889v-62l-680 -950h397l122 5q82 0 82 72v75l1 24h105v-250h-944zM959 1604l-240 -321h-222l-241 321h86l266 -222l265 222h86z" />
    <glyph glyph-name="longs" unicode="&#x17f;" horiz-adv-x="740" 
d="M247 999h-160v87h160v52q0 247 79.5 356.5t258.5 109.5q140 0 267 -74v-235h-124l-1 19q-3 60 -3 93q0 133 -145 133q-79 0 -107 -58t-28 -225v-998q0 -118 19.5 -152.5t87.5 -38.5l72 -5l31 -1v-62h-592v62l19 1l67 5q58 4 73.5 19.5t19.5 72.5l6 99v740z" />
    <glyph glyph-name="florin" unicode="&#x192;" horiz-adv-x="1246" 
d="M234 -296l206 1036h-202v62h214l24 120q116 583 532 583q87 0 182 -30v-254h-98l-1 19q-3 41 -3 80q0 124 -142 124q-103 0 -154 -90t-107 -375l-35 -177h250v-62h-263l-206 -1036h-197z" />
    <glyph glyph-name="Scommabelow" unicode="&#x218;" horiz-adv-x="1110" 
d="M119 30v285h105l1 -18q3 -50 3 -75q0 -82 84 -133.5t217 -51.5q281 0 281 285q0 111 -48 177t-187 144l-105 60q-340 192 -340 419q0 171 122.5 283t307.5 112q159 0 374 -63v-263h-111l-1 17q-4 54 -4 79q0 84 -59.5 123.5t-188.5 39.5q-108 0 -173.5 -70.5
t-65.5 -185.5q0 -98 45.5 -162t165.5 -132l105 -60q218 -124 294 -216t76 -232q0 -184 -137 -306.5t-343 -122.5q-242 0 -418 67zM507 -395h-79v198h197v-172q0 -270 -197 -282v49q79 7 79 155v52z" />
    <glyph glyph-name="scommabelow" unicode="&#x219;" horiz-adv-x="1032" 
d="M139 56v276h111l2 -19l8 -104q7 -77 80 -124.5t184 -47.5q91 0 148.5 54.5t57.5 140.5q0 136 -175 203l-101 39q-309 119 -309 332q0 132 105.5 218t268.5 86q159 0 329 -61v-259h-111v18l-9 91q-14 150 -196 150q-87 0 -144.5 -55.5t-57.5 -140.5q0 -70 46.5 -112.5
t186.5 -99.5l92 -38q151 -62 210.5 -128.5t59.5 -171.5q0 -144 -115 -236t-297 -92q-199 0 -374 81zM489 -395h-79v198h197v-172q0 -270 -197 -282v49q79 7 79 155v52z" />
    <glyph glyph-name="Tcommabelow" unicode="&#x21a;" horiz-adv-x="1357" 
d="M573 1400h-236l-103 -5q-53 0 -68 -14t-15 -64q0 -51 -2 -88l-1 -20h-105v271h1271v-271h-105l-1 20q-3 37 -3 88q0 50 -14.5 64t-67.5 14l-103 5h-237v-1141l6 -99q4 -57 19.5 -72.5t73.5 -19.5l68 -5l43 -1v-62h-629v62l43 1l68 5q57 4 73 19.5t19 72.5l6 99v1141z
M659 -395h-79v198h197v-172q0 -270 -197 -282v49q79 7 79 155v52z" />
    <glyph glyph-name="tcommabelow" unicode="&#x21b;" horiz-adv-x="802" 
d="M721 6q-75 -31 -143 -31q-173 0 -252.5 87t-79.5 277v666h-160v81h160v197l198 49v-246h302v-81h-302v-692q0 -151 34 -204.5t129 -53.5q47 0 114 31v-80zM412 -395h-79v198h197v-172q0 -270 -197 -282v49q79 7 79 155v52z" />
    <glyph glyph-name="circumflex" unicode="&#x2c6;" horiz-adv-x="1234" 
d="M265 1283l241 321h222l240 -321h-86l-265 222l-266 -222h-86z" />
    <glyph glyph-name="caron" unicode="&#x2c7;" horiz-adv-x="1234" 
d="M968 1604l-240 -321h-222l-241 321h86l266 -222l265 222h86z" />
    <glyph glyph-name="macron" unicode="&#x2c9;" horiz-adv-x="1234" 
d="M296 1283v123h642v-123h-642z" />
    <glyph glyph-name="breve" unicode="&#x2d8;" horiz-adv-x="1234" 
d="M284 1604h65q46 -179 268 -179t269 179h64q-19 -147 -109 -234t-224 -87t-224 87t-109 234z" />
    <glyph glyph-name="dotaccent" unicode="&#x2d9;" horiz-adv-x="1234" 
d="M518 1283v197h197v-197h-197z" />
    <glyph glyph-name="ring" unicode="&#x2da;" horiz-adv-x="1234" 
d="M614 1283q-93 0 -158.5 66.5t-65.5 160.5t66 160.5t161 66.5q94 0 160.5 -66t66.5 -161q0 -96 -66.5 -161.5t-163.5 -65.5zM615 1351q68 0 114.5 46t46.5 114q0 66 -46.5 112t-112.5 46t-112.5 -46.5t-46.5 -111.5q0 -66 46 -113t111 -47z" />
    <glyph glyph-name="ogonek" unicode="&#x2db;" horiz-adv-x="1234" 
d="M801 -273v-68q-68 -29 -147 -29q-222 0 -222 159q0 125 158 211h107q-129 -77 -129 -181q0 -108 133 -108q53 0 100 16z" />
    <glyph glyph-name="tilde" unicode="&#x2dc;" horiz-adv-x="1234" 
d="M290 1283q40 235 229 235q61 0 116 -38l35 -25q54 -37 105 -37q100 0 120 99h61q-39 -234 -229 -234q-60 0 -115 38l-36 24q-54 38 -105 38q-93 0 -119 -100h-62z" />
    <glyph glyph-name="hungarumlaut" unicode="&#x2dd;" horiz-adv-x="1234" 
d="M395 1283l214 321h169l-321 -321h-62zM704 1283l214 321h168l-321 -321h-61z" />
    <glyph glyph-name="combocommasub" unicode="&#x326;" horiz-adv-x="1234" 
d="M597 -395h-79v198h197v-172q0 -270 -197 -282v49q79 7 79 155v52z" />
    <glyph glyph-name="numeralgreek" unicode="&#x374;" horiz-adv-x="592" 
d="M123 987l197 592h222l-357 -592h-62z" />
    <glyph glyph-name="numeralgreeksub" unicode="&#x375;" horiz-adv-x="592" 
d="M123 -395l197 592h222l-357 -592h-62z" />
    <glyph glyph-name="iotasub" unicode="&#x37a;" horiz-adv-x="1258" 
d="M836 -400q-70 -32 -141 -32q-87 0 -118 41t-31 157v135h154v-120q0 -108 59 -108q38 0 77 16v-89z" />
    <glyph glyph-name="questiongreek" unicode="&#x37e;" horiz-adv-x="543" 
d="M247 0h-99v247h247v-215q0 -127 -14 -174.5t-65 -100.5q-70 -72 -168 -78v62q99 9 99 194v65zM148 839v247h247v-247h-247z" />
    <glyph glyph-name="tonos" unicode="&#x384;" horiz-adv-x="1259" 
d="M592 1283l-71 321h216l-71 -321h-74z" />
    <glyph glyph-name="diaeresistonos" unicode="&#x385;" horiz-adv-x="1258" 
d="M234 1283v173h173v-173h-173zM851 1283v173h173v-173h-173zM595 1283l-65 321h198l-65 -321h-68z" />
    <glyph glyph-name="Alphatonos" unicode="&#x386;" horiz-adv-x="1524" 
d="M374 456l-85 -197l-44 -124q-6 -18 -6 -31q0 -41 77 -41l52 -1h16v-62h-384v62l21 1l48 2q56 3 92 89l46 105l521 1240h70l519 -1247l51 -103q27 -58 46 -70t87 -16l23 -1v-62h-549v62h18l61 1q78 0 78 38q0 60 -41 158l-83 197h-634zM407 537h565l-281 674zM132 1160
l-71 321h216l-71 -321h-74z" />
    <glyph glyph-name="anoteleia" unicode="&#x387;" horiz-adv-x="543" 
d="M148 839v247h247v-247h-247z" />
    <glyph glyph-name="Epsilontonos" unicode="&#x388;" horiz-adv-x="1394" 
d="M1345 0h-1067v62l19 1l67 5q58 4 73.5 19.5t19.5 72.5l6 99v962l-6 99q-4 57 -19.5 73t-73.5 20l-67 4l-19 2v61h1012v-259h-111l-2 19l-5 84q0 48 -12.5 61.5t-60.5 13.5l-103 1h-323v-592l271 1l63 2q44 0 55.5 9.5t13.5 46.5q1 15 3 46l1 18h80v-326h-80l-1 18
q-5 76 -23.5 90.5t-111.5 14.5h-271v-469q0 -116 27.5 -144.5t142.5 -28.5h158l141 6q83 0 88 70l3 91l1 18h111v-271zM71 1160l-71 321h216l-71 -321h-74z" />
    <glyph glyph-name="Etatonos" unicode="&#x389;" horiz-adv-x="1814" 
d="M672 726v-467l6 -99q4 -57 19.5 -72.5t72.5 -19.5l68 -5l19 -1v-62h-580v62l19 1l67 5q58 4 73.5 19.5t19.5 72.5l6 99v962l-6 99q-4 57 -19.5 73t-73.5 20l-67 4l-19 2v61h580v-61l-19 -2l-68 -4q-57 -4 -72.5 -20t-19.5 -73l-6 -99v-409h704v409l-6 99q-4 57 -19.5 73
t-73.5 20l-68 4l-18 2v61h580v-61l-19 -2l-68 -4q-57 -4 -73 -20t-19 -73l-6 -99v-962l6 -99q3 -57 19 -72.5t73 -19.5l68 -5l19 -1v-62h-580v62l18 1l68 5q63 4 81 38.5t18 152.5v467h-704zM71 1160l-71 321h216l-71 -321h-74z" />
    <glyph glyph-name="Iotatonos" unicode="&#x38a;" horiz-adv-x="901" 
d="M857 62v-62h-580v62l19 1l67 5q58 4 73.5 19.5t19.5 72.5l6 99v962l-6 99q-4 57 -19.5 73t-73.5 20l-67 4l-19 2v61h580v-61l-19 -2l-68 -4q-57 -4 -72.5 -20t-19.5 -73l-6 -99v-962l6 -99q4 -57 19.5 -72.5t72.5 -19.5l68 -5zM71 1160l-71 321h216l-71 -321h-74z" />
    <glyph glyph-name="Omicrontonos" unicode="&#x38c;" horiz-adv-x="1731" 
d="M926 -37q-313 0 -497 210t-184 567q0 361 185 569t506 208q320 0 505.5 -207.5t185.5 -566.5q0 -366 -186 -573t-515 -207zM929 31q226 0 351 187t125 526q0 330 -125 518t-344 188q-220 0 -344.5 -188.5t-124.5 -520.5q0 -331 123.5 -520.5t338.5 -189.5zM71 1160
l-71 321h216l-71 -321h-74z" />
    <glyph glyph-name="Upsilontonos" unicode="&#x38e;" horiz-adv-x="1548" 
d="M277 1413v67q278 0 456 -193t213 -531q97 314 247.5 495t354.5 229v-67q-240 -88 -391 -346t-151 -582l-1 -226q0 -118 17.5 -152.5t81.5 -38.5l67 -5l19 -1v-62h-580v62l19 1l67 5q64 4 81.5 38.5t17.5 152.5v229q0 325 -151.5 595t-366.5 330zM70 1160l-71 321h216
l-71 -321h-74z" />
    <glyph glyph-name="Omegatonos" unicode="&#x38f;" horiz-adv-x="1768" 
d="M209 0v296h111l1 -18l4 -67q2 -35 24 -52.5t63 -17.5l141 -5h152q-253 215 -356.5 376.5t-103.5 342.5q0 286 201 474t506 188t506 -188t201 -475q0 -180 -104 -342.5t-356 -375.5h151l141 5q41 0 63 17.5t25 52.5l3 67l1 18h111v-296h-591v130q167 182 250.5 363
t83.5 361q0 259 -136 424t-349 165q-214 0 -350 -165t-136 -424q0 -180 83.5 -361t250.5 -363v-130h-591zM71 1160l-71 321h216l-71 -321h-74z" />
    <glyph glyph-name="iotadiaeresistonos" unicode="&#x390;" horiz-adv-x="723" 
d="M695 21q-94 -46 -190 -46q-158 0 -237 100.5t-79 301.5v709h197v-722q0 -150 35 -211t121 -61q75 0 153 35v-106zM-107 1283v173h173v-173h-173zM510 1283v173h173v-173h-173zM254 1283l-65 321h198l-65 -321h-68z" />
    <glyph glyph-name="Alpha" unicode="&#x391;" horiz-adv-x="1524" 
d="M374 456l-85 -197l-44 -124q-6 -18 -6 -31q0 -41 77 -41l52 -1h16v-62h-384v62l21 1l48 2q56 3 92 89l46 105l521 1240h70l519 -1247l51 -103q27 -58 46 -70t87 -16l23 -1v-62h-549v62h18l61 1q78 0 78 38q0 60 -41 158l-83 197h-634zM407 537h565l-281 674z" />
    <glyph glyph-name="Beta" unicode="&#x392;" horiz-adv-x="1248" 
d="M735 767q185 -30 290 -135t105 -260q0 -188 -125 -280t-382 -92h-580v62l19 1l67 5q58 4 73.5 19.5t19.5 72.5l6 99v962l-6 99q-4 57 -19.5 73t-73.5 20l-67 4l-19 2v61h608q204 0 311 -84t107 -244q0 -261 -334 -385zM435 734v-475l3 -87q0 -61 34.5 -83t133.5 -22
q137 0 222 82.5t85 214.5q0 370 -478 370zM435 802h61q358 0 358 327q0 157 -82.5 220.5t-285.5 63.5h-51v-611z" />
    <glyph glyph-name="Gamma" unicode="&#x393;" horiz-adv-x="1123" 
d="M43 0v62l19 1l67 5q58 4 73.5 19.5t19.5 72.5l6 99v962l-6 99q-4 57 -19.5 73t-73.5 20l-67 4l-19 2v61h999v-296h-111l-1 19q-5 101 -5 116q0 62 -21 71.5t-155 9.5h-311v-1141q0 -118 21.5 -154.5t91.5 -36.5q4 0 78 -5l19 -1v-62h-605z" />
    <glyph glyph-name="Delta" unicode="&#x394;" horiz-adv-x="1431" 
d="M37 0v148l644 1351h69l644 -1351v-148h-1357zM123 148h1043l-521 1095z" />
    <glyph glyph-name="Epsilon" unicode="&#x395;" horiz-adv-x="1160" 
d="M1110 0h-1067v62l19 1l67 5q58 4 73.5 19.5t19.5 72.5l6 99v962l-6 99q-4 57 -19.5 73t-73.5 20l-67 4l-19 2v61h1012v-259h-111l-2 19l-5 84q0 48 -12.5 61.5t-60.5 13.5l-103 1h-323v-592l271 1l63 2q44 0 55.5 9.5t13.5 46.5q1 15 3 46l1 18h80v-326h-80l-1 18
q-5 76 -23.5 90.5t-111.5 14.5h-271v-469q0 -116 27.5 -144.5t142.5 -28.5h158l141 6q83 0 88 70l3 91l1 18h111v-271z" />
    <glyph glyph-name="Zeta" unicode="&#x396;" horiz-adv-x="1295" 
d="M114 0v80l794 1320h-450l-109 -4q-55 0 -70 -13t-15 -61q0 -39 -3 -113l-2 -25h-111v296h996v-67l-791 -1320h448l166 6q64 0 67 66l4 100l1 19h112v-284h-1037z" />
    <glyph glyph-name="Eta" unicode="&#x397;" horiz-adv-x="1580" 
d="M438 726v-467l6 -99q4 -57 19.5 -72.5t72.5 -19.5l68 -5l19 -1v-62h-580v62l19 1l67 5q58 4 73.5 19.5t19.5 72.5l6 99v962l-6 99q-4 57 -19.5 73t-73.5 20l-67 4l-19 2v61h580v-61l-19 -2l-68 -4q-57 -4 -72.5 -20t-19.5 -73l-6 -99v-409h704v409l-6 99q-4 57 -19.5 73
t-73.5 20l-68 4l-18 2v61h580v-61l-19 -2l-68 -4q-57 -4 -73 -20t-19 -73l-6 -99v-962l6 -99q3 -57 19 -72.5t73 -19.5l68 -5l19 -1v-62h-580v62l18 1l68 5q63 4 81 38.5t18 152.5v467h-704z" />
    <glyph glyph-name="Theta" unicode="&#x398;" horiz-adv-x="1591" 
d="M786 -37q-313 0 -497 210t-184 567q0 361 185 569t506 208q320 0 505.5 -207.5t185.5 -566.5q0 -366 -186 -573t-515 -207zM789 31q226 0 351 187t125 526q0 330 -125 518t-344 188q-220 0 -344.5 -188.5t-124.5 -520.5q0 -331 123.5 -520.5t338.5 -189.5zM1073 524h-74
l-1 19q-4 62 -4 92q0 49 -13.5 62t-65.5 15l-64 4h-111l-64 -4q-52 -2 -65 -15t-13 -62q0 -28 -5 -92l-1 -19h-74v481h74l1 -18l8 -90q3 -49 16 -61t62 -12l61 -4h111l61 4q50 0 62.5 12t16.5 61l7 90l1 18h74v-481z" />
    <glyph glyph-name="Iota" unicode="&#x399;" horiz-adv-x="666" 
d="M623 62v-62h-580v62l19 1l67 5q58 4 73.5 19.5t19.5 72.5l6 99v962l-6 99q-4 57 -19.5 73t-73.5 20l-67 4l-19 2v61h580v-61l-19 -2l-68 -4q-57 -4 -72.5 -20t-19.5 -73l-6 -99v-962l6 -99q4 -57 19.5 -72.5t72.5 -19.5l68 -5z" />
    <glyph glyph-name="Kappa" unicode="&#x39a;" horiz-adv-x="1450" 
d="M438 748v-489l5 -99q0 -62 20.5 -76.5t116.5 -20.5l18 -1v-62h-555v62l19 1l67 5q58 4 73.5 19.5t19.5 72.5l6 99v962l-6 99q-4 57 -19.5 73t-73.5 20l-67 4l-19 2v61h580v-61l-19 -2l-68 -4q-57 -4 -72.5 -20t-19.5 -73l-6 -99v-467l448 467q148 155 148 178
q0 18 -56 18l-90 2h-18v61h456v-61l-17 -2l-61 -1q-50 0 -92 -31.5t-173 -164.5l-378 -385l518 -577l104 -108q55 -57 83 -69.5t119 -17.5l21 -1v-62h-605v62h18q124 0 124 24q0 34 -124 176z" />
    <glyph glyph-name="Lambda" unicode="&#x39b;" horiz-adv-x="1524" 
d="M0 0v62l21 1l52 2q65 3 95 89q33 90 39 105l521 1240h70l519 -1247l51 -103q27 -58 46.5 -70t86.5 -16l23 -1v-62h-549v62l23 1l77 -2q65 0 65 39q0 8 -4 21q-6 16 -18 59q-15 50 -27 79l-400 952l-403 -952q-9 -22 -19 -49l-28 -73q-8 -21 -8 -32q0 -43 77 -43l67 1
l18 -1v-62h-395z" />
    <glyph glyph-name="Mu" unicode="&#x39c;" horiz-adv-x="1762" 
d="M43 1419v61h424l444 -1077l435 1077h372v-61l-19 -2l-67 -4q-58 -4 -73.5 -20t-19.5 -73l-6 -99v-962l6 -99q4 -57 19.5 -72.5t73.5 -19.5l67 -5l19 -1v-62h-564v62l18 1l68 5q56 4 72 19.5t19 72.5l6 99v1017l-466 -1158h-73l-460 1174v-1033l6 -99q4 -57 19.5 -72.5
t72.5 -19.5l68 -5l19 -1v-62h-480v62l19 1l67 5q58 4 73.5 19.5t19.5 72.5l6 99v962l-6 99q-4 57 -19.5 73t-73.5 20l-67 4z" />
    <glyph glyph-name="Nu" unicode="&#x39d;" horiz-adv-x="1539" 
d="M1240 -20l-918 1240v-961q0 -118 18 -152.5t81 -38.5l68 -5l18 -1v-62h-463v62l18 1l68 5q63 4 81 38.5t18 152.5v962q0 119 -18 153t-81 39l-68 4l-19 2v61h333l844 -1149v890l-6 99q-4 57 -20 73t-73 20l-68 4l-18 2v61h461v-61l-19 -2l-68 -4q-57 -4 -73 -20t-19 -73
l-6 -99v-1241h-71z" />
    <glyph glyph-name="Xi" unicode="&#x39e;" horiz-adv-x="1308" 
d="M1172 1160h-111l-1 18q-2 37 -2 78q0 36 -19.5 54.5t-57.5 18.5l-105 3h-456l-105 -3q-39 0 -58 -18.5t-19 -54.5q0 -49 -2 -78l-1 -18h-111v320h1048v-320zM1074 586h-99l-1 19l-7 53q-5 58 -27.5 67t-155.5 9h-262q-133 0 -155.5 -9t-28.5 -67l-6 -53l-1 -19h-99v395
h99l1 -31l5 -48q5 -48 17 -57.5t64 -9.5l104 -2h262l103 2q53 0 65 9.5t16 57.5l6 48l1 31h99v-395zM62 0v333h116l1 -18q7 -121 29 -130q63 -25 210 -25h458q119 0 197 21q34 10 38 62l5 72l1 18h129v-333h-1184z" />
    <glyph glyph-name="Omicron" unicode="&#x39f;" horiz-adv-x="1591" 
d="M786 -37q-313 0 -497 210t-184 567q0 361 185 569t506 208q320 0 505.5 -207.5t185.5 -566.5q0 -366 -186 -573t-515 -207zM789 31q226 0 351 187t125 526q0 330 -125 518t-344 188q-220 0 -344.5 -188.5t-124.5 -520.5q0 -331 123.5 -520.5t338.5 -189.5z" />
    <glyph glyph-name="Pi" unicode="&#x3a0;" horiz-adv-x="1579" 
d="M43 0v62l19 1l68 5q57 4 72.5 19.5t19.5 72.5l6 99v962l-6 99q-4 57 -19.5 73t-72.5 20l-68 4l-19 2v61h1493v-61l-19 -2l-68 -4q-57 -4 -73 -20t-19 -73l-6 -99v-962l6 -99q3 -57 19 -72.5t73 -19.5l68 -5l19 -1v-62h-580v62l19 1l67 5q64 4 81.5 38.5t17.5 152.5v1141
h-703v-1141l6 -99q4 -57 19.5 -72.5t72.5 -19.5l68 -5l19 -1v-62h-580z" />
    <glyph glyph-name="Rho" unicode="&#x3a1;" horiz-adv-x="1173" 
d="M436 617v-358l6 -99q4 -57 19.5 -72.5t73.5 -19.5l68 -5l43 -1v-62h-603v62l19 1l67 5q58 4 73.5 19.5t19.5 72.5l6 99v962l-6 99q-4 57 -19.5 73t-73.5 20l-67 4l-19 2v61h440l146 5l69 2q432 0 432 -392q0 -478 -631 -478h-63zM436 685h75q397 0 397 407
q0 173 -75.5 247t-252.5 74h-144v-728z" />
    <glyph glyph-name="Sigma" unicode="&#x3a3;" horiz-adv-x="1295" 
d="M25 0v148l655 553l-618 687v92h1135v-259h-111l-1 19l-5 84q0 48 -13 61.5t-60 13.5l-104 1h-561l550 -621l-747 -631h750l141 6q41 0 63 17.5t25 52.5l3 91l1 18h111v-333h-1214z" />
    <glyph glyph-name="Tau" unicode="&#x3a4;" horiz-adv-x="1357" 
d="M573 1400h-236l-103 -5q-53 0 -68 -14t-15 -64q0 -51 -2 -88l-1 -20h-105v271h1271v-271h-105l-1 20q-3 37 -3 88q0 50 -14.5 64t-67.5 14l-103 5h-237v-1141l6 -99q4 -57 19.5 -72.5t73.5 -19.5l68 -5l43 -1v-62h-629v62l43 1l68 5q57 4 73 19.5t19 72.5l6 99v1141z" />
    <glyph glyph-name="Upsilon" unicode="&#x3a5;" horiz-adv-x="1271" 
d="M0 1413v67q278 0 456 -193t213 -531q97 314 247.5 495t354.5 229v-67q-240 -88 -391 -346t-151 -582l-1 -226q0 -118 17.5 -152.5t81.5 -38.5l67 -5l19 -1v-62h-580v62l19 1l67 5q64 4 81.5 38.5t17.5 152.5v229q0 325 -151.5 595t-366.5 330z" />
    <glyph glyph-name="Phi" unicode="&#x3a6;" horiz-adv-x="1480" 
d="M456 0v62l19 1l68 5q57 4 73 19.5t19 72.5l6 99v49q-252 0 -406.5 119t-154.5 313t154.5 313t406.5 119v49l-6 99q-3 57 -19 73t-73 20l-68 4l-19 2v61h568v-61l-19 -2l-68 -4q-57 -4 -72.5 -20t-19.5 -73l-6 -99v-49q252 0 406.5 -119t154.5 -313t-154.5 -313
t-406.5 -119v-49l6 -99q4 -57 19.5 -72.5t72.5 -19.5l68 -5l19 -1v-62h-568zM641 1104q-182 -9 -272.5 -100t-90.5 -264t90.5 -264t272.5 -100v728zM839 1104v-728q182 9 273 100t91 264t-91 264t-273 100z" />
    <glyph glyph-name="Chi" unicode="&#x3a7;" horiz-adv-x="1345" 
d="M566 729l-295 493l-71 115q-43 76 -104 78l-51 2l-20 2v61h573v-61h-18l-65 -1q-81 0 -81 -27q0 -25 85 -168l215 -364l251 364q96 139 96 170q0 24 -65 24l-48 2h-18v61h370v-61l-23 -2q-81 -4 -121 -60l-99 -134l-289 -409l323 -553l88 -142q29 -50 69 -53l57 -3l20 -1
v-62h-555v62h16l61 1q87 0 87 34q0 20 -84 163l-246 416l-286 -415q-94 -138 -94 -166q0 -32 79 -32l62 -1h22v-62h-407v62l13 1l46 3q62 4 111 78l81 117z" />
    <glyph glyph-name="Psi" unicode="&#x3a8;" horiz-adv-x="1518" 
d="M654 672q-200 13 -295.5 102t-140.5 304l-22 107l-19 95q-15 66 -56 99.5t-109 33.5v67h48q167 0 224 -57.5t106 -276.5l24 -104q41 -180 86 -237t154 -65v481l-7 99q-3 57 -19 73t-73 20l-68 4l-18 2v61h579v-61l-18 -2l-68 -4q-63 -5 -81 -39t-18 -153v-481
q99 0 150 65t86 236l21 104q43 213 102.5 274t224.5 61h58v-67q-93 -12 -126.5 -38t-47.5 -96l-17 -95l-20 -107q-37 -203 -145 -304t-286 -101v-413q0 -118 18 -152.5t81 -38.5l68 -5l18 -1v-62h-580v62l19 1l68 5q63 4 80.5 38.5t17.5 152.5z" />
    <glyph glyph-name="Omega" unicode="&#x3a9;" horiz-adv-x="1633" 
d="M74 0v296h111l1 -18l4 -67q2 -35 24 -52.5t63 -17.5l141 -5h152q-253 215 -356.5 376.5t-103.5 342.5q0 286 201 474t506 188t506 -188t201 -475q0 -180 -104 -342.5t-356 -375.5h151l141 5q41 0 63 17.5t25 52.5l3 67l1 18h111v-296h-591v130q167 182 250.5 363
t83.5 361q0 259 -136 424t-349 165q-214 0 -350 -165t-136 -424q0 -180 83.5 -361t250.5 -363v-130h-591z" />
    <glyph glyph-name="Iotadiaeresis" unicode="&#x3aa;" horiz-adv-x="666" 
d="M623 62v-62h-580v62l19 1l67 5q58 4 73.5 19.5t19.5 72.5l6 99v962l-6 99q-4 57 -19.5 73t-73.5 20l-67 4l-19 2v61h580v-61l-19 -2l-68 -4q-57 -4 -72.5 -20t-19.5 -73l-6 -99v-962l6 -99q4 -57 19.5 -72.5t72.5 -19.5l68 -5zM49 1604v173h173v-173h-173zM444 1604v173
h173v-173h-173z" />
    <glyph glyph-name="Upsilondiaeresis" unicode="&#x3ab;" horiz-adv-x="1271" 
d="M0 1413v67q278 0 456 -193t213 -531q97 314 247.5 495t354.5 229v-67q-240 -88 -391 -346t-151 -582l-1 -226q0 -118 17.5 -152.5t81.5 -38.5l67 -5l19 -1v-62h-580v62l19 1l67 5q64 4 81.5 38.5t17.5 152.5v229q0 325 -151.5 595t-366.5 330zM369 1604v173h173v-173
h-173zM764 1604v173h173v-173h-173z" />
    <glyph glyph-name="alphatonos" unicode="&#x3ac;" horiz-adv-x="1480" 
d="M1153 0q-113 147 -197 308q-91 -134 -242 -233.5t-263 -99.5q-139 0 -231 139.5t-92 348.5q0 270 130.5 459t315.5 189q111 0 199.5 -89t185.5 -298l34 -73q40 112 60 209.5t20 180.5q0 11 -3 45h210q-14 -143 -64.5 -290.5t-137.5 -299.5q187 -348 321 -496h-246z
M888 424l-65 137q-24 51 -77 176q-134 315 -213 315q-76 0 -134.5 -157.5t-58.5 -364.5t56 -332t149 -125q81 0 162 78.5t162 236.5zM635 1283l-71 321h216l-71 -321h-74z" />
    <glyph glyph-name="epsilontonos" unicode="&#x3ad;" horiz-adv-x="1002" 
d="M965 33q-160 -58 -333 -58q-247 0 -390 150t-143 407q0 272 142 425t393 153q135 0 260 -34v-115q-124 38 -229 38q-174 0 -265.5 -101t-91.5 -293h525v-75h-525q11 -216 103 -323.5t266 -107.5q124 0 288 62v-128zM593 1283l-71 321h216l-71 -321h-74z" />
    <glyph glyph-name="etatonos" unicode="&#x3ae;" horiz-adv-x="1303" 
d="M226 0v746q0 155 -96 340h224q38 -85 65 -210q164 235 393 235q151 0 226.5 -94.5t75.5 -283.5v-1128h-197v1130q0 132 -43 198t-129 66q-173 0 -322 -228v-771h-197zM643 1283l-71 321h216l-71 -321h-74z" />
    <glyph glyph-name="iotatonos" unicode="&#x3af;" horiz-adv-x="723" 
d="M695 21q-94 -46 -190 -46q-158 0 -237 100.5t-79 301.5v709h197v-722q0 -150 35 -211t121 -61q75 0 153 35v-106zM251 1283l-71 321h216l-71 -321h-74z" />
    <glyph glyph-name="upsilondiaeresistonos" unicode="&#x3b0;" horiz-adv-x="1246" 
d="M185 1086h197v-591q0 -267 52 -362.5t197 -95.5q139 0 219.5 116t80.5 319q0 165 -56.5 336t-145.5 278h248q121 -265 121 -544q0 -258 -131 -412.5t-350 -154.5q-198 0 -321 122q-67 66 -89 147t-22 259v583zM217 1283v173h173v-173h-173zM834 1283v173h173v-173h-173z
M578 1283l-65 321h198l-65 -321h-68z" />
    <glyph glyph-name="alpha" unicode="&#x3b1;" horiz-adv-x="1480" 
d="M1153 0q-113 147 -197 308q-91 -134 -242 -233.5t-263 -99.5q-139 0 -231 139.5t-92 348.5q0 270 130.5 459t315.5 189q111 0 199.5 -89t185.5 -298l34 -73q40 112 60 209.5t20 180.5q0 11 -3 45h210q-14 -143 -64.5 -290.5t-137.5 -299.5q187 -348 321 -496h-246z
M888 424l-65 137q-24 51 -77 176q-134 315 -213 315q-76 0 -134.5 -157.5t-58.5 -364.5t56 -332t149 -125q81 0 162 78.5t162 236.5z" />
    <glyph glyph-name="beta" unicode="&#x3b2;" horiz-adv-x="1258" 
d="M210 -395v1440q0 268 116.5 413.5t330.5 145.5q170 0 278 -89.5t108 -231.5q0 -115 -79 -213.5t-237 -181.5q195 -42 311 -166.5t116 -292.5q0 -197 -137 -325.5t-347 -128.5q-107 0 -263 42v-412h-197zM407 159q119 -122 273 -122q115 0 199 109.5t84 260.5
q0 156 -129 269.5t-306 113.5h-40v98h23q149 0 241.5 102t92.5 266q0 140 -51 210t-152 70q-106 0 -170.5 -94.5t-64.5 -248.5v-1034z" />
    <glyph glyph-name="gamma" unicode="&#x3b3;" horiz-adv-x="1262" 
d="M560 188l-24 50l-89 186q-150 312 -233.5 406.5t-210.5 94.5h-12l77 161h12q167 0 285 -143t320 -586q132 182 198 325t66 246q0 78 -60 158h236q20 -52 20 -102q0 -98 -90.5 -245.5t-336.5 -452.5q166 -317 166 -451q0 -108 -81 -181.5t-200 -73.5q-105 0 -171 55
t-66 141q0 120 163 366zM593 122q-127 -179 -127 -310q0 -62 29.5 -93t88.5 -31q60 0 90 32t30 95q0 80 -111 307z" />
    <glyph glyph-name="delta" unicode="&#x3b4;" horiz-adv-x="1215" 
d="M570 981q-252 117 -339.5 192t-87.5 175q0 128 110 192t331 64q170 0 330 -43v-167q-193 143 -369 143q-127 0 -190 -35.5t-63 -105.5q0 -47 54.5 -99t164.5 -109l193 -100q206 -108 297 -248t91 -350q0 -239 -130 -377t-355 -138t-357.5 136t-132.5 366q0 210 128 357
t311 147h14zM874 471q0 196 -76 319t-196 123q-119 0 -195 -123t-76 -315q0 -193 76 -315.5t195 -122.5t195.5 122.5t76.5 311.5z" />
    <glyph glyph-name="epsilon" unicode="&#x3b5;" horiz-adv-x="1002" 
d="M965 33q-160 -58 -333 -58q-247 0 -390 150t-143 407q0 272 142 425t393 153q135 0 260 -34v-115q-124 38 -229 38q-174 0 -265.5 -101t-91.5 -293h525v-75h-525q11 -216 103 -323.5t266 -107.5q124 0 288 62v-128z" />
    </font>
</defs>
</svg>
