<?xml version="1.0" standalone="no"?>
<!DOCTYPE svg PUBLIC "-//W3C//DTD SVG 1.1//EN" "http://www.w3.org/Graphics/SVG/1.1/DTD/svg11.dtd" >
<svg xmlns="http://www.w3.org/2000/svg" xmlns:xlink="http://www.w3.org/1999/xlink" version="1.1">
<metadata>
Created by FontForge 20170731 at Tue Feb  3 07:06:06 2015
 By Aleksey,,,
Copyright (c) 2010-2014, Sorkin Type Co (www.sorkintype.com) with Reserved Font Name 'Merriweather'
</metadata>
<defs>
<font id="Merriweather-Regular" horiz-adv-x="1218" >
  <font-face 
    font-family="Merriweather"
    font-weight="400"
    font-stretch="normal"
    units-per-em="2048"
    panose-1="2 6 5 3 5 4 6 3 7 4"
    ascent="1638"
    descent="-410"
    x-height="1137"
    cap-height="1522"
    bbox="-261 -560 2904 2014"
    underline-thickness="96"
    underline-position="-266"
    unicode-range="U+000D-FB02"
  />
<missing-glyph horiz-adv-x="1770" 
d="M177 1416h1416v-1416h-1416v1416zM559 252l324 353l337 -353l113 113l-348 343l348 334l-119 116l-328 -351l-333 352l-114 -116l344 -338l-343 -318z" />
    <glyph glyph-name=".notdef" horiz-adv-x="1770" 
d="M177 1416h1416v-1416h-1416v1416zM559 252l324 353l337 -353l113 113l-348 343l348 334l-119 116l-328 -351l-333 352l-114 -116l344 -338l-343 -318z" />
    <glyph glyph-name=".null" horiz-adv-x="0" 
 />
    <glyph glyph-name=".null" horiz-adv-x="0" 
 />
    <glyph glyph-name="nonmarkingreturn" unicode="&#xd;" horiz-adv-x="0" 
 />
    <glyph glyph-name="space" unicode=" " horiz-adv-x="616" 
 />
    <glyph glyph-name="exclam" unicode="!" horiz-adv-x="727" 
d="M220 1784h263l-60 -1275h-139zM209 116q0 34 14 63t37.5 50t53 33t61.5 12q37 0 63.5 -11t44 -29.5t26 -43.5t8.5 -52q0 -37 -13.5 -66t-36 -49.5t-53 -31.5t-64.5 -11q-28 0 -53.5 9.5t-45 27t-31 42.5t-11.5 57z" />
    <glyph glyph-name="quotedbl" unicode="&#x22;" horiz-adv-x="1244" 
d="M770 1692h235l-48 -754h-141zM240 1692h235l-48 -754h-141z" />
    <glyph glyph-name="numbersign" unicode="#" horiz-adv-x="1523" 
d="M383 361h-217v133h233l37 402h-236v133h251l31 344h177l-31 -344h327l33 344h176l-31 -344h237v-133h-252l-36 -402h244v-133h-258l-33 -361h-177l32 361h-329l-34 -361h-180zM900 494l41 402h-328l-38 -402h325z" />
    <glyph glyph-name="dollar" unicode="$" horiz-adv-x="1370" 
d="M219 416h137l48 -244q86 -79 265 -79q142 0 215 61.5t73 186.5q0 59 -29.5 106.5t-80.5 88.5t-118.5 79t-142.5 78q-88 46 -157 91.5t-116.5 99.5t-72.5 121.5t-25 156.5q0 75 30.5 138t84.5 111t127 79.5t158 43.5v228h158v-224q59 -4 110 -13t92.5 -20.5t72.5 -23
t51 -19.5l-12 -327h-132l-53 233q-30 28 -77 43.5t-120 14.5q-54 0 -103 -13t-86 -39t-59 -67t-22 -97q0 -62 27.5 -109.5t72.5 -86t102.5 -72t117.5 -66.5q98 -56 178 -105.5t136.5 -103.5t87 -120t30.5 -155q0 -83 -28 -153.5t-83.5 -124.5t-138 -88.5t-191.5 -44.5
l-2 -239h-156l2 238q-65 5 -126.5 16t-112.5 24t-89.5 26t-58.5 22z" />
    <glyph glyph-name="percent" unicode="%" horiz-adv-x="2110" 
d="M1298 1538h168l-656 -1538h-168zM474 656q-86 0 -154 33.5t-115 90.5t-72 133t-25 161q0 104 32.5 185t87.5 136.5t128 84t153 28.5q96 0 165 -33t114 -90t66 -134t21 -165q0 -104 -33.5 -184t-89 -135t-128 -83t-150.5 -28zM488 773q46 0 81 22t57.5 62.5t34 96
t11.5 123.5q0 66 -11 123t-32.5 99.5t-54.5 67t-78 24.5q-47 0 -81 -22.5t-57 -63t-34 -97t-11 -123.5q0 -62 10.5 -118t32.5 -99.5t54.5 -69t77.5 -25.5zM1233 459q0 104 32.5 184.5t88 136t128 84.5t152.5 29q96 0 165.5 -33t114 -90t66 -134t21.5 -165q0 -104 -33.5 -184
t-89 -135t-128.5 -83t-151 -28q-86 0 -154 33.5t-115 90.5t-72 133t-25 161zM1438 470q0 -62 10.5 -118t32.5 -99.5t54.5 -69t77.5 -25.5q46 0 81 22t57.5 62.5t34 96t11.5 123.5q0 66 -10.5 123t-32 99.5t-55 67t-78.5 24.5q-47 0 -81 -22.5t-57 -63t-34 -97t-11 -123.5z
" />
    <glyph glyph-name="ampersand" unicode="&#x26;" horiz-adv-x="1551" 
d="M121 372q0 70 26.5 127.5t69 104t96 84t107.5 68.5q-34 44 -65.5 94.5t-55.5 105.5t-38.5 112t-14.5 114q0 73 31 138t85.5 114t129.5 77.5t163 28.5q94 0 163 -25.5t114 -66t66.5 -91.5t21.5 -101q0 -91 -27 -158t-73.5 -120.5t-108 -99t-130.5 -91.5q36 -44 84.5 -101
t100 -115.5t101 -112.5t87.5 -91l45 -44q30 42 49 89t29 95t12 96t-2 91l-161 25v123h489v-123l-161 -25q1 -72 -11.5 -139t-34.5 -126t-52.5 -108.5t-64.5 -87.5q57 -53 116 -86.5t138 -40.5v-96q-11 -6 -31 -11t-42.5 -8t-43.5 -4.5t-34 -1.5q-38 0 -70 6.5t-62.5 20
t-61.5 34t-67 49.5q-42 -33 -90 -55t-96.5 -35t-94.5 -18.5t-85 -5.5q-124 0 -225 25.5t-172 75t-110 122.5t-39 168zM615 867q57 46 96.5 88t64 86t36 94t11.5 112q0 26 -6 59.5t-24 63t-52 50t-90 20.5q-39 0 -73.5 -17t-59.5 -48t-39.5 -73t-14.5 -92q0 -58 14.5 -108.5
t37 -93t49 -78t50.5 -63.5zM339 399q0 -58 21 -111.5t64 -94t107 -64.5t151 -24q30 0 63 4t66.5 13t65.5 22.5t60 33.5q-51 48 -110.5 110.5t-119 129.5t-115.5 133t-102 121q-32 -27 -59.5 -56.5t-48 -63t-32 -71.5t-11.5 -82z" />
    <glyph glyph-name="quotesingle" unicode="'" horiz-adv-x="714" 
d="M240 1692h235l-48 -754h-141z" />
    <glyph glyph-name="parenleft" unicode="(" horiz-adv-x="880" 
d="M135 685q0 149 30 278t77.5 236.5t105.5 193t114.5 148t104.5 102t75 54.5l94 -64q-22 -14 -57.5 -48t-77.5 -89t-84.5 -130.5t-78.5 -172t-60 -214t-27 -255.5q-4 -154 17 -285t56 -240t80 -195t90 -149.5t84.5 -104t64.5 -58.5l-101 -69q-23 14 -69.5 50t-102.5 96
t-115.5 146t-108.5 199.5t-80 255.5t-31 315z" />
    <glyph glyph-name="parenright" unicode=")" horiz-adv-x="880" 
d="M744.008 635.042q0 -148.991 -29.998 -277.983t-77.4951 -236.485t-105.493 -192.988q-57.9971 -85.4951 -114.493 -147.991q-56.4971 -62.4961 -104.494 -101.993q-47.9971 -39.498 -74.9951 -54.4971l-93.9941 63.9961q21.999 13.999 57.4961 47.9971
q35.498 33.998 77.4961 88.9951q41.9971 54.9961 84.4941 130.491q42.498 75.4961 78.4951 171.99q35.998 96.4941 59.9971 213.986q23.998 117.493 26.998 255.484q4 153.991 -16.999 284.982q-20.999 130.992 -55.9971 239.985q-34.9971 108.994 -79.9941 194.988
q-44.998 85.9951 -89.9951 149.491t-84.4951 103.993q-39.4971 40.498 -64.4961 58.4971l100.994 68.9951q22.999 -13.999 69.4961 -49.9961q46.4971 -35.998 102.493 -95.9941q55.9971 -59.9971 115.493 -145.991q59.4961 -85.9951 108.493 -199.488t79.9951 -255.484
t30.998 -314.98z" />
    <glyph glyph-name="asterisk" unicode="*" horiz-adv-x="1314" 
d="M152 979l278 127l169 53l-169 49l-282 122l101 177l247 -182l132 -119l-43 171l-39 307h208l-32 -305l-38 -170l127 120l247 186l103 -175l-277 -127l-172 -53l172 -49l282 -119l-105 -183l-243 182l-134 119l44 -171l40 -305l-209 -1l31 306l38 173l-127 -124l-245 -186
z" />
    <glyph glyph-name="plus" unicode="+" horiz-adv-x="1353" 
d="M215 695h210l174 -12l-7 167v228h169v-228l-9 -167l147 12h239v-167h-239l-147 7l9 -164v-240h-169v240l7 164l-174 -7h-210v167z" />
    <glyph glyph-name="comma" unicode="," horiz-adv-x="687" 
d="M212 168q0 31 11 56t29 43t42 27.5t50 9.5h12q37 0 67.5 -17.5t52.5 -50.5t33.5 -80t11.5 -106q0 -89 -23.5 -170.5t-60 -147.5t-80.5 -113.5t-85 -69.5h-2l-67 55v24q18 15 40.5 38.5t41.5 57t32 78t13 100.5q0 36 -8.5 60.5t-22 43t-28.5 33.5t-28.5 32.5t-22 40
t-8.5 56.5z" />
    <glyph glyph-name="hyphen" unicode="-" horiz-adv-x="1310" 
d="M230 697h850v-162h-850v162z" />
    <glyph glyph-name="period" unicode="." horiz-adv-x="597" 
d="M145 116q0 34 14 63.5t37.5 50.5t53 33t60.5 12q36 0 63 -11t44.5 -30t26 -43.5t8.5 -51.5q0 -36 -13.5 -65.5t-36.5 -50.5t-53 -32t-64 -11q-27 0 -52.5 9.5t-45 27.5t-31 43t-11.5 56z" />
    <glyph glyph-name="slash" unicode="/" horiz-adv-x="882" 
d="M620 1599h192l-550 -1962h-192z" />
    <glyph glyph-name="zero" unicode="0" horiz-adv-x="1307" 
d="M638 -21q-139 0 -237.5 53t-160.5 144t-90.5 212t-26.5 258q1 153 46 273t120.5 202.5t175.5 126t211 43.5q141 0 238.5 -48t158 -134t87 -204t25.5 -257q-1 -152 -43.5 -275.5t-116 -211t-173 -135t-214.5 -47.5zM655 91q79 0 133.5 37t87.5 107t47.5 170.5t14.5 227.5
q0 124 -14 224.5t-47 172t-87 110.5t-133 39q-80 0 -135 -35.5t-89 -102t-49.5 -163t-15.5 -218.5q0 -119 15 -222.5t49 -180.5t89 -121.5t134 -44.5z" />
    <glyph glyph-name="one" unicode="1" horiz-adv-x="887" 
d="M118 109l254 25v904q-20 -8 -55 -17.5t-73.5 -18t-76 -15t-63.5 -8.5l-25 123q54 12 108.5 31.5t105.5 44.5t96.5 54t82.5 60h1l131 -21v-1137l232 -25v-109h-718v109z" />
    <glyph glyph-name="two" unicode="2" horiz-adv-x="1223" 
d="M88 92q92 52 178 113t161.5 127.5t138.5 137t108 141.5t70 141.5t25 136.5q0 55 -17 99.5t-49.5 75.5t-79 47.5t-105.5 16.5q-66 0 -120.5 -16t-98 -39.5t-76.5 -50.5t-57 -49l-69 98q30 34 79 73t113 72t140.5 55t161.5 22q112 0 193.5 -31.5t135 -83t79 -118.5
t25.5 -138t-25 -143t-70 -142t-107.5 -138t-136.5 -132t-157 -122.5t-170 -110.5l612 47l71 157l114 -24l-50 -314h-983z" />
    <glyph glyph-name="three" unicode="3" horiz-adv-x="1141" 
d="M118 -180q17 -5 38 -8.5t43 -6t44 -4t41 -1.5q117 0 210 28.5t158.5 78.5t100 117t34.5 144q0 66 -18 119t-58 90.5t-102.5 59t-151.5 25.5q-2 0 -22 -5t-43.5 -10.5t-44 -10t-21.5 -4.5l-38 118q43 6 84 18t79 27q61 26 111 62t86 78.5t56.5 91t20.5 99.5
q1 60 -18 100.5t-51.5 65.5t-75 35.5t-88.5 10.5q-50 0 -96.5 -9t-88 -23.5t-77.5 -34t-64 -40.5l-58 98q24 23 69.5 51.5t105.5 54t130.5 43t144.5 17.5q86 0 161.5 -18t131.5 -57.5t88.5 -102t32.5 -150.5q0 -75 -31.5 -143.5t-84 -125.5t-122 -101t-144.5 -69
q106 9 190 -14t143 -69t90.5 -111t32.5 -140q1 -113 -49.5 -209t-144.5 -166t-228 -109t-300 -39q-24 0 -51.5 2t-55 5.5t-53.5 8t-46 9.5v124v0z" />
    <glyph glyph-name="four" unicode="4" horiz-adv-x="1317" 
d="M66 100q45 84 97 186t106 214t109.5 229.5t109 233.5t103 226t91.5 206h54l180 -99l-556 -1042l-84 -127l525 30l7 379l195 18v-386l264 16v-184h-264v-332h-202v332h-677l-58 100v0z" />
    <glyph glyph-name="five" unicode="5" horiz-adv-x="1209" 
d="M181 -210q26 -2 58 -4t60 -2q105 0 198.5 33t164 93.5t111.5 145t41 186.5q0 88 -22 149t-62.5 99t-96.5 54.5t-123 16.5q-31 0 -66.5 -5.5t-70.5 -14.5t-68.5 -21.5t-61.5 -27.5l-58 43l90 736h574l21 39h137l-39 -227h-533l-80 -456q29 16 64.5 30.5t75 25t81.5 16.5
t83 6q96 0 172.5 -25.5t129.5 -78.5t81.5 -134t28.5 -192q0 -79 -24.5 -155t-70.5 -143.5t-112 -124t-149 -97.5t-182 -64t-210 -23q-34 0 -71 3.5t-72 11.5l1 107v0z" />
    <glyph glyph-name="six" unicode="6" horiz-adv-x="1353" 
d="M154 597q0 135 34.5 258t95 229.5t142 195.5t175.5 156.5t195.5 111.5t202.5 61l49 -94q-123 -40 -223 -105.5t-176.5 -149.5t-129.5 -182t-82 -201q23 23 55.5 46t74 41t92.5 29t111 11q106 0 187.5 -32.5t136.5 -92.5t83 -146t28 -192q0 -110 -34.5 -211.5t-101 -180
t-164 -125.5t-223.5 -47q-130 0 -228.5 49.5t-165 134t-100.5 197.5t-34 239zM695 88q70 0 121 36t84 93t48.5 127.5t15.5 139.5q0 106 -20 179t-54.5 119t-82 66.5t-102.5 20.5t-102.5 -12t-85.5 -31t-65 -41t-42 -41q-3 -23 -4.5 -46t-2.5 -46q-3 -109 8.5 -210.5
t44.5 -180t91 -126t148 -47.5z" />
    <glyph glyph-name="seven" unicode="7" horiz-adv-x="1168" 
d="M295 -284q78 165 154.5 341.5t150.5 355t145 355t139 341.5l-594 -7l-83 -248l-134 25l44 392h929l46 -56l-550 -1566l-247 67v0z" />
    <glyph glyph-name="eight" unicode="8" horiz-adv-x="1301" 
d="M141 366q0 58 18.5 114.5t57 108.5t97.5 98t139 83q-53 34 -99.5 73.5t-81.5 88.5t-55.5 109t-20.5 135q0 91 39 160.5t103.5 117t147.5 71.5t170 24q99 0 180 -23.5t139.5 -67t90.5 -105.5t32 -139q0 -55 -18 -109t-51.5 -104t-82.5 -95.5t-111 -82.5q67 -38 128.5 -81
t109 -95t76 -115t28.5 -141q0 -95 -42.5 -171.5t-114.5 -130t-166.5 -82.5t-197.5 -29q-91 0 -182.5 21.5t-165.5 68t-120.5 120.5t-46.5 178zM742 876q39 25 69.5 57.5t52.5 69.5t33.5 76.5t11.5 79.5q0 71 -18.5 125t-52.5 90t-82 54.5t-107 18.5q-57 0 -104 -15
t-80.5 -43.5t-52 -69t-18.5 -91.5q0 -60 29 -108.5t77.5 -90.5t111 -79t130.5 -74zM351 411q0 -72 20 -131t60 -102t99 -66.5t136 -23.5q57 0 108 18.5t89.5 52t61 80t22.5 102.5q0 70 -35.5 122t-93.5 95t-130.5 81t-146.5 79q-41 -24 -75.5 -56t-60 -71t-40 -84.5
t-14.5 -95.5z" />
    <glyph glyph-name="nine" unicode="9" horiz-adv-x="1355" 
d="M363 -241q120 40 214 105t164 146.5t116 177.5t72 199q-24 -23 -56.5 -44.5t-71.5 -38.5t-84 -27t-95 -10q-107 0 -192.5 35t-146.5 98.5t-93.5 153.5t-32.5 200q0 106 35.5 204t103 172t166.5 118.5t225 44.5q135 0 234 -47.5t163.5 -129.5t96 -193t31.5 -237
q0 -139 -31.5 -263.5t-86.5 -232.5t-131 -197t-164.5 -156.5t-187 -111.5t-198.5 -61zM662 402q53 0 99 11t83.5 27.5t65 37t43.5 39.5q8 59 9 116q3 105 -7.5 204t-42.5 175.5t-89.5 122.5t-149.5 46q-71 0 -123 -35t-86 -90t-50.5 -123t-16.5 -133q0 -110 20.5 -185.5
t56.5 -123t84 -68.5t104 -21z" />
    <glyph glyph-name="colon" unicode=":" horiz-adv-x="706" 
d="M199 961q0 34 14 63.5t37.5 50.5t53 33t60.5 12q36 0 63 -11t44.5 -30t26 -43.5t8.5 -51.5q0 -36 -13.5 -65.5t-36.5 -50.5t-53 -32t-64 -11q-27 0 -52.5 9.5t-45 27.5t-31 43t-11.5 56zM199 116q0 34 14 63.5t37.5 50.5t53 33t60.5 12q36 0 63 -11t44.5 -30t26 -43.5
t8.5 -51.5q0 -36 -13.5 -65.5t-36.5 -50.5t-53 -32t-64 -11q-27 0 -52.5 9.5t-45 27.5t-31 43t-11.5 56z" />
    <glyph glyph-name="semicolon" unicode=";" horiz-adv-x="706" 
d="M213 168q0 31 11 56t29 43t42 27.5t50 9.5h12q37 0 67.5 -17.5t52.5 -50.5t33.5 -80t11.5 -106q0 -89 -23.5 -170.5t-60 -147.5t-80.5 -113.5t-85 -69.5h-2l-67 55v24q18 15 40.5 38.5t41.5 57t32 78t13 100.5q0 36 -8.5 60.5t-22 43t-28.5 33.5t-28.5 32.5t-22 40
t-8.5 56.5zM201 961q0 34 14 63.5t37.5 50.5t53 33t60.5 12q36 0 63 -11t44.5 -30t26 -43.5t8.5 -51.5q0 -36 -13.5 -65.5t-36.5 -50.5t-53 -32t-64 -11q-27 0 -52.5 9.5t-45 27.5t-31 43t-11.5 56z" />
    <glyph glyph-name="less" unicode="&#x3c;" horiz-adv-x="1370" 
d="M168 679l968 499v-195l-758 -367l758 -368v-193l-968 498v126z" />
    <glyph glyph-name="equal" unicode="=" horiz-adv-x="1337" 
d="M208 970h922v-159h-922v159zM208 420h922v-159h-922v159z" />
    <glyph glyph-name="greater" unicode="&#x3e;" horiz-adv-x="1370" 
d="M1202.01 679l-967.94 499v-195l757.954 -367l-757.954 -368v-193l967.94 498v126z" />
    <glyph glyph-name="question" unicode="?" horiz-adv-x="994" 
d="M340 487q-17 18 -34 56t-31 83t-23.5 89.5t-11.5 74.5q0 56 31 98t79 75.5t106 62.5t112 58.5t97.5 63t61.5 76.5v28q0 79 -29 157t-86 140t-142.5 101t-199.5 39q-41 0 -73.5 -4t-55.5 -9l-35 131q8 6 33 12.5t58.5 12t73 8.5t77.5 3q105 0 189 -20t149 -55.5
t111.5 -83.5t76.5 -103.5t44 -116.5t14 -121q0 -77 -30 -138t-76 -110t-103 -89t-111 -75.5t-99 -69t-67 -69.5q-2 -10 -2.5 -22.5t-0.5 -24.5q1 -67 8 -120t18 -106zM341 94q-5 28 2.5 54t24 46.5t39 34.5t48.5 19q30 5 54 0.5t42.5 -16.5t31 -31t18.5 -42q7 -31 0.5 -57
t-22.5 -46t-40 -33t-51 -17q-23 -6 -46 -3t-43.5 14.5t-35.5 31t-22 45.5z" />
    <glyph glyph-name="at" unicode="@" horiz-adv-x="2203" 
d="M186 361q0 177 40.5 333.5t113 287.5t173 235.5t220 176.5t254 110.5t275.5 38.5q158 0 290 -46.5t227 -140.5t148 -234.5t53 -328.5q0 -137 -30 -252t-79 -206.5t-110.5 -160t-124.5 -114.5t-121.5 -69t-101.5 -23q-27 0 -51 12t-43 34.5t-31.5 56t-15.5 76.5
q-4 42 2 113t24 177q-33 -89 -77 -174t-95.5 -152.5t-109 -108.5t-118.5 -41q-51 0 -102 28t-91.5 81t-65.5 129.5t-25 173.5q0 72 16.5 150t47.5 153t77 142.5t104.5 118.5t129.5 81t153 30q53 0 116 -13t117 -42q3 10 7 19.5t9.5 16.5t12.5 11t16 2q31 -9 59.5 -20.5
t65.5 -22.5q-8 -36 -17.5 -84.5t-19.5 -104t-20 -115t-18.5 -119.5t-15.5 -117t-11 -106q-9 -107 2.5 -164.5t32.5 -57.5q54 0 116 43.5t115 123.5t88 192.5t35 251.5q0 120 -25 216t-69.5 169t-105.5 125t-133 85t-152 48.5t-162 15.5q-110 0 -214.5 -31t-197.5 -90
t-171 -145.5t-134 -197t-87.5 -244.5t-31.5 -289q0 -194 50.5 -339t137.5 -241.5t204 -144.5t250 -48q54 0 113.5 7t115.5 19.5t103.5 29.5t76.5 37l40 -90q-39 -32 -92 -59t-116 -46.5t-133.5 -30.5t-144.5 -11q-183 0 -326 61t-241 174.5t-149.5 275.5t-51.5 363zM813 424
q0 -40 6 -87.5t21 -88t40.5 -68t64.5 -27.5q36 0 79 39.5t86 103.5t83 146t70 168q19 56 33.5 111.5t21.5 103.5q-15 15 -43.5 28.5t-61.5 23.5t-65.5 16t-56.5 6q-66 0 -118 -41t-87.5 -108t-54 -152.5t-18.5 -173.5z" />
    <glyph glyph-name="A" unicode="A" horiz-adv-x="1417" 
d="M-34 109l127 24l493 1401h238l497 -1401l127 -24v-109h-549v109l163 24l-95 292h-588l-91 -292l171 -24v-109h-492zM926 552l-214 657l-44 168l-44 -170l-205 -655h507z" />
    <glyph glyph-name="B" unicode="B" horiz-adv-x="1401" 
d="M96 109l168 24v1253l-165 25v111h272q47 0 87.5 2.5t78.5 5t74.5 5t74.5 2.5q145 0 246.5 -23t165.5 -67.5t93 -108.5t29 -146q0 -71 -20.5 -133t-59.5 -111.5t-96 -83.5t-130 -48q95 3 171.5 -22t130.5 -72.5t83 -115.5t29 -152q0 -91 -30 -175.5t-102 -149t-193 -103
t-302 -38.5q-41 0 -76 2t-72 4t-80 4t-100 2h-277v109zM498 861q19 -2 46 -2.5t56 -1t56 -0.5h47q145 0 214 74.5t69 218.5q0 69 -16 120t-52.5 84.5t-96 50.5t-147.5 17q-64 0 -109 -5t-67 -7v-549zM497 123q13 -6 36.5 -10t51 -5.5t56.5 -2t54 -0.5q103 0 175.5 22
t117.5 62.5t65.5 99t20.5 132.5q0 83 -19.5 141.5t-61 96t-107 55t-156.5 17.5h-58.5h-65t-61.5 -0.5t-48 -1.5v-606z" />
    <glyph glyph-name="C" unicode="C" horiz-adv-x="1335" 
d="M66 762q0 181 57.5 325t157.5 244t235.5 153.5t291.5 53.5q68 0 135 -7.5t125.5 -18t105.5 -21t76 -15.5l-19 -374h-149l-56 255q-20 26 -82 43.5t-171 17.5q-95 0 -175 -41t-138 -121t-90.5 -198t-32.5 -272q0 -133 26.5 -257.5t82.5 -220.5t143 -154t209 -58q52 0 90 7
t65.5 17.5t45.5 23.5t30 26l87 211l142 -19l-44 -306q-40 -3 -76 -15.5t-80.5 -26.5t-102.5 -25.5t-141 -11.5q-180 0 -319.5 53.5t-235 154.5t-144.5 246.5t-49 330.5z" />
    <glyph glyph-name="D" unicode="D" horiz-adv-x="1561" 
d="M95 109l169 24v1252l-158 26v111h267q46 0 90.5 2.5t88.5 5t88.5 5t92.5 2.5q197 0 340 -51t235.5 -146t136.5 -229.5t44 -301.5q0 -187 -56.5 -340.5t-159 -262.5t-245.5 -167.5t-317 -54.5q-38 1 -79.5 3.5t-84 5.5t-84.5 5t-80 2h-288v109zM498 123q57 -15 114 -17.5
t122 -1.5q109 2 201 44.5t158.5 125t103.5 205.5t37 287q0 320 -137 486.5t-417 166.5q-66 0 -110.5 -5.5t-71.5 -7.5v-1283z" />
    <glyph glyph-name="E" unicode="E" horiz-adv-x="1339" 
d="M96 109l168 24v1253l-165 25v111h1042l28 -317h-129l-62 190l-479 13v-565l325 6l30 166h129v-474h-129l-29 176l-326 5v-598l550 22l113 251l128 -38l-59 -359h-1135v109z" />
    <glyph glyph-name="F" unicode="F" horiz-adv-x="1270" 
d="M99 109l165 24v1253l-168 25v111h1092l21 -350h-145l-66 222l-499 14v-583l348 4l40 168h123v-477h-123l-40 171l-348 9v-567l304 -24v-109h-704v109z" />
    <glyph glyph-name="G" unicode="G" horiz-adv-x="1522" 
d="M87 738q0 190 60 338.5t165 251.5t247.5 157t306.5 54q80 0 155 -7.5t138.5 -18t111.5 -21.5t75 -17l-20 -355h-154l-54 237q-9 9 -27.5 20.5t-50 21t-78.5 16.5t-112 7q-108 0 -198.5 -39.5t-156 -118.5t-102 -197t-36.5 -275q0 -90 12.5 -176t38.5 -163.5t65 -143
t92.5 -113t121 -74t150.5 -26.5q42 0 84.5 5t81 15.5t70.5 26.5t55 38v438l-245 23v129h597v-129l-117 -21v-539q-39 -2 -91.5 -18.5t-120 -36t-150.5 -35t-184 -15.5q-173 0 -308.5 58t-229.5 160t-143 241t-49 302z" />
    <glyph glyph-name="H" unicode="H" horiz-adv-x="1700" 
d="M100 109l165 24v1252l-159 26v111h566v-111l-172 -25v-540h700v540l-164 25v111h559v-111l-160 -25v-1254l160 -23v-109h-558v109l163 23v582h-700v-581l172 -24v-109h-572v109z" />
    <glyph glyph-name="I" unicode="I" horiz-adv-x="827" 
d="M112 109l183 24v1252l-183 26v111h602v-111l-183 -25v-1253l186 -27v-106h-605v109z" />
    <glyph glyph-name="J" unicode="J" horiz-adv-x="780" 
d="M247 -5q12 40 20 82.5t13 98t7 130t2 179.5v900l-188 26v111h602v-111l-181 -26v-820q0 -165 -2 -296.5t-22 -222.5q-20 -92 -66.5 -162.5t-109 -121.5t-134.5 -83t-143 -47l-57 92q36 9 74.5 32.5t74 58.5t64.5 80.5t46 99.5z" />
    <glyph glyph-name="K" unicode="K" horiz-adv-x="1489" 
d="M97 109l169 24v1253l-165 25v111h562v-111l-162 -26v-700l578 701l-165 25l-1 111h510v-110l-156 -26l-429 -486q36 -32 76.5 -81t82 -108t83.5 -124t82 -128t76.5 -121t67.5 -102.5t55 -72t39 -30.5l90 -25v-108h-307q-25 0 -58.5 42t-73 108.5t-83.5 149.5t-89.5 165.5
t-91 155.5t-87.5 120l-199 -229v-380l188 -24v-108h-592v109z" />
    <glyph glyph-name="L" unicode="L" horiz-adv-x="1301" 
d="M98 109l168 24v1253l-165 25v111h595v-111l-193 -26v-1253l505 20l122 334l134 -23l-68 -463h-1098v109z" />
    <glyph glyph-name="M" unicode="M" horiz-adv-x="2046" 
d="M1 109l178 23l150 1254l-214 25v111h546l314 -917l52 -230l45 230l277 917h546v-111l-222 -26l194 -1252l179 -24v-109h-594v109l177 23l-126 908l-44 399l-69 -274l-326 -1097h-129l-361 985l-111 385l-32 -397l-81 -908l197 -24v-109h-546v109z" />
    <glyph glyph-name="N" unicode="N" horiz-adv-x="1638" 
d="M98 109l165 23v1253l-165 26v111h395l673 -983l106 -198v1045l-179 25v111h496v-111l-166 -26v-1385h-164l-689 1003l-156 272v-1142l191 -24v-109h-507v109z" />
    <glyph glyph-name="O" unicode="O" horiz-adv-x="1480" 
d="M727 -23q-163 -3 -286.5 52.5t-207 158t-125.5 246t-42 316.5q0 181 52.5 326.5t145.5 248.5t219.5 158.5t274.5 55.5q163 0 286 -54.5t205 -154t123 -240.5t41 -313q0 -181 -52 -327.5t-143.5 -250.5t-217 -161.5t-273.5 -60.5zM740 95q94 0 170.5 42.5t130.5 127
t83.5 212.5t29.5 299q0 150 -27.5 270t-80.5 203.5t-130 128t-175 44.5q-94 0 -170.5 -40.5t-131 -123.5t-84 -209.5t-29.5 -297.5q0 -150 27.5 -271.5t80.5 -207t130 -131.5t176 -46z" />
    <glyph glyph-name="P" unicode="P" horiz-adv-x="1328" 
d="M98 109l168 23v1253l-157 26v111h247q47 0 83.5 2t75 5t84 5t110.5 2q163 0 272 -29.5t175 -85.5t93.5 -137.5t27.5 -185.5q0 -127 -44.5 -226t-123.5 -167.5t-188 -104.5t-238 -36q-28 0 -57.5 1t-55 2t-44 2.5t-25.5 3.5v-441l270 -23v-109h-673v109zM500 691
q28 -5 70 -7t113 -2q66 0 128 19.5t109.5 67t76 127t28.5 200.5q0 88 -21.5 149.5t-64.5 100.5t-108 57t-152 18q-35 0 -60.5 -2t-46 -4t-37.5 -4.5t-35 -2.5v-717z" />
    <glyph glyph-name="Q" unicode="Q" horiz-adv-x="1502" 
d="M737 -23q-163 -3 -286.5 52.5t-207 158t-125.5 246t-42 316.5q0 181 52.5 326.5t145.5 248.5t219.5 158.5t274.5 55.5q163 0 286 -54.5t205 -154t123 -240.5t41 -313q0 -132 -28 -246.5t-80 -207.5t-124.5 -163.5t-162.5 -114.5q65 -2 130.5 -25t131.5 -56t131 -70.5
t127 -70t120.5 -53.5t111.5 -21h2h28.5t26.5 1l33 -110q-9 -7 -25 -18t-41.5 -21.5t-61.5 -18t-84 -7.5h-11q-89 0 -163 28.5t-138.5 72t-122.5 95.5t-115 98t-116 80t-125 42q-32 -6 -64 -9.5t-66 -4.5zM750 95q94 0 170.5 42.5t130.5 127t83.5 212.5t29.5 299
q0 150 -27.5 270t-80.5 203.5t-130 128t-175 44.5q-94 0 -170.5 -40.5t-131 -123.5t-84 -209.5t-29.5 -297.5q0 -150 27.5 -271.5t80.5 -207t130 -131.5t176 -46z" />
    <glyph glyph-name="R" unicode="R" horiz-adv-x="1440" 
d="M96 109l168 22v1256l-158 26v109h275q41 0 79.5 2.5t76.5 5t77 5t82 2.5q153 0 259 -25t171.5 -75t95 -125.5t29.5 -176.5q0 -69 -19.5 -136t-58 -124.5t-94 -101.5t-127.5 -66q43 -25 83.5 -75.5t78 -112t71.5 -127.5t65.5 -121.5t60 -94t54.5 -44.5l78 -24v-108h-296
q-20 0 -41.5 25t-45 66.5t-48.5 95.5t-51 112t-53 116.5t-55 108.5t-56.5 87.5t-56.5 54.5h-66t-72.5 0.5t-64 1t-39.5 1.5v-538l197 -22v-109h-599v109zM498 786q17 -2 48 -2.5t65 -0.5t65 0.5t48 0.5q63 0 113 20.5t85.5 61.5t54.5 104t19 149q0 66 -15 121t-52.5 95
t-100.5 62.5t-158 22.5q-37 0 -64 -1.5t-47 -3.5t-34.5 -4t-26.5 -3v-622z" />
    <glyph glyph-name="S" unicode="S" horiz-adv-x="1215" 
d="M134 440h139l40 -256q16 -17 43.5 -33t63.5 -28t78.5 -19t89.5 -7q152 0 226 67.5t74 183.5q0 60 -25 106t-71 83.5t-110.5 70.5t-142.5 68q-62 28 -132.5 67t-131 94.5t-100.5 131t-40 176.5q0 85 35 157.5t99.5 125t156.5 82t207 29.5q73 0 136.5 -10t115 -23t90 -25
t61.5 -15l-13 -343h-134l-46 243q-9 10 -29 20t-48.5 18t-63 13t-71.5 5q-138 0 -204 -55.5t-66 -162.5q0 -60 24.5 -104.5t70.5 -82t111 -72t145 -73.5q72 -36 146.5 -76.5t135.5 -94t99.5 -122.5t38.5 -161q0 -79 -33.5 -157.5t-101 -141.5t-170 -102.5t-241.5 -39.5
q-89 0 -164.5 13.5t-135 30.5t-102.5 32t-67 17z" />
    <glyph glyph-name="T" unicode="T" horiz-adv-x="1411" 
d="M324 109l261 24v1270l-333 -10l-75 -418h-145l35 547h1266l32 -547h-143l-76 418l-320 10v-1270l283 -24v-109h-785v109z" />
    <glyph glyph-name="U" unicode="U" horiz-adv-x="1508" 
d="M184 1385l-144 26v111h558v-111l-170 -26v-765q0 -145 27 -244t76.5 -159.5t118.5 -87t153 -26.5q90 0 157 34t112 99t67.5 159t22.5 214v776l-165 26v111h479v-111l-148 -26v-766q0 -165 -42 -285t-116 -198t-175 -115t-219 -37q-155 0 -267 39t-184 119.5t-106.5 205
t-34.5 295.5v742z" />
    <glyph glyph-name="V" unicode="V" horiz-adv-x="1367" 
d="M93 1385l-127 26v111h561v-111l-184 -25l329 -953l68 -233l59 236l303 949l-156 26v111h462v-111l-132 -26l-482 -1400h-188z" />
    <glyph glyph-name="W" unicode="W" horiz-adv-x="2046" 
d="M90 1384l-134 27v111h559v-111l-183 -27l279 -946l52 -271l61 271l229 771l-56 176l-141 26v111h578v-111l-192 -26l274 -947l61 -294l53 294l261 946l-202 27v111h498v-111l-133 -27l-413 -1394h-216l-302 996l-295 -996h-206z" />
    <glyph glyph-name="X" unicode="X" horiz-adv-x="1462" 
d="M12 109l175 23l424 628l-419 625l-150 26v111h613v-111l-181 -26l309 -500l306 500l-173 26v111h508v-111l-160 -26l-410 -585l453 -668l156 -23v-109h-613v109l174 24l-339 540l-317 -541l196 -23v-109h-552v109z" />
    <glyph glyph-name="Y" unicode="Y" horiz-adv-x="1317" 
d="M333 109l219 24v459l-452 792l-128 27v111h548v-111l-155 -26l282 -543l57 -145l65 143l268 546l-162 25v111h473v-111l-133 -25l-420 -789v-465l224 -23v-109h-686v109z" />
    <glyph glyph-name="Z" unicode="Z" horiz-adv-x="1346" 
d="M858 1278l112 136l-573 -22l-112 -265l-125 17l44 384h993l51 -96l-780 -1177l-128 -138l673 39l113 310l130 -26l-48 -440h-1084l-59 98z" />
    <glyph glyph-name="bracketleft" unicode="[" horiz-adv-x="873" 
d="M191 1429q0 69 12 112t37.5 66.5t65 31.5t95.5 8q84 0 155 -13.5t134 -27.5v-94h-297v-1656h297v-95q-65 -17 -136 -29.5t-153 -12.5q-56 0 -95.5 8t-65 31.5t-37.5 66.5t-12 112v1492z" />
    <glyph glyph-name="backslash" unicode="\" horiz-adv-x="882" 
d="M251.038 1599h-191.988l549.966 -1962h191.988z" />
    <glyph glyph-name="bracketright" unicode="]" horiz-adv-x="873" 
d="M682.012 1429q0 69 -11.999 112q-12 43 -37.498 66.5t-64.9961 31.5q-39.4971 8 -95.4941 8q-83.9951 0 -154.99 -13.5q-70.9961 -13.5 -133.992 -27.5v-94h296.982v-1656h-296.982v-95q64.9961 -17 135.992 -29.5q70.9951 -12.5 152.99 -12.5q55.9971 0 95.4941 8
q39.498 8 64.9961 31.5t37.498 66.5q11.999 43 11.999 112v1492z" />
    <glyph glyph-name="asciicircum" unicode="^" horiz-adv-x="1363" 
d="M579 1531h200l404 -1259h-210l-293 1036l-292 -1036h-208z" />
    <glyph glyph-name="underscore" unicode="_" horiz-adv-x="1711" 
d="M1731 -250v-136h-1751v136h1751z" />
    <glyph glyph-name="grave" unicode="`" horiz-adv-x="681" 
d="M393 1334q-23 8 -58 30t-75.5 52t-83 65.5t-80.5 71t-67 67.5t-43 55l159 139h1l330 -406l-82 -74h-1v0z" />
    <glyph glyph-name="a" unicode="a" horiz-adv-x="1148" 
d="M85 302q0 105 56.5 178t150 119t214 68t249.5 24v52q0 68 -10 116t-35.5 78t-68.5 44t-109 14q-56 0 -108.5 -9.5t-98.5 -24t-84 -31t-65 -30.5h-1l-50 104q17 16 64.5 42.5t112 52t139.5 44t147 18.5q108 0 182 -21.5t119.5 -69.5t65.5 -124.5t20 -185.5v-650h122v-98
q-19 -5 -45.5 -11t-56.5 -11t-60.5 -9t-57.5 -4q-29 0 -49 3t-33 13.5t-19 31t-6 54.5v48q-17 -16 -48.5 -41.5t-75 -49.5t-98 -41.5t-117.5 -17.5q-69 0 -132 19t-110.5 58.5t-75.5 101t-28 146.5zM334 331q0 -55 14.5 -93.5t40 -63t61 -35.5t76.5 -11q23 0 52.5 7
t60.5 19.5t61 29t55 35.5v359q-116 0 -196 -20.5t-130 -54t-72.5 -78.5t-22.5 -94z" />
    <glyph glyph-name="b" unicode="b" horiz-adv-x="1241" 
d="M160 1522l-165 20v94l337 43h5l50 -34v-611q25 25 58.5 49t74 43t88 30.5t102.5 11.5q87 0 167.5 -31.5t142.5 -99t99 -173.5t37 -255q0 -132 -41 -247t-117.5 -200.5t-186 -135t-247.5 -49.5q-78 0 -147.5 8.5t-123 21t-88.5 26t-45 23.5v1466zM387 157q7 -16 25 -28
t43.5 -20.5t57.5 -12.5t66 -4q71 0 131 29.5t104 89.5t69 151t27 213q1 114 -21 196.5t-61.5 136.5t-93 79.5t-116.5 25.5q-40 0 -75.5 -10t-65 -26t-52.5 -34.5t-38 -35.5v-750z" />
    <glyph glyph-name="c" unicode="c" horiz-adv-x="1047" 
d="M77 551q0 126 36 238t108.5 196.5t180.5 133.5t251 49q52 0 99 -7t87 -16.5t71 -20.5t51 -18l-10 -308h-139l-46 187q-14 34 -57 49.5t-98 15.5q-65 0 -118 -26.5t-91.5 -79.5t-59.5 -133t-21 -186q-1 -130 25 -223.5t70.5 -153.5t104 -88.5t127.5 -28.5q47 0 89.5 8
t78.5 20.5t66 28t52 31.5l43 -92q-26 -27 -66 -53.5t-90.5 -48t-107.5 -35t-116 -13.5q-130 0 -227 44t-162 121t-97.5 182t-33.5 227z" />
    <glyph glyph-name="d" unicode="d" horiz-adv-x="1272" 
d="M531 -23q-89 0 -169.5 34t-142 103.5t-98 176t-36.5 251.5q0 130 40 244t116 199t185.5 134t248.5 49q49 0 94.5 -5.5t86.5 -13.5v373l-201 20v97l373 40h6l49 -36v-1527h118v-104q-42 -11 -99.5 -23t-120.5 -12q-27 0 -47 3.5t-33.5 14.5t-20 31.5t-6.5 53.5v53
q-27 -29 -62 -57t-78 -50t-94 -35.5t-109 -13.5zM623 131q40 0 75.5 10t65.5 25.5t53 34t39 36.5v752q-8 12 -26.5 23t-45 19.5t-58 13.5t-65.5 5q-68 0 -127.5 -25.5t-104 -82t-70.5 -147t-28 -220.5q-2 -117 20.5 -201t62 -138t93.5 -79.5t116 -25.5z" />
    <glyph glyph-name="e" unicode="e" horiz-adv-x="1112" 
d="M85 571q0 134 40 244t111.5 188.5t170 121.5t215.5 43q192 0 297 -104t112 -304q1 -64 -1.5 -112t-10.5 -84h-693q3 -114 31.5 -196t74 -134.5t106 -77.5t128.5 -25q43 0 87 8t84.5 21.5t75 30t57.5 34.5l42 -96q-28 -29 -73 -56.5t-99.5 -48.5t-116.5 -34t-125 -13
q-129 0 -225.5 43.5t-160.5 122.5t-95.5 188t-31.5 240zM791 680q2 20 3 43.5t1 42.5q0 58 -12 109t-37.5 89.5t-66.5 60.5t-101 22q-51 0 -95 -17.5t-77.5 -60t-54 -113t-25.5 -176.5h465z" />
    <glyph glyph-name="f" unicode="f" horiz-adv-x="828" 
d="M89 108l169 19v864h-191v99l191 45v95q0 98 41 183t108.5 148t153 99t174.5 36q50 0 76.5 -5.5t43.5 -10.5v-224q-8 7 -26 16t-43 17t-57 13.5t-68 5.5q-49 0 -82.5 -9t-54 -31.5t-29.5 -61t-9 -98.5l1 -173h275v-144h-275v-865l217 -18v-108h-615v108z" />
    <glyph glyph-name="g" unicode="g" horiz-adv-x="1253" 
d="M92 -240q0 49 16 93t42 80.5t59.5 64t68.5 45.5q-47 26 -72 67t-25 101q0 39 11.5 74.5t32.5 66t49.5 56t62.5 44.5q-100 46 -153.5 129.5t-53.5 198.5q0 92 40.5 164t107 121.5t152 76t176.5 26.5h1q107 0 193 -24t146 -73q10 12 30.5 29t49.5 32.5t67 26.5t84 11h54
v-194h-210q17 -35 26 -74.5t9 -86.5q0 -92 -36 -167.5t-100 -129.5t-150.5 -83.5t-187.5 -29.5h-1q-82 0 -153 17q-27 -24 -43.5 -56.5t-16.5 -67.5q0 -38 13.5 -62t41 -37.5t70 -18.5t100.5 -5h218q201 0 296 -76t95 -224q0 -59 -22 -114t-62 -102t-95.5 -86t-122 -67
t-142 -43t-155.5 -15h-1q-140 0 -237 22.5t-158 63t-88 98t-27 128.5zM604 524q59 0 100 18t67 52.5t38 84t12 112.5q0 136 -56 198t-171 62h-1q-51 0 -92.5 -13t-71.5 -42t-46.5 -77t-16.5 -118q0 -58 12.5 -108.5t40 -88t73 -59t111.5 -21.5h1zM316 -181q0 -58 16 -103
t52 -76.5t94 -48t142 -16.5h2q65 0 129 15.5t114.5 46t81.5 75.5t31 105q0 45 -9.5 78.5t-36 55.5t-74 33t-122.5 11h-201q-44 0 -82.5 3.5t-72.5 9.5q-26 -32 -45 -78t-19 -111z" />
    <glyph glyph-name="h" unicode="h" horiz-adv-x="1356" 
d="M89 109l120 16v1396l-165 20v95l339 43h5l48 -34l1 -464l-9 -179q27 24 69.5 52t95 52.5t113.5 40.5t126 16q97 0 160.5 -27.5t100.5 -85.5t52 -147t15 -212v-565l144 -17v-109h-503v108l131 17v567q0 80 -7.5 139.5t-29.5 98.5t-62 58.5t-105 19.5q-38 0 -77 -8
t-76.5 -22t-72.5 -33t-64 -41v-778l142 -17v-109h-491v109z" />
    <glyph glyph-name="i" unicode="i" horiz-adv-x="685" 
d="M78 109l162 17v838l-145 41v118l318 41h5l51 -39v-999l160 -17v-109h-551v109zM323 1352q-29 0 -53.5 10.5t-41.5 29t-26.5 43.5t-9.5 54q0 32 9.5 61t28.5 51.5t47 36t65 13.5h1q33 0 58.5 -11.5t43 -31t26.5 -44.5t9 -52q0 -33 -9.5 -62.5t-29 -51t-49 -34t-68.5 -12.5
h-1v0z" />
    <glyph glyph-name="j" unicode="j" horiz-adv-x="656" 
d="M236 957l-146 41l2 125l317 41h5l50 -39v-1107q0 -128 -29 -221.5t-78 -156.5t-112 -97t-132 -41q-9 -1 -26.5 -1t-36 1t-34.5 3t-21 5l-11 108q7 -1 19.5 0t27.5 4t31 7t31 10q43 16 71 54t44.5 93t23 124.5t6.5 149.5zM327 1352q-29 0 -53.5 10.5t-41.5 29t-26.5 43.5
t-9.5 54q0 32 9.5 61t28.5 51.5t47 36t65 13.5h1q33 0 58.5 -11.5t43 -31t26.5 -44.5t9 -52q0 -33 -9.5 -62.5t-29 -51t-49 -34t-68.5 -12.5h-1v0z" />
    <glyph glyph-name="k" unicode="k" horiz-adv-x="1242" 
d="M77 109l131 17v1395l-156 20v95l333 43h3l48 -34v-990l-4 -114l446 465l-161 29v102h509v-102l-157 -34l-291 -284l392 -591l120 -17v-109h-501v108l120 19l-282 457l-196 -194l5 -106v-158l144 -18v-108h-503v109z" />
    <glyph glyph-name="l" unicode="l" horiz-adv-x="688" 
d="M73 109l162 17v1395l-164 20v95l341 43h2l49 -34v-1519l170 -17v-109h-560v109z" />
    <glyph glyph-name="m" unicode="m" horiz-adv-x="2054" 
d="M108 108l125 17v839l-143 40v120l295 40h5l48 -39v-81l-2 -46q33 30 82.5 60t106 53t114.5 37.5t109 14.5q111 0 177.5 -37t101.5 -115q28 24 74 51t100.5 49.5t113 37t111.5 14.5q98 0 162.5 -27.5t102 -84.5t52.5 -145.5t15 -211.5v-569l143 -17v-108h-490v108l118 18
v561q0 82 -8.5 142.5t-32 100.5t-66 59.5t-109.5 19.5q-33 0 -68 -8t-69.5 -21.5t-65 -30t-54.5 -33.5q10 -47 14 -103t4 -122v-565l146 -18v-108h-508v108l133 18v566q0 81 -7 140.5t-29 98.5t-61.5 58t-103.5 19q-37 0 -75.5 -8.5t-75.5 -23t-70.5 -33t-60.5 -39.5v-778
l134 -18v-108h-488v108z" />
    <glyph glyph-name="n" unicode="n" horiz-adv-x="1375" 
d="M102 109l131 17v838l-143 40v120l296 40h5l47 -39v-81l-1 -46q33 30 81 59.5t103.5 53t115 38t115.5 14.5q98 0 161.5 -27t100.5 -84.5t51.5 -147t14.5 -213.5v-565l144 -17v-109h-502v109l128 17v566q0 81 -7.5 140.5t-29 98.5t-61 58t-103.5 19q-38 0 -77.5 -9t-77 -24
t-71.5 -34t-61 -39v-776l138 -17v-109h-498v109z" />
    <glyph glyph-name="o" unicode="o" 
d="M79 573q0 143 46.5 254t122.5 186.5t173.5 115t199.5 39.5q135 0 233 -46t161 -126t93.5 -189t30.5 -235q0 -145 -46 -256t-122 -186.5t-174 -114t-201 -38.5q-135 0 -232.5 46t-160.5 126t-93.5 189t-30.5 235zM609 101q277 0 277 453q0 105 -15 194.5t-48 155.5
t-85.5 103t-128.5 37q-137 0 -207.5 -113t-70.5 -340q0 -105 15.5 -195t48.5 -155.5t86 -102.5t128 -37z" />
    <glyph glyph-name="p" unicode="p" horiz-adv-x="1294" 
d="M215 -365v1329l-143 40v120l295 40h5l45 -39v-114q25 28 59.5 56t78 50.5t96 36.5t113.5 14q87 0 168 -32t142.5 -99.5t98.5 -173.5t37 -254q0 -130 -40.5 -245t-116 -201t-183.5 -136t-244 -50q-24 0 -50 2t-51 5.5t-48 8t-41 9.5l6 -170v-198l205 -22v-108h-581v108z
M442 154q7 -12 24.5 -23t42.5 -20t57 -14.5t67 -5.5q69 0 128.5 27t104.5 85t71 150t28 222q1 116 -21.5 199.5t-62.5 137t-94 78.5t-116 25q-39 0 -73.5 -9t-64 -23t-53 -31.5t-38.5 -33.5v-764z" />
    <glyph glyph-name="q" unicode="q" horiz-adv-x="1247" 
d="M532 -23q-87 0 -168 33.5t-143 103t-99 177t-37 255.5q0 130 40 243.5t116 197.5t185.5 132.5t248.5 48.5q69 0 135.5 -11t116.5 -25l111 32h2l43 -39v-1493l139 -23v-105h-582v105l216 23v320l7 168q-26 -27 -60.5 -52.5t-76 -46t-90.5 -32.5t-104 -12zM624 127
q40 0 75.5 10t65 25t53 33t38.5 34v763q-6 12 -24 23t-44.5 20t-59 14.5t-67.5 5.5q-68 0 -128 -25.5t-104.5 -82.5t-71 -147.5t-27.5 -219.5q-2 -117 21 -202t63 -141t94 -83t116 -27z" />
    <glyph glyph-name="r" unicode="r" horiz-adv-x="943" 
d="M93 108l157 16v840l-142 40v120l286 40h5l48 -39v-63l-2 -130h2q5 10 20.5 31.5t40 47.5t57.5 54t73.5 51t87.5 37.5t101 14.5q23 0 39 -3t27 -8v-246q-17 10 -48 18t-70 8q-56 0 -101.5 -7.5t-82 -20t-64.5 -28t-49 -30.5v-726l263 -18v-107h-648v108z" />
    <glyph glyph-name="s" unicode="s" horiz-adv-x="1043" 
d="M119 325h141l40 -152q9 -15 31 -30t52 -27t66.5 -19t74.5 -7q60 0 100.5 12t64.5 33.5t34 50.5t10 63q0 40 -19 71.5t-57 60t-94.5 56t-132.5 57.5q-77 30 -134.5 65t-95.5 79t-56.5 98t-18.5 123t31.5 124.5t87.5 95.5t132.5 61.5t166.5 21.5q65 0 119 -8t96 -18.5
t73 -21t51 -15.5v-253h-128l-43 140q-6 12 -22 23.5t-39.5 20.5t-53 14.5t-61.5 5.5q-49 1 -86 -9.5t-62 -29t-37.5 -45t-12.5 -57.5q0 -50 22.5 -83.5t59.5 -59t84.5 -45.5t98.5 -42q67 -29 130.5 -61t112 -74t78 -97.5t29.5 -133.5q0 -75 -30 -137t-86.5 -106.5
t-138 -68.5t-185.5 -24q-57 0 -116 9t-112 22.5t-96 28t-69 26.5v262z" />
    <glyph glyph-name="t" unicode="t" horiz-adv-x="834" 
d="M210 994h-143v95q13 3 29.5 8.5l33 11t30 11t19.5 9.5q17 12 30 30.5t24 47.5q8 18 19 48.5t21.5 63t19.5 62.5t13 47h130l2 -291h336v-143h-335v-605q0 -86 3 -135t14.5 -73t34.5 -30t62 -6h1q28 0 60.5 4t62.5 10t55.5 13t40.5 13h1l34 -97q-23 -19 -63 -38.5t-88 -35
t-99 -26t-96 -10.5h-2q-59 0 -105.5 12t-78.5 40t-49 73.5t-17 111.5v779z" />
    <glyph glyph-name="u" unicode="u" horiz-adv-x="1307" 
d="M193 999l-111 37v97l296 30h1l42 -27v-706q0 -82 8.5 -139.5t31 -93.5t61.5 -52t100 -16q44 0 83.5 10t72.5 25t60 32t45 32v770l-143 39v97l316 29h2l53 -27v-1023h120v-100q-35 -11 -85 -23.5t-113 -12.5q-62 0 -93.5 23.5t-31.5 83.5v52q-27 -27 -66.5 -55t-86.5 -51
t-100 -38t-107 -15q-93 0 -160 24.5t-110.5 77.5t-64 137t-20.5 203v580z" />
    <glyph glyph-name="v" unicode="v" horiz-adv-x="1169" 
d="M91 1005l-94 26v106h500v-106l-150 -26l196 -565l88 -269l74 259l189 575l-138 26v106h423v-106l-104 -27l-386 -1020h-188z" />
    <glyph glyph-name="w" unicode="w" horiz-adv-x="1758" 
d="M96 1005l-110 26v106h501v-106l-158 -26l165 -589l57 -255l54 255l201 721h213l206 -720l55 -254l60 251l160 590l-155 27v106h433v-106l-114 -26l-313 -1021h-209l-216 725l-51 241l-39 -241l-208 -725h-204z" />
    <glyph glyph-name="x" unicode="x" 
d="M14 106l137 19l347 443l-338 437l-118 26v106h530v-106l-138 -26l176 -246l59 -90l51 89l184 247l-147 26v106h441v-106l-125 -26l-329 -412l354 -469l117 -18v-106h-533v106l131 19l-180 264l-63 92l-51 -89l-185 -266l165 -20v-106h-485v106z" />
    <glyph glyph-name="y" unicode="y" horiz-adv-x="1180" 
d="M146 -306q6 -4 19.5 -7t30.5 -5.5t35 -4t34 -1.5q39 0 78.5 11t78.5 45.5t78.5 98.5t78.5 169h-113l-374 1005l-95 26v106h509v-106l-157 -26l193 -604l89 -290l80 291l181 604l-134 25v106h420v-106l-102 -25q-152 -470 -239.5 -728.5t-110.5 -311.5q-47 -118 -92 -207
t-98 -149t-119 -90t-154 -30q-15 0 -32.5 1t-34 3.5t-30 5t-20.5 5.5v189v0z" />
    <glyph glyph-name="z" unicode="z" horiz-adv-x="1138" 
d="M62 94l594 789l131 132l-465 -15l-39 -190h-137v327h863l42 -92l-585 -796l-131 -128l516 22l76 217l130 -15l-30 -345h-920z" />
    <glyph glyph-name="braceleft" unicode="{" horiz-adv-x="1035" 
d="M296 -24q0 72 21 133t46.5 118t46.5 112.5t21 115.5q0 36 -6 65.5t-31.5 50.5t-76 32.5t-140.5 11.5v161q90 0 140.5 8t76 24.5t31.5 42.5t6 62q0 60 -21 115.5t-46.5 112.5t-46.5 118.5t-21 133.5q0 61 16 108.5t52.5 80.5t97 50t150.5 17q75 0 140 -10t126 -26v-100
q-2 0 -28 0.5t-57.5 1t-57.5 0.5h-28q-45 0 -80 -6.5t-59 -24t-36.5 -48.5t-12.5 -81q0 -46 16 -101.5t34.5 -114.5t34.5 -118.5t16 -114.5q0 -51 -19 -88t-52.5 -63.5t-79 -42.5t-97.5 -24q52 -8 97.5 -24t79 -42.5t52.5 -65.5t19 -93q0 -55 -16 -114.5t-34.5 -118
t-34.5 -114t-16 -101.5q0 -50 12.5 -81.5t36.5 -49t59 -23.5t80 -6q2 0 28.5 0.5t57.5 1t57 1t28 0.5v-102q-61 -16 -126 -26t-140 -10q-91 0 -152 18t-97.5 51t-51.5 80.5t-15 106.5z" />
    <glyph glyph-name="bar" unicode="|" horiz-adv-x="865" 
d="M341 1780h183v-1966h-183v1966z" />
    <glyph glyph-name="braceright" unicode="}" horiz-adv-x="1035" 
d="M739.018 -24q0 72 -20.998 133q-20.999 61 -46.4971 118q-25.499 57 -46.4971 112.5q-20.999 55.5 -20.999 115.5q0 36 6 65.5q5.99902 29.5 31.498 50.5q25.498 21 75.9951 32.5t140.491 11.5v161q-89.9941 0 -140.491 8t-75.9951 24.5q-25.499 16.5 -31.498 42.5
q-6 26 -6 62q0 60 20.999 115.5q20.998 55.5 46.4971 112.5q25.498 57 46.4971 118.5q20.998 61.5 20.998 133.5q0 61 -15.998 108.5q-16 47.5 -52.4971 80.5q-36.498 33 -96.9941 50t-150.491 17q-74.9951 0 -139.991 -10t-125.992 -26v-100q2 0 27.998 0.5
q25.999 0.5 57.4971 1t57.4961 0.5h27.998q44.9971 0 79.9951 -6.5t58.9971 -24q23.998 -17.5 36.4971 -48.5t12.499 -81q0 -46 -15.999 -101.5t-34.4971 -114.5q-18.499 -59 -34.498 -118.5t-15.999 -114.5q0 -51 18.999 -88q18.998 -37 52.4961 -63.5t78.9951 -42.5
t97.4941 -24q-51.9971 -8 -97.4941 -24t-78.9951 -42.5t-52.4961 -65.5q-18.999 -39 -18.999 -93q0 -55 15.999 -114.5t34.498 -118q18.498 -58.5 34.4971 -114t15.999 -101.5q0 -50 -12.499 -81.5t-36.4971 -49q-23.999 -17.5 -58.9971 -23.5t-79.9951 -6q-2 0 -28.498 0.5
t-57.4961 1t-56.9971 1q-25.998 0.5 -27.998 0.5v-102q60.9961 -16 125.992 -26t139.991 -10q90.9951 0 151.991 18t97.4941 51q36.4971 33 51.4961 80.5t14.999 106.5z" />
    <glyph glyph-name="asciitilde" unicode="~" horiz-adv-x="1416" 
d="M215 592q19 33 51 66.5t73 60.5t90.5 44t104.5 17q45 0 82 -12t68 -30.5t58.5 -40t54 -40t53 -30.5t57.5 -12q36 0 66.5 9.5t56 25t46.5 35t39 40.5l84 -95q-21 -36 -53 -70t-73 -60.5t-90 -42.5t-103 -16q-44 0 -79.5 12.5t-66 30.5t-57 40t-53 40t-54.5 30.5t-61 12.5
q-35 0 -65 -9.5t-56.5 -25.5t-48.5 -35.5t-40 -39.5z" />
    <glyph glyph-name="nonbreakingspace" unicode="&#xa0;" horiz-adv-x="670" 
 />
    <glyph glyph-name="exclamdown" unicode="&#xa1;" horiz-adv-x="727" 
d="M507.014 -367.891h-262.984l59.9961 1274.92h138.992zM518.013 1300.01q0 -33.998 -13.999 -62.9961t-37.498 -49.9971q-23.498 -20.998 -52.9961 -32.998q-29.499 -11.999 -61.4971 -11.999q-36.9971 0 -63.4961 10.999q-26.498 11 -43.9971 29.499
q-17.499 18.498 -25.998 43.4971q-8.5 24.998 -8.5 51.9971q0 36.9971 13.499 65.9951q13.5 28.999 35.998 49.4971q22.499 20.499 52.9971 31.498q30.498 11 64.4961 11q27.998 0 53.4971 -9.5q25.498 -9.49902 44.9971 -26.998q19.498 -17.499 30.998 -42.4971
q11.499 -24.999 11.499 -56.9971z" />
    <glyph glyph-name="cent" unicode="&#xa2;" horiz-adv-x="1187" 
d="M527 -13q-101 18 -177 68t-126.5 124.5t-76 169t-26.5 202.5q0 116 30.5 220.5t92 186t152.5 135.5t212 69l12 213h143l-11 -209q42 -3 80.5 -10.5t71 -16.5t58.5 -18t43 -15l-10 -308h-139l-46 187q-14 34 -57 49.5t-98 15.5q-65 0 -118 -26.5t-91.5 -79.5t-59.5 -133
t-21 -186q-1 -130 25 -223.5t70.5 -153.5t104 -88.5t127.5 -28.5q47 0 89.5 8t78.5 20.5t66 28t52 31.5l43 -92q-24 -25 -61.5 -50t-83.5 -46t-99 -35.5t-108 -17.5l-11 -221h-143l12 230v0z" />
    <glyph glyph-name="sterling" unicode="&#xa3;" horiz-adv-x="1509" 
d="M103 90q0 31 20 60.5t54.5 52t80 35t95.5 10.5q10 17 17.5 50t13 72.5t8.5 81.5t3 78v224h-197v118h197v150q0 115 41 210.5t111 163.5t163 105.5t197 37.5q101 0 184.5 -26t140.5 -74l-115 -167q-7 13 -29.5 35t-57.5 43t-81.5 36.5t-100.5 15.5q-36 0 -74 -10.5
t-69 -45t-51 -99t-20 -172.5v-203h307v-118h-307v-175q0 -62 -10.5 -114t-28 -95.5t-41.5 -79.5t-51 -66q54 -6 114 -19.5t121.5 -27.5t123 -25t120.5 -11q61 0 99.5 11.5t60.5 34.5t30 58t8 82q0 29 -5 58t-12.5 54t-17.5 44.5t-20 29.5h241q15 -17 28 -57.5t13 -103.5
q0 -69 -29 -135t-82.5 -117.5t-128 -83t-165.5 -31.5q-93 0 -171.5 21t-148.5 46.5t-135 47t-131 22.5q-45 -52 -95.5 -87.5t-110.5 -35.5q-17 0 -36 4.5t-35 15t-26 28t-10 43.5z" />
    <glyph glyph-name="currency" unicode="&#xa4;" horiz-adv-x="1547" 
d="M412 510q-36 53 -55.5 117t-19.5 136q0 74 20.5 141.5t58.5 124.5l-219 218l121 123l219 -220q50 33 108.5 51.5t124.5 18.5t126.5 -17t111.5 -49l219 218l122 -122l-216 -214q38 -53 58.5 -117t20.5 -136q0 -75 -22 -142.5t-61 -124.5l216 -216l-122 -122l-218 217
q-51 -33 -110 -51t-125 -18t-124.5 16.5t-109.5 47.5l-217 -216l-122 122zM772 493q67 0 115.5 21.5t79.5 59t45.5 87.5t14.5 107q0 58 -20.5 109.5t-56.5 90.5t-83.5 62t-101.5 23q-64 0 -111 -23.5t-78 -63.5t-46 -91.5t-15 -107.5q0 -57 20 -106.5t54.5 -87t81.5 -59
t101 -21.5z" />
    <glyph glyph-name="yen" unicode="&#xa5;" horiz-adv-x="1595" 
d="M259 473h458v245l-3 4h-455v117h378l-367 557l-133 27v99h553v-99l-158 -26l256 -435l59 -114l72 117l241 432l-165 26v99h478v-99l-145 -28l-344 -556h390v-117h-457v-249h457v-118h-457v-231l236 -25v-99h-666v99l230 26v230h-458v118z" />
    <glyph glyph-name="brokenbar" unicode="&#xa6;" horiz-adv-x="865" 
d="M341 1780h183v-830h-183v830zM341 641h183v-827h-183v827z" />
    <glyph glyph-name="section" unicode="&#xa7;" horiz-adv-x="1374" 
d="M212 242h142l38 -235q16 -18 45 -34.5t66 -28.5t80.5 -19.5t88.5 -7.5q75 0 130.5 13.5t91.5 36.5t53.5 55t17.5 70q0 54 -26 93t-72 70t-109 57.5t-138 55.5q-82 34 -160.5 75.5t-139.5 97t-98.5 129t-37.5 170.5q0 88 39 152t107 115q-45 47 -73 106t-28 137
q0 74 33.5 135t96 105t152 68.5t202.5 24.5q70 0 132 -10t112.5 -23t88.5 -24.5t61 -15.5l-13 -323h-130l-54 217q-6 9 -23.5 19t-44.5 18.5t-62.5 14t-77.5 5.5q-134 0 -200.5 -44t-66.5 -123q0 -59 23.5 -99t65.5 -71t100 -57t127 -56q40 -17 88.5 -39t98.5 -50t97 -63
t83.5 -78.5t58.5 -96t22 -115.5q0 -91 -38.5 -162t-101.5 -127q51 -45 82.5 -102t31.5 -130q0 -64 -29.5 -127t-92 -112.5t-159.5 -80.5t-232 -31q-88 0 -163 14t-134.5 31t-103 32t-67.5 17zM735 558q49 -20 104.5 -44.5t109.5 -55.5q50 62 50 147q0 58 -25.5 102t-72 81
t-111 68.5t-143.5 63.5q-51 22 -109 48.5t-112 61.5q-30 -29 -45 -63.5t-15 -76.5q0 -63 27.5 -109.5t76.5 -84.5t117 -70.5t148 -67.5z" />
    <glyph glyph-name="dieresis" unicode="&#xa8;" horiz-adv-x="1022" 
d="M732 1355q-28 0 -51 11t-39.5 29.5t-25.5 43.5t-9 53q0 31 9 60t27.5 51.5t46 35.5t64.5 13h1q33 0 57.5 -11.5t41.5 -31t25.5 -44.5t8.5 -51q0 -33 -9.5 -62t-28.5 -50.5t-48 -34t-69 -12.5h-1zM265 1355q-29 0 -52 10.5t-39.5 29t-25.5 43.5t-9 54q0 31 9 60t27.5 51.5
t46 35.5t64.5 13h1q32 0 57 -11.5t41.5 -31t25 -44.5t8.5 -51q0 -33 -9.5 -62t-28.5 -50.5t-47.5 -34t-67.5 -12.5h-1z" />
    <glyph glyph-name="copyright" unicode="&#xa9;" horiz-adv-x="2129" 
d="M195 1003q0 121 30.5 233t87 209.5t135.5 177t175.5 136.5t208 88t233.5 31q121 0 232.5 -31t208 -88t175.5 -136.5t135.5 -177t87 -209.5t30.5 -233q0 -122 -30.5 -234.5t-87 -210t-135.5 -177.5t-175.5 -137t-208 -88.5t-232.5 -31.5q-122 0 -233.5 31.5t-208 88.5
t-175.5 137t-135.5 177.5t-87 210t-30.5 234.5zM331 1003q0 -103 25.5 -200t72 -181t113 -154t148 -120t176.5 -77.5t199 -27.5t198.5 27.5t176 77.5t147.5 120t112.5 154t72 180.5t25.5 200.5q0 103 -25.5 199.5t-72 180.5t-112.5 153.5t-147.5 119.5t-176 77.5
t-198.5 27.5q-105 0 -200 -27.5t-176.5 -77.5t-147.5 -119.5t-112.5 -154t-72 -180.5t-25.5 -199zM618 995q0 105 38.5 197t106.5 160t161.5 107.5t203.5 39.5q33 0 71.5 -4t74.5 -12t65.5 -19t44.5 -26l-2 -229h-116l-46 132q-11 8 -23 14.5t-30 11t-44.5 7t-64.5 2.5
q-60 0 -106 -24.5t-78 -69.5t-48.5 -108.5t-16.5 -141.5q0 -82 24 -150t67.5 -116.5t103.5 -75t131 -26.5q64 0 117 23t93 60l49 -80q-21 -27 -54.5 -54.5t-76 -49t-92 -35.5t-103.5 -14q-111 0 -195.5 36t-141 99.5t-85 152t-28.5 193.5z" />
    <glyph glyph-name="ordfeminine" unicode="&#xaa;" horiz-adv-x="1038" 
d="M400 669q-65 0 -118 19.5t-90 54t-57 82t-20 104.5q0 75 38.5 130t112 91t179.5 55t240 23v25q0 63 -9.5 104t-32 64.5t-60.5 33t-95 9.5q-42 0 -83 -7t-78.5 -17.5t-70.5 -23t-59 -24.5l-56 107q29 19 75.5 38.5t100.5 36t110 27t105 10.5q87 0 153.5 -17t111.5 -56.5
t67.5 -103t22.5 -156.5v-492h110v-88q-17 -4 -39 -9t-46.5 -9t-51 -7t-50.5 -3q-26 0 -47 2t-36 9.5t-23 23t-8 42.5v49q-23 -22 -52.5 -44.5t-66 -41t-80.5 -30t-97 -11.5zM488 802q29 0 60 8.5t58 21t48 26.5t30 26l1 -1v248q-101 -3 -168.5 -16t-108 -35.5t-57.5 -56
t-17 -78.5q0 -30 10 -56.5t29.5 -45.5t48.5 -30t66 -11z" />
    <glyph glyph-name="guillemotleft" unicode="&#xab;" horiz-adv-x="1916" 
d="M979 689l659 438l66 -112l-463 -401l468 -392l-71 -114l-659 425v156zM235 689l659 438l66 -112l-463 -401l468 -392l-71 -114l-659 425v156z" />
    <glyph glyph-name="logicalnot" unicode="&#xac;" horiz-adv-x="1410" 
d="M210 699h990v-540h-176v395h-814v145z" />
    <glyph glyph-name="uni00AD" unicode="&#xad;" horiz-adv-x="1345" 
d="M230 696h885v-160h-885v160z" />
    <glyph glyph-name="registered" unicode="&#xae;" horiz-adv-x="2129" 
d="M195 1003q0 121 30.5 233t87 209.5t135.5 177t175.5 136.5t208 88t233.5 31q121 0 232.5 -31t208 -88t175.5 -136.5t135.5 -177t87 -209.5t30.5 -233q0 -122 -30.5 -234.5t-87 -210t-135.5 -177.5t-175.5 -137t-208 -88.5t-232.5 -31.5q-122 0 -233.5 31.5t-208 88.5
t-175.5 137t-135.5 177.5t-87 210t-30.5 234.5zM331 1003q0 -103 25.5 -200t72 -181t113 -154t148 -120t176.5 -77.5t199 -27.5t198.5 27.5t176 77.5t147.5 120t112.5 154t72 180.5t25.5 200.5q0 103 -25.5 199.5t-72 180.5t-112.5 153.5t-147.5 119.5t-176 77.5
t-198.5 27.5q-105 0 -200 -27.5t-176.5 -77.5t-147.5 -119.5t-112.5 -154t-72 -180.5t-25.5 -199zM665 606l91 27v727l-91 23v98h163q34 -1 58 -0.5t50 1.5t59 2t84 2q90 0 159.5 -17.5t116.5 -49.5t71.5 -78.5t24.5 -103.5q0 -115 -52 -190t-144 -100q42 -22 66.5 -54
t40.5 -67.5t27 -71t25 -65t35.5 -49.5t58.5 -24v-97h-171q-40 0 -61 23.5t-34 60.5t-22 82t-23 88.5t-38.5 80t-67.5 55.5q-10 0 -33 0.5t-48.5 0.5t-48.5 0.5t-33 0.5v-284l99 -21v-87h-362v87zM928 1035q13 -3 30.5 -4.5t37 -2.5t40 -1h39.5q39 0 72 14t57.5 38t38 56.5
t13.5 69.5q0 95 -50.5 135t-157.5 40h-28.5t-27.5 -1t-29.5 -3t-34.5 -6v-335z" />
    <glyph glyph-name="macron" unicode="&#xaf;" horiz-adv-x="681" 
d="M61 1586h558v-158h-558v158z" />
    <glyph glyph-name="degree" unicode="&#xb0;" horiz-adv-x="942" 
d="M470 944q-72 0 -135.5 27.5t-111 75t-75.5 111t-28 135.5q0 75 28 138.5t75.5 110t111 73t135.5 26.5q77 0 142 -27.5t111.5 -75t72.5 -111t26 -134.5q0 -75 -27.5 -139t-75.5 -110.5t-112 -73t-137 -26.5zM472 1089q44 0 80 15t62 42t40 64.5t14 82.5q0 42 -15.5 79
t-42 65t-63 44t-78.5 16q-43 0 -79 -15.5t-62.5 -42.5t-41 -64.5t-14.5 -81.5q0 -42 16 -79t43 -64.5t63.5 -44t77.5 -16.5z" />
    <glyph glyph-name="plusminus" unicode="&#xb1;" horiz-adv-x="1353" 
d="M591 443l6 162l-172 -6h-210v169h210l172 -11l-6 165v228h171v-228l-8 -165l145 11h239v-169h-239l-145 6l8 -162v-218h-171v218zM229 160h893v-160h-893v160z" />
    <glyph glyph-name="acute" unicode="&#xb4;" horiz-adv-x="681" 
d="M204 1408l330 406h1l159 -139q-14 -23 -43 -55t-66.5 -67t-80 -70t-83 -65t-76 -52.5t-58.5 -31.5h-2z" />
    <glyph glyph-name="mu" unicode="&#xb5;" horiz-adv-x="1398" 
d="M246 1001l-118 50v81l302 28l43 -27v-777q0 -31 13.5 -70t42 -73.5t72.5 -58.5t105 -24q49 0 87.5 12.5t67 32t47 42.5t28.5 44v740l-130 49v83l325 27l32 -26v-1022h119v-103q-15 -7 -39.5 -14t-52.5 -12.5t-58 -9t-56 -3.5q-54 0 -81 24.5t-27 70.5v76
q-16 -31 -42.5 -60.5t-61 -52t-77 -36t-90.5 -13.5q-76 0 -137.5 24.5t-103.5 63.5v-440h-210v1374z" />
    <glyph glyph-name="paragraph" unicode="&#xb6;" horiz-adv-x="1493" 
d="M330 104l201 24v664q-110 0 -191.5 32t-135.5 92t-80.5 146t-26.5 195q0 97 36 180t106 144t173 95.5t237 34.5q53 0 94.5 -1.5t78 -3.5t71.5 -5t76 -5t90.5 -3.5t115.5 -1.5h177v-110l-163 -22v-1431l139 -24v-104h-342v1550q-17 2 -42 4.5t-53.5 5t-59 4t-59.5 1.5
q-11 0 -21 -0.5t-17 -2.5v-1562h-404v104z" />
    <glyph glyph-name="periodcentered" unicode="&#xb7;" horiz-adv-x="707" 
d="M203 683q0 34 14 63.5t37.5 50.5t53 33t60.5 12q36 0 63 -11t44.5 -30t26 -43.5t8.5 -51.5q0 -36 -13.5 -65.5t-36.5 -50.5t-53 -32t-64 -11q-27 0 -52.5 9.5t-45 27.5t-31 43t-11.5 56z" />
    <glyph glyph-name="cedilla" unicode="&#xb8;" horiz-adv-x="615" 
d="M249 13l42 -10q16 -15 39.5 -44.5t44.5 -69.5t35.5 -87t11.5 -96q-3 -56 -21.5 -94.5t-52 -62t-81.5 -33.5t-109 -10h-1q-17 0 -37 2t-39.5 5.5t-37 8.5t-30.5 11l1 153q21 -8 47.5 -11t38.5 -3h1q34 0 60.5 4.5t44.5 19t27.5 42.5t9.5 75q0 28 -7 57t-17 55t-20.5 46.5
t-17.5 31.5z" />
    <glyph glyph-name="ordmasculine" unicode="&#xba;" horiz-adv-x="1051" 
d="M526 676q-91 0 -170 28.5t-137.5 87t-91.5 147.5t-31 211q1 120 41.5 207t104 142.5t141.5 82t154 26.5q99 0 177 -30.5t132 -90t82 -147t27 -200.5q-1 -125 -41 -213t-102 -143.5t-138 -81.5t-148 -26zM523 781q51 0 90 14t65.5 51.5t40 105.5t13.5 176q0 88 -14 158
t-40 118t-64.5 73.5t-86.5 24.5q-48 0 -86.5 -19.5t-65.5 -61t-41.5 -107t-14.5 -156.5q0 -89 16.5 -159.5t44.5 -119t65 -73.5t78 -25z" />
    <glyph glyph-name="guillemotright" unicode="&#xbb;" horiz-adv-x="1908" 
d="M1675.01 689l-658.96 438l-65.9961 -112l462.972 -401l-467.972 -392l70.9961 -114l658.96 425v156zM954.015 689l-658.96 438l-65.9961 -112l462.972 -401l-467.972 -392l70.9961 -114l658.96 425v156z" />
    <glyph glyph-name="onequarter" unicode="&#xbc;" horiz-adv-x="2375" 
d="M1382 289q3 7 22.5 42t49 88.5t66 121t75.5 137.5t76 138.5t67.5 124.5t51.5 95t27 50h184l35 -41l-388 -633l-78 -102l372 18l13 258l170 13v-262l175 9v-147h-175v-199h-183l-1 199h-488zM155 655l254 23v681q-62 -23 -129 -38.5t-121 -25.5l-29 115q83 25 174.5 62.5
t178.5 104.5h4l114 -18v-881l227 -23v-106h-673v106zM684 -143l743 1815l152 -22l-741 -1811z" />
    <glyph glyph-name="onehalf" unicode="&#xbd;" horiz-adv-x="2331" 
d="M155 655l254 23v681q-62 -23 -129 -38.5t-121 -25.5l-29 115q83 25 174.5 62.5t178.5 104.5h4l114 -18v-881l227 -23v-106h-673v106zM684 -143l743 1815l152 -22l-741 -1811zM1436 103q39 23 92.5 60t111 83t114.5 100t101.5 113t72.5 121t28 124q0 40 -12.5 73.5
t-36.5 57.5t-59 37t-81 13q-45 0 -85.5 -9.5t-75 -24.5t-61.5 -33t-44 -36l-69 79q19 25 55 54.5t85.5 54.5t111 41.5t130.5 16.5q85 0 149.5 -23t108 -61.5t66 -89.5t22.5 -107q0 -54 -21 -110t-58.5 -112.5t-88 -111.5t-109.5 -107t-123.5 -99t-129.5 -86l425 32l81 147
l106 -21l-52 -279h-713z" />
    <glyph glyph-name="threequarters" unicode="&#xbe;" horiz-adv-x="2401" 
d="M1407 289q3 7 22.5 42t49 88.5t66 121t75.5 137.5t76 138.5t67.5 124.5t51.5 95t27 50h184l35 -41l-388 -633l-78 -102l372 18l13 258l170 13v-262l175 9v-147h-175v-199h-183l-1 199h-488zM132 702q25 -10 55 -18.5t61.5 -15t63 -10t60.5 -3.5q152 0 230 48t78 150
q0 33 -16 63t-45.5 52.5t-72.5 34.5t-97 10q-3 -2 -21 -7.5t-39 -12.5t-39.5 -13t-22.5 -7l-34 105q26 5 67.5 18t82.5 33q31 15 58 33t47 40.5t31.5 50t11.5 59.5q0 30 -8.5 54.5t-28.5 41t-52.5 25.5t-81.5 9q-69 0 -136 -21t-111 -56l-60 95q24 24 61 45.5t83.5 37
t100.5 25t112 9.5q74 0 134.5 -17t103 -47t66 -72t23.5 -92q0 -39 -11 -77t-38 -73.5t-71 -67t-110 -56.5q80 8 140.5 -9t101 -49.5t60.5 -75.5t20 -87q0 -67 -28 -126t-84.5 -103.5t-141.5 -70t-200 -25.5q-85 0 -163 14.5t-140 43.5v115zM709 -143l743 1815l152 -22
l-741 -1811z" />
    <glyph glyph-name="questiondown" unicode="&#xbf;" horiz-adv-x="994" 
d="M654.021 934.029q16.999 -17.998 33.998 -55.9961t30.998 -82.9951t23.499 -89.4941q9.49902 -44.4971 11.499 -74.4961q0 -55.9961 -30.998 -97.9932q-30.998 -41.998 -78.9951 -75.4961t-105.994 -62.4961q-57.9961 -28.998 -111.992 -58.4961
q-53.9971 -29.498 -97.4941 -62.9961q-43.498 -33.498 -61.4971 -76.4961v-27.998q0 -78.9951 28.999 -156.99q28.998 -77.9951 85.9941 -139.991q56.9971 -61.9961 142.491 -100.994q85.4951 -38.9971 199.488 -38.9971q40.9971 0 73.4951 3.99902q32.498 4 55.4971 9
l34.998 -130.992q-8 -6 -32.998 -12.499q-24.999 -6.5 -58.4971 -12q-33.498 -5.49902 -72.9951 -8.49902q-39.498 -3 -77.4951 -3q-104.994 0 -188.988 19.999q-83.9951 19.999 -148.991 55.4961q-64.9961 35.498 -111.493 83.4951t-76.4951 103.494
q-29.999 55.4961 -43.998 116.493q-13.999 60.9961 -13.999 120.992q0 76.9951 29.998 137.991q29.998 60.9971 75.9961 109.993q45.9971 48.9971 102.993 88.9951q56.9971 39.9971 110.993 75.4951q53.9971 35.498 98.9941 68.9961t66.9961 69.4961q2 9.99902 2.5 22.498
t0.5 24.499q-1 66.9951 -8 119.992q-6.99902 52.9971 -17.999 105.993zM653.021 1327.01q5 -27.998 -2.5 -53.9971q-7.49902 -25.998 -23.998 -46.4971t-38.998 -34.498q-22.498 -13.999 -48.4971 -18.998q-29.998 -5 -53.9961 -0.5q-23.999 4.49902 -42.498 16.498
q-18.498 12 -30.998 30.999q-12.499 18.998 -18.498 41.9971q-7 30.998 -0.5 56.9961q6.49902 25.999 22.498 45.998q15.999 19.998 39.998 32.9971q23.998 13 50.9961 16.999q22.999 6 45.998 3q22.998 -3 43.4971 -14.499t35.498 -30.998t21.998 -45.4971z" />
    <glyph glyph-name="Agrave" unicode="&#xc0;" horiz-adv-x="1417" 
d="M-30 109l127 24l493 1401h238l497 -1401l127 -24v-109h-549v109l163 24l-95 292h-588l-91 -292l171 -24v-109h-492zM930 552l-214 657l-44 168l-44 -170l-205 -655h507zM813 1633q-23 7 -57 22t-73 35t-80 44t-78 49.5t-67.5 51.5t-47.5 50l152 127h1l331 -311l-80 -68
h-1v0z" />
    <glyph glyph-name="Aacute" unicode="&#xc1;" horiz-adv-x="1417" 
d="M-30 109l127 24l493 1401h238l497 -1401l127 -24v-109h-549v109l163 24l-95 292h-588l-91 -292l171 -24v-109h-492zM930 552l-214 657l-44 168l-44 -170l-205 -655h507zM571 1701l331 311h1l153 -127q-20 -25 -51 -51.5t-68.5 -52.5t-78.5 -49.5t-79 -43t-71.5 -34
t-55.5 -21.5h-1z" />
    <glyph glyph-name="Acircumflex" unicode="&#xc2;" horiz-adv-x="1417" 
d="M-30 109l127 24l493 1401h238l497 -1401l127 -24v-109h-549v109l163 24l-95 292h-588l-91 -292l171 -24v-109h-492zM930 552l-214 657l-44 168l-44 -170l-205 -655h507zM352 1713l271 300h183l274 -298l-92 -61l-273 202l-278 -202z" />
    <glyph glyph-name="Atilde" unicode="&#xc3;" horiz-adv-x="1417" 
d="M-30 109l127 24l493 1401h238l497 -1401l127 -24v-109h-549v109l163 24l-95 292h-588l-91 -292l171 -24v-109h-492zM930 552l-214 657l-44 168l-44 -170l-205 -655h507zM289 1795q10 33 34.5 70.5t61.5 69t85.5 52.5t105.5 21q42 0 74.5 -12.5t59 -30.5t49.5 -40t45 -40
t45.5 -30.5t52.5 -12.5q35 0 59 13.5t41 32.5t28 39.5t19 34.5l98 -64q-15 -41 -38.5 -79.5t-56.5 -68.5t-75.5 -48t-95.5 -18q-41 0 -74 12.5t-60.5 31t-51.5 40t-48 40t-49.5 31t-56.5 12.5q-34 0 -59.5 -14t-44.5 -33t-31.5 -39.5t-20.5 -32.5z" />
    <glyph glyph-name="Adieresis" unicode="&#xc4;" horiz-adv-x="1417" 
d="M-30 109l127 24l493 1401h238l497 -1401l127 -24v-109h-549v109l163 24l-95 292h-588l-91 -292l171 -24v-109h-492zM930 552l-214 657l-44 168l-44 -170l-205 -655h507zM953 1687q-29 0 -52 11t-39.5 29.5t-25.5 43.5t-9 52q0 32 9 61t27.5 51t46 35t63.5 13h1
q33 0 58 -12t41.5 -31t25 -44t8.5 -50q0 -33 -9.5 -62t-28 -50.5t-47.5 -34t-68 -12.5h-1zM452 1687q-28 0 -51 10.5t-39.5 29t-25.5 43.5t-9 53q0 32 9 61t27.5 51t46 35t64.5 13h1q32 0 57 -12t41.5 -31t25 -44t8.5 -50q0 -33 -9.5 -62t-28.5 -50.5t-48 -34t-68 -12.5h-1z
" />
    <glyph glyph-name="Aring" unicode="&#xc5;" horiz-adv-x="1417" 
d="M-34 109l127 24l488 1386q-53 13 -92 37t-63.5 56t-36 70.5t-10.5 80.5q1 62 30.5 109t77.5 78.5t109.5 47.5t126.5 16h1q81 0 141 -19t100.5 -53.5t60 -81.5t19.5 -103q-1 -47 -17.5 -85.5t-45 -68.5t-68 -51t-85.5 -33l492 -1386l127 -24v-109h-549v109l163 24l-95 292
h-588l-91 -292l171 -24v-109h-492zM715 1604q93 0 132 38t39 108q0 34 -9.5 63.5t-29.5 52t-52.5 35.5t-78.5 13h-1q-92 0 -133.5 -39.5t-41.5 -111.5q0 -31 10 -59.5t31 -50.5t54 -35.5t79 -13.5h1zM926 552l-214 657l-44 168l-44 -170l-205 -655h507z" />
    <glyph glyph-name="AE" unicode="&#xc6;" horiz-adv-x="1887" 
d="M526 1388l-264 25v109h1427l31 -320h-127l-66 195l-480 12v-568l324 6l30 165h127v-468h-127l-30 171l-324 5v-597l556 23l126 252l132 -38l-75 -360h-1142v107l170 23v304h-517l-122 -304l152 -24v-106h-503v106l148 26zM814 564v836h-125l-107 -260l-232 -576h464z" />
    <glyph glyph-name="Ccedilla" unicode="&#xc7;" horiz-adv-x="1335" 
d="M533 -314q21 -8 47.5 -11t38.5 -3h1q34 0 60.5 4.5t44.5 19t27.5 42.5t9.5 75q0 23 -5 46.5t-12.5 46t-16 42t-16.5 34.5q-156 14 -276.5 73.5t-202.5 159.5t-124.5 238t-42.5 309q0 181 57.5 325t157.5 244t235.5 153.5t291.5 53.5q68 0 135 -7.5t125.5 -18t105.5 -21
t76 -15.5l-19 -374h-149l-56 255q-20 26 -82 43.5t-171 17.5q-95 0 -175 -41t-138 -121t-90.5 -198t-32.5 -272q0 -133 26.5 -257.5t82.5 -220.5t143 -154t209 -58q52 0 90 7t65.5 17.5t45.5 23.5t30 26l87 211l142 -19l-44 -306q-39 -3 -74 -15t-77.5 -25.5t-97 -25
t-131.5 -13.5q18 -21 37.5 -50.5t36 -64.5t26 -75t7.5 -81q-3 -56 -21.5 -94.5t-52 -62t-81.5 -33.5t-109 -10h-1q-17 0 -37 2t-39.5 5.5t-37 8.5t-30.5 11l1 153v0z" />
    <glyph glyph-name="Egrave" unicode="&#xc8;" horiz-adv-x="1339" 
d="M759 1633q-23 7 -57 22t-73 35t-80 44t-78 49.5t-67.5 51.5t-47.5 50l152 127h1l331 -311l-80 -68h-1v0zM96 109l168 24v1253l-165 25v111h1042l28 -317h-129l-62 190l-479 13v-565l325 6l30 166h129v-474h-129l-29 176l-326 5v-598l550 22l113 251l128 -38l-59 -359
h-1135v109z" />
    <glyph glyph-name="Eacute" unicode="&#xc9;" horiz-adv-x="1339" 
d="M549 1701l331 311h1l153 -127q-20 -25 -51 -51.5t-68.5 -52.5t-78.5 -49.5t-79 -43t-71.5 -34t-55.5 -21.5h-1zM96 109l168 24v1253l-165 25v111h1042l28 -317h-129l-62 190l-479 13v-565l325 6l30 166h129v-474h-129l-29 176l-326 5v-598l550 22l113 251l128 -38
l-59 -359h-1135v109z" />
    <glyph glyph-name="Ecircumflex" unicode="&#xca;" horiz-adv-x="1339" 
d="M96 109l168 24v1253l-165 25v111h1042l28 -317h-129l-62 190l-479 13v-565l325 6l30 166h129v-474h-129l-29 176l-326 5v-598l550 22l113 251l128 -38l-59 -359h-1135v109zM333 1713l271 300h183l274 -298l-92 -61l-273 202l-278 -202z" />
    <glyph glyph-name="Edieresis" unicode="&#xcb;" horiz-adv-x="1339" 
d="M933 1687q-29 0 -52 11t-39.5 29.5t-25.5 43.5t-9 52q0 32 9 61t27.5 51t46 35t63.5 13h1q33 0 58 -12t41.5 -31t25 -44t8.5 -50q0 -33 -9.5 -62t-28 -50.5t-47.5 -34t-68 -12.5h-1zM432 1687q-28 0 -51 10.5t-39.5 29t-25.5 43.5t-9 53q0 32 9 61t27.5 51t46 35t64.5 13
h1q32 0 57 -12t41.5 -31t25 -44t8.5 -50q0 -33 -9.5 -62t-28.5 -50.5t-48 -34t-68 -12.5h-1zM96 109l168 24v1253l-165 25v111h1042l28 -317h-129l-62 190l-479 13v-565l325 6l30 166h129v-474h-129l-29 176l-326 5v-598l550 22l113 251l128 -38l-59 -359h-1135v109z" />
    <glyph glyph-name="Igrave" unicode="&#xcc;" horiz-adv-x="827" 
d="M112 109l183 24v1252l-183 26v111h602v-111l-183 -25v-1253l186 -27v-106h-605v109zM452 1633q-23 7 -57 22t-73 35t-80 44t-78 49.5t-67.5 51.5t-47.5 50l152 127h1l331 -311l-80 -68h-1v0z" />
    <glyph glyph-name="Iacute" unicode="&#xcd;" horiz-adv-x="827" 
d="M112 109l183 24v1252l-183 26v111h602v-111l-183 -25v-1253l186 -27v-106h-605v109zM303 1701l331 311h1l153 -127q-20 -25 -51 -51.5t-68.5 -52.5t-78.5 -49.5t-79 -43t-71.5 -34t-55.5 -21.5h-1z" />
    <glyph glyph-name="Icircumflex" unicode="&#xce;" horiz-adv-x="827" 
d="M112 109l183 24v1252l-183 26v111h602v-111l-183 -25v-1253l186 -27v-106h-605v109zM52 1713l271 300h183l274 -298l-92 -61l-273 202l-278 -202z" />
    <glyph glyph-name="Idieresis" unicode="&#xcf;" horiz-adv-x="827" 
d="M112 109l183 24v1252l-183 26v111h602v-111l-183 -25v-1253l186 -27v-106h-605v109zM652 1687q-29 0 -52 11t-39.5 29.5t-25.5 43.5t-9 52q0 32 9 61t27.5 51t46 35t63.5 13h1q33 0 58 -12t41.5 -31t25 -44t8.5 -50q0 -33 -9.5 -62t-28 -50.5t-47.5 -34t-68 -12.5h-1z
M151 1687q-28 0 -51 10.5t-39.5 29t-25.5 43.5t-9 53q0 32 9 61t27.5 51t46 35t64.5 13h1q32 0 57 -12t41.5 -31t25 -44t8.5 -50q0 -33 -9.5 -62t-28.5 -50.5t-48 -34t-68 -12.5h-1z" />
    <glyph glyph-name="Eth" unicode="&#xd0;" horiz-adv-x="1561" 
d="M95 109l169 24v602h-152v116h152v534l-158 26v111h267q46 0 90.5 2.5t88.5 5t88.5 5t92.5 2.5q197 0 340 -51t235.5 -146t136.5 -229.5t44 -301.5q0 -187 -56.5 -340.5t-159 -262.5t-245.5 -167.5t-317 -54.5q-38 1 -79.5 3.5t-84 5.5t-84.5 5t-80 2h-288v109zM498 123
q57 -15 114 -17.5t122 -1.5q109 2 201 44.5t158.5 125t103.5 205.5t37 287q0 320 -137 486.5t-417 166.5q-66 0 -110.5 -5.5t-71.5 -7.5v-555h341v-116h-341v-612z" />
    <glyph glyph-name="Ntilde" unicode="&#xd1;" horiz-adv-x="1640" 
d="M401 1795q10 33 34.5 70.5t61.5 69t85.5 52.5t105.5 21q42 0 74.5 -12.5t59 -30.5t49.5 -40t45 -40t45.5 -30.5t52.5 -12.5q35 0 59 13.5t41 32.5t28 39.5t19 34.5l98 -64q-15 -41 -38.5 -79.5t-56.5 -68.5t-75.5 -48t-95.5 -18q-41 0 -74 12.5t-60.5 31t-51.5 40t-48 40
t-49.5 31t-56.5 12.5q-34 0 -59.5 -14t-44.5 -33t-31.5 -39.5t-20.5 -32.5zM98 109l165 23v1253l-165 26v111h395l673 -983l106 -198v1045l-179 25v111h496v-111l-166 -26v-1385h-164l-689 1003l-156 272v-1142l191 -24v-109h-507v109z" />
    <glyph glyph-name="Ograve" unicode="&#xd2;" horiz-adv-x="1480" 
d="M829 1633q-23 7 -57 22t-73 35t-80 44t-78 49.5t-67.5 51.5t-47.5 50l152 127h1l331 -311l-80 -68h-1v0zM727 -23q-163 -3 -286.5 52.5t-207 158t-125.5 246t-42 316.5q0 181 52.5 326.5t145.5 248.5t219.5 158.5t274.5 55.5q163 0 286 -54.5t205 -154t123 -240.5
t41 -313q0 -181 -52 -327.5t-143.5 -250.5t-217 -161.5t-273.5 -60.5zM740 95q94 0 170.5 42.5t130.5 127t83.5 212.5t29.5 299q0 150 -27.5 270t-80.5 203.5t-130 128t-175 44.5q-94 0 -170.5 -40.5t-131 -123.5t-84 -209.5t-29.5 -297.5q0 -150 27.5 -271.5t80.5 -207
t130 -131.5t176 -46z" />
    <glyph glyph-name="Oacute" unicode="&#xd3;" horiz-adv-x="1480" 
d="M600 1701l331 311h1l153 -127q-20 -25 -51 -51.5t-68.5 -52.5t-78.5 -49.5t-79 -43t-71.5 -34t-55.5 -21.5h-1zM727 -23q-163 -3 -286.5 52.5t-207 158t-125.5 246t-42 316.5q0 181 52.5 326.5t145.5 248.5t219.5 158.5t274.5 55.5q163 0 286 -54.5t205 -154t123 -240.5
t41 -313q0 -181 -52 -327.5t-143.5 -250.5t-217 -161.5t-273.5 -60.5zM740 95q94 0 170.5 42.5t130.5 127t83.5 212.5t29.5 299q0 150 -27.5 270t-80.5 203.5t-130 128t-175 44.5q-94 0 -170.5 -40.5t-131 -123.5t-84 -209.5t-29.5 -297.5q0 -150 27.5 -271.5t80.5 -207
t130 -131.5t176 -46z" />
    <glyph glyph-name="Ocircumflex" unicode="&#xd4;" horiz-adv-x="1480" 
d="M727 -23q-163 -3 -286.5 52.5t-207 158t-125.5 246t-42 316.5q0 181 52.5 326.5t145.5 248.5t219.5 158.5t274.5 55.5q163 0 286 -54.5t205 -154t123 -240.5t41 -313q0 -181 -52 -327.5t-143.5 -250.5t-217 -161.5t-273.5 -60.5zM740 95q94 0 170.5 42.5t130.5 127
t83.5 212.5t29.5 299q0 150 -27.5 270t-80.5 203.5t-130 128t-175 44.5q-94 0 -170.5 -40.5t-131 -123.5t-84 -209.5t-29.5 -297.5q0 -150 27.5 -271.5t80.5 -207t130 -131.5t176 -46zM381 1713l271 300h183l274 -298l-92 -61l-273 202l-278 -202z" />
    <glyph glyph-name="Otilde" unicode="&#xd5;" horiz-adv-x="1480" 
d="M317 1795q10 33 34.5 70.5t61.5 69t85.5 52.5t105.5 21q42 0 74.5 -12.5t59 -30.5t49.5 -40t45 -40t45.5 -30.5t52.5 -12.5q35 0 59 13.5t41 32.5t28 39.5t19 34.5l98 -64q-15 -41 -38.5 -79.5t-56.5 -68.5t-75.5 -48t-95.5 -18q-41 0 -74 12.5t-60.5 31t-51.5 40t-48 40
t-49.5 31t-56.5 12.5q-34 0 -59.5 -14t-44.5 -33t-31.5 -39.5t-20.5 -32.5zM727 -23q-163 -3 -286.5 52.5t-207 158t-125.5 246t-42 316.5q0 181 52.5 326.5t145.5 248.5t219.5 158.5t274.5 55.5q163 0 286 -54.5t205 -154t123 -240.5t41 -313q0 -181 -52 -327.5
t-143.5 -250.5t-217 -161.5t-273.5 -60.5zM740 95q94 0 170.5 42.5t130.5 127t83.5 212.5t29.5 299q0 150 -27.5 270t-80.5 203.5t-130 128t-175 44.5q-94 0 -170.5 -40.5t-131 -123.5t-84 -209.5t-29.5 -297.5q0 -150 27.5 -271.5t80.5 -207t130 -131.5t176 -46z" />
    <glyph glyph-name="Odieresis" unicode="&#xd6;" horiz-adv-x="1480" 
d="M981 1687q-29 0 -52 11t-39.5 29.5t-25.5 43.5t-9 52q0 32 9 61t27.5 51t46 35t63.5 13h1q33 0 58 -12t41.5 -31t25 -44t8.5 -50q0 -33 -9.5 -62t-28 -50.5t-47.5 -34t-68 -12.5h-1zM480 1687q-28 0 -51 10.5t-39.5 29t-25.5 43.5t-9 53q0 32 9 61t27.5 51t46 35t64.5 13
h1q32 0 57 -12t41.5 -31t25 -44t8.5 -50q0 -33 -9.5 -62t-28.5 -50.5t-48 -34t-68 -12.5h-1zM727 -23q-163 -3 -286.5 52.5t-207 158t-125.5 246t-42 316.5q0 181 52.5 326.5t145.5 248.5t219.5 158.5t274.5 55.5q163 0 286 -54.5t205 -154t123 -240.5t41 -313
q0 -181 -52 -327.5t-143.5 -250.5t-217 -161.5t-273.5 -60.5zM740 95q94 0 170.5 42.5t130.5 127t83.5 212.5t29.5 299q0 150 -27.5 270t-80.5 203.5t-130 128t-175 44.5q-94 0 -170.5 -40.5t-131 -123.5t-84 -209.5t-29.5 -297.5q0 -150 27.5 -271.5t80.5 -207t130 -131.5
t176 -46z" />
    <glyph glyph-name="multiply" unicode="&#xd7;" horiz-adv-x="1240" 
d="M509 616l-347 328l133 137l325 -355l325 354l132 -136l-346 -328l346 -327l-132 -137l-325 354l-325 -354l-132 137z" />
    <glyph glyph-name="Oslash" unicode="&#xd8;" horiz-adv-x="1480" 
d="M411 43q-86 43 -150.5 112.5t-107.5 160t-65 200t-22 234.5q0 181 52.5 326.5t145.5 248.5t219.5 158.5t274.5 55.5q58 0 111 -7t101 -21l80 208l106 -36l-85 -211q85 -42 149.5 -109.5t107 -156t64 -197t21.5 -232.5q0 -181 -52 -327.5t-143.5 -250.5t-217 -161.5
t-273.5 -60.5q-58 -1 -111 5.5t-101 19.5l-90 -218l-108 33zM918 1376q-78 46 -177 46q-94 0 -170.5 -40.5t-131 -123.5t-84 -209.5t-29.5 -297.5q0 -187 42 -327t122 -223zM568 139q76 -44 172 -44q94 0 170.5 42.5t130.5 127t83.5 212.5t29.5 299q0 183 -40.5 319.5
t-117.5 217.5z" />
    <glyph glyph-name="Ugrave" unicode="&#xd9;" horiz-adv-x="1508" 
d="M880 1633q-23 7 -57 22t-73 35t-80 44t-78 49.5t-67.5 51.5t-47.5 50l152 127h1l331 -311l-80 -68h-1v0zM184 1385l-144 26v111h558v-111l-170 -26v-765q0 -145 27 -244t76.5 -159.5t118.5 -87t153 -26.5q90 0 157 34t112 99t67.5 159t22.5 214v776l-165 26v111h479v-111
l-148 -26v-766q0 -165 -42 -285t-116 -198t-175 -115t-219 -37q-155 0 -267 39t-184 119.5t-106.5 205t-34.5 295.5v742z" />
    <glyph glyph-name="Uacute" unicode="&#xda;" horiz-adv-x="1508" 
d="M648 1701l331 311h1l153 -127q-20 -25 -51 -51.5t-68.5 -52.5t-78.5 -49.5t-79 -43t-71.5 -34t-55.5 -21.5h-1zM184 1385l-144 26v111h558v-111l-170 -26v-765q0 -145 27 -244t76.5 -159.5t118.5 -87t153 -26.5q90 0 157 34t112 99t67.5 159t22.5 214v776l-165 26v111
h479v-111l-148 -26v-766q0 -165 -42 -285t-116 -198t-175 -115t-219 -37q-155 0 -267 39t-184 119.5t-106.5 205t-34.5 295.5v742z" />
    <glyph glyph-name="Ucircumflex" unicode="&#xdb;" horiz-adv-x="1508" 
d="M184 1385l-144 26v111h558v-111l-170 -26v-765q0 -145 27 -244t76.5 -159.5t118.5 -87t153 -26.5q90 0 157 34t112 99t67.5 159t22.5 214v776l-165 26v111h479v-111l-148 -26v-766q0 -165 -42 -285t-116 -198t-175 -115t-219 -37q-155 0 -267 39t-184 119.5t-106.5 205
t-34.5 295.5v742zM429 1713l271 300h183l274 -298l-92 -61l-273 202l-278 -202z" />
    <glyph glyph-name="Udieresis" unicode="&#xdc;" horiz-adv-x="1508" 
d="M1029 1687q-29 0 -52 11t-39.5 29.5t-25.5 43.5t-9 52q0 32 9 61t27.5 51t46 35t63.5 13h1q33 0 58 -12t41.5 -31t25 -44t8.5 -50q0 -33 -9.5 -62t-28 -50.5t-47.5 -34t-68 -12.5h-1zM528 1687q-28 0 -51 10.5t-39.5 29t-25.5 43.5t-9 53q0 32 9 61t27.5 51t46 35
t64.5 13h1q32 0 57 -12t41.5 -31t25 -44t8.5 -50q0 -33 -9.5 -62t-28.5 -50.5t-48 -34t-68 -12.5h-1zM184 1385l-144 26v111h558v-111l-170 -26v-765q0 -145 27 -244t76.5 -159.5t118.5 -87t153 -26.5q90 0 157 34t112 99t67.5 159t22.5 214v776l-165 26v111h479v-111
l-148 -26v-766q0 -165 -42 -285t-116 -198t-175 -115t-219 -37q-155 0 -267 39t-184 119.5t-106.5 205t-34.5 295.5v742z" />
    <glyph glyph-name="Yacute" unicode="&#xdd;" horiz-adv-x="1317" 
d="M333 109l219 24v459l-452 792l-128 27v111h548v-111l-155 -26l282 -543l57 -145l65 143l268 546l-162 25v111h473v-111l-133 -25l-420 -789v-465l224 -23v-109h-686v109zM541 1701l331 311h1l153 -127q-20 -25 -51 -51.5t-68.5 -52.5t-78.5 -49.5t-79 -43t-71.5 -34
t-55.5 -21.5h-1z" />
    <glyph glyph-name="Thorn" unicode="&#xde;" horiz-adv-x="1327" 
d="M95 107l168 24v1256l-165 28v107h572v-107l-174 -28v-223q74 6 148 13t162 7q110 0 196 -25t145.5 -74.5t90.5 -125t31 -175.5q0 -116 -36.5 -201t-105 -140t-166.5 -81.5t-221 -26.5q-87 0 -143.5 2t-100.5 6v-212l216 -24v-107h-617v107zM496 457q62 -8 116.5 -8.5
t105.5 -0.5q63 0 117.5 16.5t94 55t62.5 100.5t23 152q0 67 -17 121.5t-55.5 93t-100.5 58.5t-152 18q-57 -2 -107 -7.5t-87 -10.5v-588z" />
    <glyph glyph-name="germandbls" unicode="&#xdf;" horiz-adv-x="1298" 
d="M51 109l133 19v828q0 156 47 277t127 204t187 126t226 43q76 0 140.5 -16.5t112 -50t74.5 -85.5t27 -122q0 -58 -16.5 -101.5t-41.5 -78.5t-54 -63.5t-54 -56.5t-41.5 -58.5t-16.5 -68.5q0 -44 26.5 -82t66.5 -75.5t86.5 -77.5t86.5 -88t66.5 -107.5t26.5 -136.5
q0 -89 -35.5 -156.5t-98.5 -113t-148.5 -68.5t-184.5 -23q-20 0 -44 2t-47.5 5.5t-45 7.5t-35.5 8v156q35 -15 85 -25t104 -10q56 0 95.5 14t64 37.5t35.5 54.5t11 64q0 60 -24 106.5t-60 87.5t-77.5 78.5t-77.5 79.5t-60 91t-24 112q0 38 15 70.5t38 63.5t49 62.5t49 67
t38 77t15 93.5q0 98 -46.5 149t-137.5 51q-149 0 -223 -119.5t-74 -366.5v-994h-365v109z" />
    <glyph glyph-name="agrave" unicode="&#xe0;" horiz-adv-x="1148" 
d="M85 302q0 105 56.5 178t150 119t214 68t249.5 24v52q0 68 -10 116t-35.5 78t-68.5 44t-109 14q-56 0 -108.5 -9.5t-98.5 -24t-84 -31t-65 -30.5h-1l-50 104q17 16 64.5 42.5t112 52t139.5 44t147 18.5q108 0 182 -21.5t119.5 -69.5t65.5 -124.5t20 -185.5v-650h122v-98
q-19 -5 -45.5 -11t-56.5 -11t-60.5 -9t-57.5 -4q-29 0 -49 3t-33 13.5t-19 31t-6 54.5v48q-17 -16 -48.5 -41.5t-75 -49.5t-98 -41.5t-117.5 -17.5q-69 0 -132 19t-110.5 58.5t-75.5 101t-28 146.5zM334 331q0 -55 14.5 -93.5t40 -63t61 -35.5t76.5 -11q23 0 52.5 7
t60.5 19.5t61 29t55 35.5v359q-116 0 -196 -20.5t-130 -54t-72.5 -78.5t-22.5 -94zM595 1334q-23 8 -58 30t-75.5 52t-83 65.5t-80.5 71t-67 67.5t-43 55l159 139h1l330 -406l-82 -74h-1v0z" />
    <glyph glyph-name="aacute" unicode="&#xe1;" horiz-adv-x="1148" 
d="M85 302q0 105 56.5 178t150 119t214 68t249.5 24v52q0 68 -10 116t-35.5 78t-68.5 44t-109 14q-56 0 -108.5 -9.5t-98.5 -24t-84 -31t-65 -30.5h-1l-50 104q17 16 64.5 42.5t112 52t139.5 44t147 18.5q108 0 182 -21.5t119.5 -69.5t65.5 -124.5t20 -185.5v-650h122v-98
q-19 -5 -45.5 -11t-56.5 -11t-60.5 -9t-57.5 -4q-29 0 -49 3t-33 13.5t-19 31t-6 54.5v48q-17 -16 -48.5 -41.5t-75 -49.5t-98 -41.5t-117.5 -17.5q-69 0 -132 19t-110.5 58.5t-75.5 101t-28 146.5zM334 331q0 -55 14.5 -93.5t40 -63t61 -35.5t76.5 -11q23 0 52.5 7
t60.5 19.5t61 29t55 35.5v359q-116 0 -196 -20.5t-130 -54t-72.5 -78.5t-22.5 -94zM406 1408l330 406h1l159 -139q-14 -23 -43 -55t-66.5 -67t-80 -70t-83 -65t-76 -52.5t-58.5 -31.5h-2z" />
    <glyph glyph-name="acircumflex" unicode="&#xe2;" horiz-adv-x="1148" 
d="M85 302q0 105 56.5 178t150 119t214 68t249.5 24v52q0 68 -10 116t-35.5 78t-68.5 44t-109 14q-56 0 -108.5 -9.5t-98.5 -24t-84 -31t-65 -30.5h-1l-50 104q17 16 64.5 42.5t112 52t139.5 44t147 18.5q108 0 182 -21.5t119.5 -69.5t65.5 -124.5t20 -185.5v-650h122v-98
q-19 -5 -45.5 -11t-56.5 -11t-60.5 -9t-57.5 -4q-29 0 -49 3t-33 13.5t-19 31t-6 54.5v48q-17 -16 -48.5 -41.5t-75 -49.5t-98 -41.5t-117.5 -17.5q-69 0 -132 19t-110.5 58.5t-75.5 101t-28 146.5zM334 331q0 -55 14.5 -93.5t40 -63t61 -35.5t76.5 -11q23 0 52.5 7
t60.5 19.5t61 29t55 35.5v359q-116 0 -196 -20.5t-130 -54t-72.5 -78.5t-22.5 -94zM165 1382l288 399h180l281 -398l-90 -58l-281 281l-296 -282z" />
    <glyph glyph-name="atilde" unicode="&#xe3;" horiz-adv-x="1148" 
d="M85 302q0 105 56.5 178t150 119t214 68t249.5 24v52q0 68 -10 116t-35.5 78t-68.5 44t-109 14q-56 0 -108.5 -9.5t-98.5 -24t-84 -31t-65 -30.5h-1l-50 104q17 16 64.5 42.5t112 52t139.5 44t147 18.5q108 0 182 -21.5t119.5 -69.5t65.5 -124.5t20 -185.5v-650h122v-98
q-19 -5 -45.5 -11t-56.5 -11t-60.5 -9t-57.5 -4q-29 0 -49 3t-33 13.5t-19 31t-6 54.5v48q-17 -16 -48.5 -41.5t-75 -49.5t-98 -41.5t-117.5 -17.5q-69 0 -132 19t-110.5 58.5t-75.5 101t-28 146.5zM334 331q0 -55 14.5 -93.5t40 -63t61 -35.5t76.5 -11q23 0 52.5 7
t60.5 19.5t61 29t55 35.5v359q-116 0 -196 -20.5t-130 -54t-72.5 -78.5t-22.5 -94zM116 1448q10 33 34.5 71t61.5 69.5t85.5 52.5t105.5 21q41 0 73.5 -12.5t59 -30.5t49 -40t44.5 -40t45.5 -30.5t51.5 -12.5q34 0 59 13.5t42.5 32t28.5 38.5t18 33l98 -62
q-15 -40 -38.5 -78.5t-56.5 -69t-76 -49t-97 -18.5q-41 0 -73.5 12.5t-59.5 31t-50.5 40t-47 40t-49 31t-56.5 12.5q-34 0 -59.5 -13.5t-44 -32.5t-31 -38.5t-20.5 -32.5z" />
    <glyph glyph-name="adieresis" unicode="&#xe4;" horiz-adv-x="1148" 
d="M85 302q0 105 56.5 178t150 119t214 68t249.5 24v52q0 68 -10 116t-35.5 78t-68.5 44t-109 14q-56 0 -108.5 -9.5t-98.5 -24t-84 -31t-65 -30.5h-1l-50 104q17 16 64.5 42.5t112 52t139.5 44t147 18.5q108 0 182 -21.5t119.5 -69.5t65.5 -124.5t20 -185.5v-650h122v-98
q-19 -5 -45.5 -11t-56.5 -11t-60.5 -9t-57.5 -4q-29 0 -49 3t-33 13.5t-19 31t-6 54.5v48q-17 -16 -48.5 -41.5t-75 -49.5t-98 -41.5t-117.5 -17.5q-69 0 -132 19t-110.5 58.5t-75.5 101t-28 146.5zM334 331q0 -55 14.5 -93.5t40 -63t61 -35.5t76.5 -11q23 0 52.5 7
t60.5 19.5t61 29t55 35.5v359q-116 0 -196 -20.5t-130 -54t-72.5 -78.5t-22.5 -94zM764 1355q-28 0 -51 11t-39.5 29.5t-25.5 43.5t-9 53q0 31 9 60t27.5 51.5t46 35.5t64.5 13h1q33 0 57.5 -11.5t41.5 -31t25.5 -44.5t8.5 -51q0 -33 -9.5 -62t-28.5 -50.5t-48 -34
t-69 -12.5h-1zM297 1355q-29 0 -52 10.5t-39.5 29t-25.5 43.5t-9 54q0 31 9 60t27.5 51.5t46 35.5t64.5 13h1q32 0 57 -11.5t41.5 -31t25 -44.5t8.5 -51q0 -33 -9.5 -62t-28.5 -50.5t-47.5 -34t-67.5 -12.5h-1z" />
    <glyph glyph-name="aring" unicode="&#xe5;" horiz-adv-x="1148" 
d="M85 302q0 105 56.5 178t150 119t214 68t249.5 24v52q0 68 -10 116t-35.5 78t-68.5 44t-109 14q-56 0 -108.5 -9.5t-98.5 -24t-84 -31t-65 -30.5h-1l-50 104q17 16 64.5 42.5t112 52t139.5 44t147 18.5q108 0 182 -21.5t119.5 -69.5t65.5 -124.5t20 -185.5v-650h122v-98
q-19 -5 -45.5 -11t-56.5 -11t-60.5 -9t-57.5 -4q-29 0 -49 3t-33 13.5t-19 31t-6 54.5v48q-17 -16 -48.5 -41.5t-75 -49.5t-98 -41.5t-117.5 -17.5q-69 0 -132 19t-110.5 58.5t-75.5 101t-28 146.5zM334 331q0 -55 14.5 -93.5t40 -63t61 -35.5t76.5 -11q23 0 52.5 7
t60.5 19.5t61 29t55 35.5v359q-116 0 -196 -20.5t-130 -54t-72.5 -78.5t-22.5 -94zM538 1309q-86 0 -148.5 22.5t-103 61.5t-60 92t-18.5 113q1 66 31 117t78.5 86t110 53t125.5 18h1q79 0 139 -21.5t100.5 -59t60.5 -88.5t20 -111q-1 -68 -28 -120.5t-73 -88.5t-106.5 -55
t-127.5 -19h-1zM545 1415q93 0 132.5 43t39.5 127q0 36 -9.5 68.5t-30 56.5t-53 38.5t-78.5 14.5h-1q-92 0 -135 -44.5t-43 -120.5q0 -36 10.5 -69t32 -58.5t55 -40.5t79.5 -15h1z" />
    <glyph glyph-name="ae" unicode="&#xe6;" horiz-adv-x="1781" 
d="M83 301q0 70 25.5 126t71 98.5t108 72.5t136.5 50t156 29.5t167 11.5v61q0 67 -9.5 114t-33.5 76.5t-66.5 43t-108.5 13.5q-56 0 -108 -9.5t-98 -23.5t-86.5 -31t-74.5 -33l-50 102q20 18 69.5 45t115 52.5t141 43.5t147.5 18q134 0 214 -34t119 -110q71 72 165.5 111.5
t207.5 39.5q192 0 297 -104t113 -304q0 -64 -2 -112t-10 -84h-694q3 -114 31.5 -196t74 -134.5t106 -77.5t128.5 -25q43 0 87.5 8t85 21.5t74.5 30t57 34.5l42 -96q-28 -29 -73 -56.5t-99.5 -48.5t-116.5 -34t-125 -13q-150 0 -255 57.5t-168 160.5q-24 -34 -62.5 -72.5
t-91 -70.5t-118.5 -53.5t-144 -21.5q-68 0 -130.5 19t-110 58.5t-76 101t-28.5 145.5zM1461 680q2 20 2.5 43.5t0.5 42.5q0 58 -12 109t-37.5 89.5t-66.5 60.5t-101 22q-51 0 -95 -17.5t-77 -60t-54 -113t-26 -176.5h466zM331 332q0 -56 14.5 -95t40 -63t60 -35t75.5 -11
q46 0 89.5 15t80.5 38.5t65.5 51.5t43.5 54q-46 123 -46 284v3l-7 5v2q-112 0 -191 -20.5t-129 -55t-73 -79.5t-23 -94z" />
    <glyph glyph-name="ccedilla" unicode="&#xe7;" horiz-adv-x="1047" 
d="M373 -314q21 -8 47.5 -11t38.5 -3h1q34 0 60.5 4.5t44.5 19t27.5 42.5t9.5 75q0 22 -4.5 45t-12 45t-16 41.5t-15.5 34.5q-119 7 -208 53.5t-148.5 123t-89.5 177.5t-31 218q0 126 36 238t108.5 196.5t180.5 133.5t251 49q52 0 99 -7t87 -16.5t71 -20.5t51 -18l-10 -308
h-139l-46 187q-14 34 -57 49.5t-98 15.5q-65 0 -118 -26.5t-91.5 -79.5t-59.5 -133t-21 -186q-1 -130 25 -223.5t70.5 -153.5t104 -88.5t127.5 -28.5q47 0 89.5 8t78.5 20.5t66 28t52 31.5l43 -92q-22 -23 -54.5 -45.5t-72 -42t-85.5 -34.5t-95 -22q17 -20 37.5 -50
t37.5 -66t27.5 -77.5t8.5 -83.5q-3 -56 -21.5 -94.5t-52 -62t-81.5 -33.5t-109 -10h-1q-17 0 -37 2t-39.5 5.5t-37 8.5t-30.5 11l1 153v0z" />
    <glyph glyph-name="egrave" unicode="&#xe8;" horiz-adv-x="1112" 
d="M85 571q0 134 40 244t111.5 188.5t170 121.5t215.5 43q192 0 297 -104t112 -304q1 -64 -1.5 -112t-10.5 -84h-693q3 -114 31.5 -196t74 -134.5t106 -77.5t128.5 -25q43 0 87 8t84.5 21.5t75 30t57.5 34.5l42 -96q-28 -29 -73 -56.5t-99.5 -48.5t-116.5 -34t-125 -13
q-129 0 -225.5 43.5t-160.5 122.5t-95.5 188t-31.5 240zM791 680q2 20 3 43.5t1 42.5q0 58 -12 109t-37.5 89.5t-66.5 60.5t-101 22q-51 0 -95 -17.5t-77.5 -60t-54 -113t-25.5 -176.5h465zM640 1334q-23 8 -58 30t-75.5 52t-83 65.5t-80.5 71t-67 67.5t-43 55l159 139h1
l330 -406l-82 -74h-1v0z" />
    <glyph glyph-name="eacute" unicode="&#xe9;" horiz-adv-x="1112" 
d="M451 1408l330 406h1l159 -139q-14 -23 -43 -55t-66.5 -67t-80 -70t-83 -65t-76 -52.5t-58.5 -31.5h-2zM85 571q0 134 40 244t111.5 188.5t170 121.5t215.5 43q192 0 297 -104t112 -304q1 -64 -1.5 -112t-10.5 -84h-693q3 -114 31.5 -196t74 -134.5t106 -77.5t128.5 -25
q43 0 87 8t84.5 21.5t75 30t57.5 34.5l42 -96q-28 -29 -73 -56.5t-99.5 -48.5t-116.5 -34t-125 -13q-129 0 -225.5 43.5t-160.5 122.5t-95.5 188t-31.5 240zM791 680q2 20 3 43.5t1 42.5q0 58 -12 109t-37.5 89.5t-66.5 60.5t-101 22q-51 0 -95 -17.5t-77.5 -60t-54 -113
t-25.5 -176.5h465z" />
    <glyph glyph-name="ecircumflex" unicode="&#xea;" horiz-adv-x="1112" 
d="M208 1382l288 399h180l281 -398l-90 -58l-281 281l-296 -282zM85 571q0 134 40 244t111.5 188.5t170 121.5t215.5 43q192 0 297 -104t112 -304q1 -64 -1.5 -112t-10.5 -84h-693q3 -114 31.5 -196t74 -134.5t106 -77.5t128.5 -25q43 0 87 8t84.5 21.5t75 30t57.5 34.5
l42 -96q-28 -29 -73 -56.5t-99.5 -48.5t-116.5 -34t-125 -13q-129 0 -225.5 43.5t-160.5 122.5t-95.5 188t-31.5 240zM791 680q2 20 3 43.5t1 42.5q0 58 -12 109t-37.5 89.5t-66.5 60.5t-101 22q-51 0 -95 -17.5t-77.5 -60t-54 -113t-25.5 -176.5h465z" />
    <glyph glyph-name="edieresis" unicode="&#xeb;" horiz-adv-x="1112" 
d="M809 1355q-28 0 -51 11t-39.5 29.5t-25.5 43.5t-9 53q0 31 9 60t27.5 51.5t46 35.5t64.5 13h1q33 0 57.5 -11.5t41.5 -31t25.5 -44.5t8.5 -51q0 -33 -9.5 -62t-28.5 -50.5t-48 -34t-69 -12.5h-1zM342 1355q-29 0 -52 10.5t-39.5 29t-25.5 43.5t-9 54q0 31 9 60t27.5 51.5
t46 35.5t64.5 13h1q32 0 57 -11.5t41.5 -31t25 -44.5t8.5 -51q0 -33 -9.5 -62t-28.5 -50.5t-47.5 -34t-67.5 -12.5h-1zM85 571q0 134 40 244t111.5 188.5t170 121.5t215.5 43q192 0 297 -104t112 -304q1 -64 -1.5 -112t-10.5 -84h-693q3 -114 31.5 -196t74 -134.5t106 -77.5
t128.5 -25q43 0 87 8t84.5 21.5t75 30t57.5 34.5l42 -96q-28 -29 -73 -56.5t-99.5 -48.5t-116.5 -34t-125 -13q-129 0 -225.5 43.5t-160.5 122.5t-95.5 188t-31.5 240zM791 680q2 20 3 43.5t1 42.5q0 58 -12 109t-37.5 89.5t-66.5 60.5t-101 22q-51 0 -95 -17.5t-77.5 -60
t-54 -113t-25.5 -176.5h465z" />
    <glyph glyph-name="igrave" unicode="&#xec;" horiz-adv-x="685" 
d="M78 109l162 17v838l-145 41v118l318 41h5l51 -39v-999l160 -17v-109h-551v109zM393 1334q-23 8 -58 30t-75.5 52t-83 65.5t-80.5 71t-67 67.5t-43 55l159 139h1l330 -406l-82 -74h-1v0z" />
    <glyph glyph-name="iacute" unicode="&#xed;" horiz-adv-x="685" 
d="M204 1408l330 406h1l159 -139q-14 -23 -43 -55t-66.5 -67t-80 -70t-83 -65t-76 -52.5t-58.5 -31.5h-2zM78 109l162 17v838l-145 41v118l318 41h5l51 -39v-999l160 -17v-109h-551v109z" />
    <glyph glyph-name="icircumflex" unicode="&#xee;" horiz-adv-x="685" 
d="M-39 1382l288 399h180l281 -398l-90 -58l-281 281l-296 -282zM78 109l162 17v838l-145 41v118l318 41h5l51 -39v-999l160 -17v-109h-551v109z" />
    <glyph glyph-name="idieresis" unicode="&#xef;" horiz-adv-x="685" 
d="M563 1355q-28 0 -51 11t-39.5 29.5t-25.5 43.5t-9 53q0 31 9 60t27.5 51.5t46 35.5t64.5 13h1q33 0 57.5 -11.5t41.5 -31t25.5 -44.5t8.5 -51q0 -33 -9.5 -62t-28.5 -50.5t-48 -34t-69 -12.5h-1zM96 1355q-29 0 -52 10.5t-39.5 29t-25.5 43.5t-9 54q0 31 9 60t27.5 51.5
t46 35.5t64.5 13h1q32 0 57 -11.5t41.5 -31t25 -44.5t8.5 -51q0 -33 -9.5 -62t-28.5 -50.5t-47.5 -34t-67.5 -12.5h-1zM78 109l162 17v838l-145 41v118l318 41h5l51 -39v-999l160 -17v-109h-551v109z" />
    <glyph glyph-name="eth" unicode="&#xf0;" horiz-adv-x="1189" 
d="M79 535q0 159 44 278t117.5 197.5t169 118t197.5 39.5q59 0 107.5 -11.5t83.5 -25.5q-21 54 -53 107.5t-72.5 104t-89 96t-103.5 82.5l-133 -164l-104 74l137 161q-27 18 -56.5 34.5t-58 30.5t-54.5 24.5t-46 15.5l44 109q38 -11 70.5 -22t62.5 -24t59.5 -27.5
t61.5 -32.5q21 26 43 54t40 51l42 54l98 -81q-19 -23 -38 -47q-17 -21 -37.5 -46t-40.5 -48q118 -80 217.5 -182.5t172.5 -225t114 -264t41 -299.5q0 -81 -12 -163.5t-37.5 -159t-66 -143.5t-98 -116.5t-133.5 -78t-171 -28.5q-133 0 -230.5 42t-161.5 116t-95 176.5
t-31 223.5zM604 99q138 0 203 138t65 407q0 116 -14.5 198t-25.5 120q-10 14 -28.5 30.5t-45.5 30.5t-63 23t-81 9q-66 0 -119 -33.5t-90 -97t-56.5 -156.5t-19.5 -212q0 -88 14.5 -170.5t47 -146t85 -102t128.5 -38.5z" />
    <glyph glyph-name="ntilde" unicode="&#xf1;" horiz-adv-x="1375" 
d="M102 109l131 17v838l-143 40v120l296 40h5l47 -39v-81l-1 -46q33 30 81 59.5t103.5 53t115 38t115.5 14.5q98 0 161.5 -27t100.5 -84.5t51.5 -147t14.5 -213.5v-565l144 -17v-109h-502v109l128 17v566q0 81 -7.5 140.5t-29 98.5t-61 58t-103.5 19q-38 0 -77.5 -9t-77 -24
t-71.5 -34t-61 -39v-776l138 -17v-109h-498v109zM282 1448q10 33 34.5 71t61.5 69.5t85.5 52.5t105.5 21q41 0 73.5 -12.5t59 -30.5t49 -40t44.5 -40t45.5 -30.5t51.5 -12.5q34 0 59 13.5t42.5 32t28.5 38.5t18 33l98 -62q-15 -40 -38.5 -78.5t-56.5 -69t-76 -49t-97 -18.5
q-41 0 -73.5 12.5t-59.5 31t-50.5 40t-47 40t-49 31t-56.5 12.5q-34 0 -59.5 -13.5t-44 -32.5t-31 -38.5t-20.5 -32.5z" />
    <glyph glyph-name="ograve" unicode="&#xf2;" 
d="M79 573q0 143 46.5 254t122.5 186.5t173.5 115t199.5 39.5q135 0 233 -46t161 -126t93.5 -189t30.5 -235q0 -145 -46 -256t-122 -186.5t-174 -114t-201 -38.5q-135 0 -232.5 46t-160.5 126t-93.5 189t-30.5 235zM609 101q277 0 277 453q0 105 -15 194.5t-48 155.5
t-85.5 103t-128.5 37q-137 0 -207.5 -113t-70.5 -340q0 -105 15.5 -195t48.5 -155.5t86 -102.5t128 -37zM668 1334q-23 8 -58 30t-75.5 52t-83 65.5t-80.5 71t-67 67.5t-43 55l159 139h1l330 -406l-82 -74h-1v0z" />
    <glyph glyph-name="oacute" unicode="&#xf3;" 
d="M479 1408l330 406h1l159 -139q-14 -23 -43 -55t-66.5 -67t-80 -70t-83 -65t-76 -52.5t-58.5 -31.5h-2zM79 573q0 143 46.5 254t122.5 186.5t173.5 115t199.5 39.5q135 0 233 -46t161 -126t93.5 -189t30.5 -235q0 -145 -46 -256t-122 -186.5t-174 -114t-201 -38.5
q-135 0 -232.5 46t-160.5 126t-93.5 189t-30.5 235zM609 101q277 0 277 453q0 105 -15 194.5t-48 155.5t-85.5 103t-128.5 37q-137 0 -207.5 -113t-70.5 -340q0 -105 15.5 -195t48.5 -155.5t86 -102.5t128 -37z" />
    <glyph glyph-name="ocircumflex" unicode="&#xf4;" 
d="M238 1382l288 399h180l281 -398l-90 -58l-281 281l-296 -282zM79 573q0 143 46.5 254t122.5 186.5t173.5 115t199.5 39.5q135 0 233 -46t161 -126t93.5 -189t30.5 -235q0 -145 -46 -256t-122 -186.5t-174 -114t-201 -38.5q-135 0 -232.5 46t-160.5 126t-93.5 189
t-30.5 235zM609 101q277 0 277 453q0 105 -15 194.5t-48 155.5t-85.5 103t-128.5 37q-137 0 -207.5 -113t-70.5 -340q0 -105 15.5 -195t48.5 -155.5t86 -102.5t128 -37z" />
    <glyph glyph-name="otilde" unicode="&#xf5;" 
d="M79 573q0 143 46.5 254t122.5 186.5t173.5 115t199.5 39.5q135 0 233 -46t161 -126t93.5 -189t30.5 -235q0 -145 -46 -256t-122 -186.5t-174 -114t-201 -38.5q-135 0 -232.5 46t-160.5 126t-93.5 189t-30.5 235zM609 101q277 0 277 453q0 105 -15 194.5t-48 155.5
t-85.5 103t-128.5 37q-137 0 -207.5 -113t-70.5 -340q0 -105 15.5 -195t48.5 -155.5t86 -102.5t128 -37zM189 1448q10 33 34.5 71t61.5 69.5t85.5 52.5t105.5 21q41 0 73.5 -12.5t59 -30.5t49 -40t44.5 -40t45.5 -30.5t51.5 -12.5q34 0 59 13.5t42.5 32t28.5 38.5t18 33
l98 -62q-15 -40 -38.5 -78.5t-56.5 -69t-76 -49t-97 -18.5q-41 0 -73.5 12.5t-59.5 31t-50.5 40t-47 40t-49 31t-56.5 12.5q-34 0 -59.5 -13.5t-44 -32.5t-31 -38.5t-20.5 -32.5z" />
    <glyph glyph-name="odieresis" unicode="&#xf6;" 
d="M838 1355q-28 0 -51 11t-39.5 29.5t-25.5 43.5t-9 53q0 31 9 60t27.5 51.5t46 35.5t64.5 13h1q33 0 57.5 -11.5t41.5 -31t25.5 -44.5t8.5 -51q0 -33 -9.5 -62t-28.5 -50.5t-48 -34t-69 -12.5h-1zM371 1355q-29 0 -52 10.5t-39.5 29t-25.5 43.5t-9 54q0 31 9 60t27.5 51.5
t46 35.5t64.5 13h1q32 0 57 -11.5t41.5 -31t25 -44.5t8.5 -51q0 -33 -9.5 -62t-28.5 -50.5t-47.5 -34t-67.5 -12.5h-1zM79 573q0 143 46.5 254t122.5 186.5t173.5 115t199.5 39.5q135 0 233 -46t161 -126t93.5 -189t30.5 -235q0 -145 -46 -256t-122 -186.5t-174 -114
t-201 -38.5q-135 0 -232.5 46t-160.5 126t-93.5 189t-30.5 235zM609 101q277 0 277 453q0 105 -15 194.5t-48 155.5t-85.5 103t-128.5 37q-137 0 -207.5 -113t-70.5 -340q0 -105 15.5 -195t48.5 -155.5t86 -102.5t128 -37z" />
    <glyph glyph-name="divide" unicode="&#xf7;" horiz-adv-x="1362" 
d="M686 884q-27 0 -51.5 9t-44 26.5t-31 42t-11.5 54.5q0 33 14 61.5t36.5 49.5t52 32.5t59.5 11.5q36 0 63 -11t44 -29t25.5 -42.5t8.5 -51.5q0 -35 -13.5 -63.5t-36 -48.5t-52.5 -30.5t-63 -10.5zM215 695h932v-161h-932v161zM532 195q0 33 14 61.5t36.5 49.5t51.5 32.5
t60 11.5q36 0 62.5 -11t43.5 -29t25.5 -42.5t8.5 -51.5q0 -35 -13.5 -64t-36 -49t-52.5 -31t-63 -11q-27 0 -51.5 9.5t-43.5 27t-30.5 42t-11.5 55.5z" />
    <glyph glyph-name="oslash" unicode="&#xf8;" 
d="M359 25q-72 34 -125 88.5t-87.5 125.5t-51 155.5t-16.5 178.5q0 143 46.5 254t122.5 186.5t173.5 115t199.5 39.5q41 0 77.5 -4.5t70.5 -12.5l69 195l96 -26l-68 -204q70 -35 121.5 -89.5t85.5 -125t50 -154t16 -175.5q0 -145 -46 -256t-122 -186.5t-174 -114t-201 -38.5
q-74 0 -137 15l-79 -210l-101 29zM724 1014q-25 14 -53.5 22t-61.5 8q-137 0 -207.5 -113t-70.5 -340q0 -131 23.5 -236t76.5 -171zM499 127q47 -26 110 -26q277 0 277 453q0 127 -21.5 229.5t-70.5 168.5z" />
    <glyph glyph-name="ugrave" unicode="&#xf9;" horiz-adv-x="1307" 
d="M193 999l-111 37v97l296 30h1l42 -27v-706q0 -82 8.5 -139.5t31 -93.5t61.5 -52t100 -16q44 0 83.5 10t72.5 25t60 32t45 32v770l-143 39v97l316 29h2l53 -27v-1023h120v-100q-35 -11 -85 -23.5t-113 -12.5q-62 0 -93.5 23.5t-31.5 83.5v52q-27 -27 -66.5 -55t-86.5 -51
t-100 -38t-107 -15q-93 0 -160 24.5t-110.5 77.5t-64 137t-20.5 203v580zM701 1334q-23 8 -58 30t-75.5 52t-83 65.5t-80.5 71t-67 67.5t-43 55l159 139h1l330 -406l-82 -74h-1v0z" />
    <glyph glyph-name="uacute" unicode="&#xfa;" horiz-adv-x="1307" 
d="M512 1408l330 406h1l159 -139q-14 -23 -43 -55t-66.5 -67t-80 -70t-83 -65t-76 -52.5t-58.5 -31.5h-2zM193 999l-111 37v97l296 30h1l42 -27v-706q0 -82 8.5 -139.5t31 -93.5t61.5 -52t100 -16q44 0 83.5 10t72.5 25t60 32t45 32v770l-143 39v97l316 29h2l53 -27v-1023
h120v-100q-35 -11 -85 -23.5t-113 -12.5q-62 0 -93.5 23.5t-31.5 83.5v52q-27 -27 -66.5 -55t-86.5 -51t-100 -38t-107 -15q-93 0 -160 24.5t-110.5 77.5t-64 137t-20.5 203v580z" />
    <glyph glyph-name="ucircumflex" unicode="&#xfb;" horiz-adv-x="1307" 
d="M270 1382l288 399h180l281 -398l-90 -58l-281 281l-296 -282zM193 999l-111 37v97l296 30h1l42 -27v-706q0 -82 8.5 -139.5t31 -93.5t61.5 -52t100 -16q44 0 83.5 10t72.5 25t60 32t45 32v770l-143 39v97l316 29h2l53 -27v-1023h120v-100q-35 -11 -85 -23.5t-113 -12.5
q-62 0 -93.5 23.5t-31.5 83.5v52q-27 -27 -66.5 -55t-86.5 -51t-100 -38t-107 -15q-93 0 -160 24.5t-110.5 77.5t-64 137t-20.5 203v580z" />
    <glyph glyph-name="udieresis" unicode="&#xfc;" horiz-adv-x="1307" 
d="M851 1355q-28 0 -51 11t-39.5 29.5t-25.5 43.5t-9 53q0 31 9 60t27.5 51.5t46 35.5t64.5 13h1q33 0 57.5 -11.5t41.5 -31t25.5 -44.5t8.5 -51q0 -33 -9.5 -62t-28.5 -50.5t-48 -34t-69 -12.5h-1zM384 1355q-29 0 -52 10.5t-39.5 29t-25.5 43.5t-9 54q0 31 9 60t27.5 51.5
t46 35.5t64.5 13h1q32 0 57 -11.5t41.5 -31t25 -44.5t8.5 -51q0 -33 -9.5 -62t-28.5 -50.5t-47.5 -34t-67.5 -12.5h-1zM193 999l-111 37v97l296 30h1l42 -27v-706q0 -82 8.5 -139.5t31 -93.5t61.5 -52t100 -16q44 0 83.5 10t72.5 25t60 32t45 32v770l-143 39v97l316 29h2
l53 -27v-1023h120v-100q-35 -11 -85 -23.5t-113 -12.5q-62 0 -93.5 23.5t-31.5 83.5v52q-27 -27 -66.5 -55t-86.5 -51t-100 -38t-107 -15q-93 0 -160 24.5t-110.5 77.5t-64 137t-20.5 203v580z" />
    <glyph glyph-name="yacute" unicode="&#xfd;" horiz-adv-x="1180" 
d="M146 -306q6 -4 19.5 -7t30.5 -5.5t35 -4t34 -1.5q39 0 78.5 11t78.5 45.5t78.5 98.5t78.5 169h-113l-374 1005l-95 26v106h509v-106l-157 -26l193 -604l89 -290l80 291l181 604l-134 25v106h420v-106l-102 -25q-152 -470 -239.5 -728.5t-110.5 -311.5q-47 -118 -92 -207
t-98 -149t-119 -90t-154 -30q-15 0 -32.5 1t-34 3.5t-30 5t-20.5 5.5v189v0zM485 1408l330 406h1l159 -139q-14 -23 -43 -55t-66.5 -67t-80 -70t-83 -65t-76 -52.5t-58.5 -31.5h-2z" />
    <glyph glyph-name="thorn" unicode="&#xfe;" horiz-adv-x="1242" 
d="M164 63v1459l-165 20v94l337 43h5l50 -34v-611q25 25 58.5 49t74 43t88 30.5t102.5 11.5q87 0 167.5 -31.5t142.5 -99t99 -173.5t37 -255q0 -132 -41 -247t-117.5 -200.5t-186 -135t-247.5 -49.5q-51 0 -96.5 4t-87.5 10l6 -146v-216l211 -23v-102h-587v102l149 23v434h1
zM391 157q7 -16 25 -28t43.5 -20.5t57.5 -12.5t66 -4q71 0 131 29.5t104 89.5t69 151t27 213q1 114 -21 196.5t-61.5 136.5t-93 79.5t-116.5 25.5q-40 0 -75.5 -10t-65 -26t-52.5 -34.5t-38 -35.5v-750z" />
    <glyph glyph-name="ydieresis" unicode="&#xff;" horiz-adv-x="1180" 
d="M146 -306q6 -4 19.5 -7t30.5 -5.5t35 -4t34 -1.5q39 0 78.5 11t78.5 45.5t78.5 98.5t78.5 169h-113l-374 1005l-95 26v106h509v-106l-157 -26l193 -604l89 -290l80 291l181 604l-134 25v106h420v-106l-102 -25q-152 -470 -239.5 -728.5t-110.5 -311.5q-47 -118 -92 -207
t-98 -149t-119 -90t-154 -30q-15 0 -32.5 1t-34 3.5t-30 5t-20.5 5.5v189v0zM843 1355q-28 0 -51 11t-39.5 29.5t-25.5 43.5t-9 53q0 31 9 60t27.5 51.5t46 35.5t64.5 13h1q33 0 57.5 -11.5t41.5 -31t25.5 -44.5t8.5 -51q0 -33 -9.5 -62t-28.5 -50.5t-48 -34t-69 -12.5h-1z
M376 1355q-29 0 -52 10.5t-39.5 29t-25.5 43.5t-9 54q0 31 9 60t27.5 51.5t46 35.5t64.5 13h1q32 0 57 -11.5t41.5 -31t25 -44.5t8.5 -51q0 -33 -9.5 -62t-28.5 -50.5t-47.5 -34t-67.5 -12.5h-1z" />
    <glyph glyph-name="Amacron" unicode="&#x100;" horiz-adv-x="1417" 
d="M-30 109l127 24l493 1401h238l497 -1401l127 -24v-109h-549v109l163 24l-95 292h-588l-91 -292l171 -24v-109h-492zM930 552l-214 657l-44 168l-44 -170l-205 -655h507zM435 1904h570v-158h-570v158z" />
    <glyph glyph-name="amacron" unicode="&#x101;" horiz-adv-x="1148" 
d="M85 302q0 105 56.5 178t150 119t214 68t249.5 24v52q0 68 -10 116t-35.5 78t-68.5 44t-109 14q-56 0 -108.5 -9.5t-98.5 -24t-84 -31t-65 -30.5h-1l-50 104q17 16 64.5 42.5t112 52t139.5 44t147 18.5q108 0 182 -21.5t119.5 -69.5t65.5 -124.5t20 -185.5v-650h122v-98
q-19 -5 -45.5 -11t-56.5 -11t-60.5 -9t-57.5 -4q-29 0 -49 3t-33 13.5t-19 31t-6 54.5v48q-17 -16 -48.5 -41.5t-75 -49.5t-98 -41.5t-117.5 -17.5q-69 0 -132 19t-110.5 58.5t-75.5 101t-28 146.5zM334 331q0 -55 14.5 -93.5t40 -63t61 -35.5t76.5 -11q23 0 52.5 7
t60.5 19.5t61 29t55 35.5v359q-116 0 -196 -20.5t-130 -54t-72.5 -78.5t-22.5 -94zM263 1586h558v-158h-558v158z" />
    <glyph glyph-name="Abreve" unicode="&#x102;" horiz-adv-x="1417" 
d="M-30 109l127 24l493 1401h238l497 -1401l127 -24v-109h-549v109l163 24l-95 292h-588l-91 -292l171 -24v-109h-492zM930 552l-214 657l-44 168l-44 -170l-205 -655h507zM719 1643q-84 0 -148.5 24.5t-108 67t-66 99.5t-22.5 122v21t2 21h121q0 -4 0.5 -11t2.5 -16
q3 -22 15 -49.5t37 -52t66 -41t103 -16.5q61 0 101.5 16.5t64.5 41t34.5 52.5t13.5 50q2 9 2 15.5v10.5h119q2 -11 2 -20.5v-20.5q0 -65 -22.5 -122.5t-66 -100t-106.5 -67t-144 -24.5z" />
    <glyph glyph-name="abreve" unicode="&#x103;" horiz-adv-x="1148" 
d="M85 302q0 105 56.5 178t150 119t214 68t249.5 24v52q0 68 -10 116t-35.5 78t-68.5 44t-109 14q-56 0 -108.5 -9.5t-98.5 -24t-84 -31t-65 -30.5h-1l-50 104q17 16 64.5 42.5t112 52t139.5 44t147 18.5q108 0 182 -21.5t119.5 -69.5t65.5 -124.5t20 -185.5v-650h122v-98
q-19 -5 -45.5 -11t-56.5 -11t-60.5 -9t-57.5 -4q-29 0 -49 3t-33 13.5t-19 31t-6 54.5v48q-17 -16 -48.5 -41.5t-75 -49.5t-98 -41.5t-117.5 -17.5q-69 0 -132 19t-110.5 58.5t-75.5 101t-28 146.5zM334 331q0 -55 14.5 -93.5t40 -63t61 -35.5t76.5 -11q23 0 52.5 7
t60.5 19.5t61 29t55 35.5v359q-116 0 -196 -20.5t-130 -54t-72.5 -78.5t-22.5 -94zM543 1351q-80 0 -144 28t-108 75t-67.5 109t-23.5 130q0 15 0.5 31.5t3.5 28.5h118q0 -6 0.5 -15.5t2.5 -21.5q4 -27 16 -59.5t37.5 -60.5t66 -46.5t100.5 -18.5t99.5 18.5t63.5 46t35.5 60
t15.5 60.5q3 24 3 37h114q1 -12 2.5 -28t1.5 -31q0 -68 -24 -130.5t-68 -109.5t-106.5 -75t-138.5 -28z" />
    <glyph glyph-name="Aogonek" unicode="&#x104;" horiz-adv-x="1410" 
d="M-34 109l127 24l493 1401h238l497 -1401l127 -24v-109h-157q-49 -21 -90 -51t-71 -63.5t-47 -67.5t-17 -63q0 -33 12 -55.5t32 -37t47.5 -21t58.5 -6.5q37 0 72 9t70 24v-110q-21 -16 -49 -29t-59.5 -22t-65 -13.5t-64.5 -4.5q-50 0 -97 10.5t-83.5 34t-58.5 61t-22 90.5
q0 42 22.5 88.5t60.5 89t88.5 78.5t106.5 59h-238v109l163 24l-95 292h-588l-91 -292l171 -24v-109h-492zM926 552l-214 657l-44 168l-44 -170l-205 -655h507z" />
    <glyph glyph-name="aogonek" unicode="&#x105;" horiz-adv-x="1148" 
d="M85 302q0 105 56.5 178t150 119t214 68t249.5 24v52q0 68 -10 116t-35.5 78t-68.5 44t-109 14q-56 0 -108.5 -9.5t-98.5 -24t-84 -31t-65 -30.5h-1l-50 104q17 16 64.5 42.5t112 52t139.5 44t147 18.5q108 0 182 -21.5t119.5 -69.5t65.5 -124.5t20 -185.5v-650h122v-98
q-21 -6 -51 -12q-55 -19 -102.5 -48.5t-83 -63.5t-56 -68.5t-20.5 -63.5q0 -32 11.5 -55t31 -37.5t46.5 -21.5t58 -7q37 0 71.5 9t69.5 24v-110q-21 -16 -49 -29t-59.5 -22t-64.5 -13.5t-64 -4.5q-50 0 -97 10.5t-83 34t-57.5 61t-21.5 90.5q0 38 21.5 79t57.5 80t84 74
t102 61q-19 2 -32.5 7t-22 16.5t-12.5 30t-4 46.5v48q-17 -16 -48.5 -41.5t-75 -49.5t-98 -41.5t-117.5 -17.5q-69 0 -132 19t-110.5 58.5t-75.5 101t-28 146.5zM334 331q0 -55 14.5 -93.5t40 -63t61 -35.5t76.5 -11q23 0 52.5 7t60.5 19.5t61 29t55 35.5v359
q-116 0 -196 -20.5t-130 -54t-72.5 -78.5t-22.5 -94z" />
    <glyph glyph-name="Cacute" unicode="&#x106;" horiz-adv-x="1335" 
d="M66 762q0 181 57.5 325t157.5 244t235.5 153.5t291.5 53.5q68 0 135 -7.5t125.5 -18t105.5 -21t76 -15.5l-19 -374h-149l-56 255q-20 26 -82 43.5t-171 17.5q-95 0 -175 -41t-138 -121t-90.5 -198t-32.5 -272q0 -133 26.5 -257.5t82.5 -220.5t143 -154t209 -58q52 0 90 7
t65.5 17.5t45.5 23.5t30 26l87 211l142 -19l-44 -306q-40 -3 -76 -15.5t-80.5 -26.5t-102.5 -25.5t-141 -11.5q-180 0 -319.5 53.5t-235 154.5t-144.5 246.5t-49 330.5zM638 1701l331 311h1l153 -127q-20 -25 -51 -51.5t-68.5 -52.5t-78.5 -49.5t-79 -43t-71.5 -34
t-55.5 -21.5h-1z" />
    <glyph glyph-name="cacute" unicode="&#x107;" horiz-adv-x="1047" 
d="M455 1408l330 406h1l159 -139q-14 -23 -43 -55t-66.5 -67t-80 -70t-83 -65t-76 -52.5t-58.5 -31.5h-2zM77 551q0 126 36 238t108.5 196.5t180.5 133.5t251 49q52 0 99 -7t87 -16.5t71 -20.5t51 -18l-10 -308h-139l-46 187q-14 34 -57 49.5t-98 15.5q-65 0 -118 -26.5
t-91.5 -79.5t-59.5 -133t-21 -186q-1 -130 25 -223.5t70.5 -153.5t104 -88.5t127.5 -28.5q47 0 89.5 8t78.5 20.5t66 28t52 31.5l43 -92q-26 -27 -66 -53.5t-90.5 -48t-107.5 -35t-116 -13.5q-130 0 -227 44t-162 121t-97.5 182t-33.5 227z" />
    <glyph glyph-name="Ccircumflex" unicode="&#x108;" horiz-adv-x="1335" 
d="M66 762q0 181 57.5 325t157.5 244t235.5 153.5t291.5 53.5q68 0 135 -7.5t125.5 -18t105.5 -21t76 -15.5l-19 -374h-149l-56 255q-20 26 -82 43.5t-171 17.5q-95 0 -175 -41t-138 -121t-90.5 -198t-32.5 -272q0 -133 26.5 -257.5t82.5 -220.5t143 -154t209 -58q52 0 90 7
t65.5 17.5t45.5 23.5t30 26l87 211l142 -19l-44 -306q-40 -3 -76 -15.5t-80.5 -26.5t-102.5 -25.5t-141 -11.5q-180 0 -319.5 53.5t-235 154.5t-144.5 246.5t-49 330.5zM419 1713l271 300h183l274 -298l-92 -61l-273 202l-278 -202z" />
    <glyph glyph-name="ccircumflex" unicode="&#x109;" horiz-adv-x="1047" 
d="M217 1382l288 399h180l281 -398l-90 -58l-281 281l-296 -282zM77 551q0 126 36 238t108.5 196.5t180.5 133.5t251 49q52 0 99 -7t87 -16.5t71 -20.5t51 -18l-10 -308h-139l-46 187q-14 34 -57 49.5t-98 15.5q-65 0 -118 -26.5t-91.5 -79.5t-59.5 -133t-21 -186
q-1 -130 25 -223.5t70.5 -153.5t104 -88.5t127.5 -28.5q47 0 89.5 8t78.5 20.5t66 28t52 31.5l43 -92q-26 -27 -66 -53.5t-90.5 -48t-107.5 -35t-116 -13.5q-130 0 -227 44t-162 121t-97.5 182t-33.5 227z" />
    <glyph glyph-name="Cdotaccent" unicode="&#x10a;" horiz-adv-x="1335" 
d="M771 1693q-29 0 -53 10.5t-41 28.5t-26.5 42.5t-9.5 53.5q0 32 9.5 60.5t28 50.5t46 34.5t64.5 12.5h1q33 0 58.5 -11.5t43 -30.5t26.5 -43.5t9 -51.5q0 -33 -9.5 -61.5t-28.5 -49.5t-48.5 -33t-68.5 -12h-1v0zM66 762q0 181 57.5 325t157.5 244t235.5 153.5t291.5 53.5
q68 0 135 -7.5t125.5 -18t105.5 -21t76 -15.5l-19 -374h-149l-56 255q-20 26 -82 43.5t-171 17.5q-95 0 -175 -41t-138 -121t-90.5 -198t-32.5 -272q0 -133 26.5 -257.5t82.5 -220.5t143 -154t209 -58q52 0 90 7t65.5 17.5t45.5 23.5t30 26l87 211l142 -19l-44 -306
q-40 -3 -76 -15.5t-80.5 -26.5t-102.5 -25.5t-141 -11.5q-180 0 -319.5 53.5t-235 154.5t-144.5 246.5t-49 330.5z" />
    <glyph glyph-name="cdotaccent" unicode="&#x10b;" horiz-adv-x="1047" 
d="M77 551q0 126 36 238t108.5 196.5t180.5 133.5t251 49q52 0 99 -7t87 -16.5t71 -20.5t51 -18l-10 -308h-139l-46 187q-14 34 -57 49.5t-98 15.5q-65 0 -118 -26.5t-91.5 -79.5t-59.5 -133t-21 -186q-1 -130 25 -223.5t70.5 -153.5t104 -88.5t127.5 -28.5q47 0 89.5 8
t78.5 20.5t66 28t52 31.5l43 -92q-26 -27 -66 -53.5t-90.5 -48t-107.5 -35t-116 -13.5q-130 0 -227 44t-162 121t-97.5 182t-33.5 227zM583 1352q-29 0 -53.5 10.5t-41.5 29t-26.5 43.5t-9.5 54q0 32 9.5 61t28.5 51.5t47 36t65 13.5h1q33 0 58.5 -11.5t43 -31t26.5 -44.5
t9 -52q0 -33 -9.5 -62.5t-29 -51t-49 -34t-68.5 -12.5h-1v0z" />
    <glyph glyph-name="Ccaron" unicode="&#x10c;" horiz-adv-x="1335" 
d="M66 762q0 181 57.5 325t157.5 244t235.5 153.5t291.5 53.5q68 0 135 -7.5t125.5 -18t105.5 -21t76 -15.5l-19 -374h-149l-56 255q-20 26 -82 43.5t-171 17.5q-95 0 -175 -41t-138 -121t-90.5 -198t-32.5 -272q0 -133 26.5 -257.5t82.5 -220.5t143 -154t209 -58q52 0 90 7
t65.5 17.5t45.5 23.5t30 26l87 211l142 -19l-44 -306q-40 -3 -76 -15.5t-80.5 -26.5t-102.5 -25.5t-141 -11.5q-180 0 -319.5 53.5t-235 154.5t-144.5 246.5t-49 330.5zM439 1952l91 61l255 -189l264 189l85 -59l-257 -278h-183z" />
    <glyph glyph-name="ccaron" unicode="&#x10d;" horiz-adv-x="1047" 
d="M224 1739l89 60l284 -282l289 283l83 -60l-283 -398h-180zM77 551q0 126 36 238t108.5 196.5t180.5 133.5t251 49q52 0 99 -7t87 -16.5t71 -20.5t51 -18l-10 -308h-139l-46 187q-14 34 -57 49.5t-98 15.5q-65 0 -118 -26.5t-91.5 -79.5t-59.5 -133t-21 -186
q-1 -130 25 -223.5t70.5 -153.5t104 -88.5t127.5 -28.5q47 0 89.5 8t78.5 20.5t66 28t52 31.5l43 -92q-26 -27 -66 -53.5t-90.5 -48t-107.5 -35t-116 -13.5q-130 0 -227 44t-162 121t-97.5 182t-33.5 227z" />
    <glyph glyph-name="Dcaron" unicode="&#x10e;" horiz-adv-x="1561" 
d="M458 1952l91 61l255 -189l264 189l85 -59l-257 -278h-183zM95 109l169 24v1252l-158 26v111h267q46 0 90.5 2.5t88.5 5t88.5 5t92.5 2.5q197 0 340 -51t235.5 -146t136.5 -229.5t44 -301.5q0 -187 -56.5 -340.5t-159 -262.5t-245.5 -167.5t-317 -54.5q-38 1 -79.5 3.5
t-84 5.5t-84.5 5t-80 2h-288v109zM498 123q57 -15 114 -17.5t122 -1.5q109 2 201 44.5t158.5 125t103.5 205.5t37 287q0 320 -137 486.5t-417 166.5q-66 0 -110.5 -5.5t-71.5 -7.5v-1283z" />
    <glyph glyph-name="dcaron" unicode="&#x10f;" horiz-adv-x="1475" 
d="M530 -23q-89 0 -169.5 34t-142 103.5t-98 176t-36.5 251.5q0 130 40 244t116 199t185.5 134t248.5 49q49 0 94.5 -5.5t86.5 -13.5v373l-201 20v97l373 40h6l49 -36v-1527h118v-104q-42 -11 -99.5 -23t-120.5 -12q-27 0 -47 3.5t-33.5 14.5t-20 31.5t-6.5 53.5v53
q-27 -29 -62 -57t-78 -50t-94 -35.5t-109 -13.5zM622 131q40 0 75.5 10t65.5 25.5t53 34t39 36.5v752q-8 12 -26.5 23t-45 19.5t-58 13.5t-65.5 5q-68 0 -127.5 -25.5t-104 -82t-70.5 -147t-28 -220.5q-2 -117 20.5 -201t62 -138t93.5 -79.5t116 -25.5zM1291 1061l-4 24
q17 61 25 126.5t8 135.5q0 46 -5 88t-13 76t-17 58.5t-18 35.5l14 40l168 40q14 -14 25.5 -39t20 -58t13 -71t4.5 -77q0 -65 -11 -130t-28.5 -120.5t-40 -98.5t-45.5 -64z" />
    <glyph glyph-name="Dcroat" unicode="&#x110;" horiz-adv-x="1561" 
d="M95 109l169 24v583h-156v129h156v540l-158 26v111h267q46 0 90.5 2.5t88.5 5t88.5 5t92.5 2.5q197 0 340 -51t235.5 -146t136.5 -229.5t44 -301.5q0 -187 -56.5 -340.5t-159 -262.5t-245.5 -167.5t-317 -54.5q-38 1 -79.5 3.5t-84 5.5t-84.5 5t-80 2h-288v109zM498 123
q57 -15 114 -17.5t122 -1.5q109 2 201 44.5t158.5 125t103.5 205.5t37 287q0 320 -137 486.5t-417 166.5q-66 0 -110.5 -5.5t-71.5 -7.5v-561h338v-129h-338v-593z" />
    <glyph glyph-name="dcroat" unicode="&#x111;" horiz-adv-x="1271" 
d="M529 -23q-89 0 -169.5 34t-142 103.5t-98 176t-36.5 251.5q0 130 40 244t116 199t185.5 134t248.5 49q49 0 94.5 -5.5t86.5 -13.5v141h-252v117h252v115l-201 20v97l373 40h6l49 -36v-236h144v-117h-144v-1174h118v-104q-42 -11 -99.5 -23t-120.5 -12q-27 0 -47 3.5
t-33.5 14.5t-20 31.5t-6.5 53.5v53q-27 -29 -62 -57t-78 -50t-94 -35.5t-109 -13.5zM621 131q40 0 75.5 10t65.5 25.5t53 34t39 36.5v752q-8 12 -26.5 23t-45 19.5t-58 13.5t-65.5 5q-68 0 -127.5 -25.5t-104 -82t-70.5 -147t-28 -220.5q-2 -117 20.5 -201t62 -138
t93.5 -79.5t116 -25.5z" />
    <glyph glyph-name="Emacron" unicode="&#x112;" horiz-adv-x="1339" 
d="M416 1904h570v-158h-570v158zM96 109l168 24v1253l-165 25v111h1042l28 -317h-129l-62 190l-479 13v-565l325 6l30 166h129v-474h-129l-29 176l-326 5v-598l550 22l113 251l128 -38l-59 -359h-1135v109z" />
    <glyph glyph-name="emacron" unicode="&#x113;" horiz-adv-x="1112" 
d="M85 571q0 134 40 244t111.5 188.5t170 121.5t215.5 43q192 0 297 -104t112 -304q1 -64 -1.5 -112t-10.5 -84h-693q3 -114 31.5 -196t74 -134.5t106 -77.5t128.5 -25q43 0 87 8t84.5 21.5t75 30t57.5 34.5l42 -96q-28 -29 -73 -56.5t-99.5 -48.5t-116.5 -34t-125 -13
q-129 0 -225.5 43.5t-160.5 122.5t-95.5 188t-31.5 240zM791 680q2 20 3 43.5t1 42.5q0 58 -12 109t-37.5 89.5t-66.5 60.5t-101 22q-51 0 -95 -17.5t-77.5 -60t-54 -113t-25.5 -176.5h465zM308 1586h558v-158h-558v158z" />
    <glyph glyph-name="Ebreve" unicode="&#x114;" horiz-adv-x="1339" 
d="M699 1643q-84 0 -148.5 24.5t-108 67t-66 99.5t-22.5 122v21t2 21h121q0 -4 0.5 -11t2.5 -16q3 -22 15 -49.5t37 -52t66 -41t103 -16.5q61 0 101.5 16.5t64.5 41t34.5 52.5t13.5 50q2 9 2 15.5v10.5h119q2 -11 2 -20.5v-20.5q0 -65 -22.5 -122.5t-66 -100t-106.5 -67
t-144 -24.5zM96 109l168 24v1253l-165 25v111h1042l28 -317h-129l-62 190l-479 13v-565l325 6l30 166h129v-474h-129l-29 176l-326 5v-598l550 22l113 251l128 -38l-59 -359h-1135v109z" />
    <glyph glyph-name="ebreve" unicode="&#x115;" horiz-adv-x="1112" 
d="M85 571q0 134 40 244t111.5 188.5t170 121.5t215.5 43q192 0 297 -104t112 -304q1 -64 -1.5 -112t-10.5 -84h-693q3 -114 31.5 -196t74 -134.5t106 -77.5t128.5 -25q43 0 87 8t84.5 21.5t75 30t57.5 34.5l42 -96q-28 -29 -73 -56.5t-99.5 -48.5t-116.5 -34t-125 -13
q-129 0 -225.5 43.5t-160.5 122.5t-95.5 188t-31.5 240zM791 680q2 20 3 43.5t1 42.5q0 58 -12 109t-37.5 89.5t-66.5 60.5t-101 22q-51 0 -95 -17.5t-77.5 -60t-54 -113t-25.5 -176.5h465zM588 1351q-80 0 -144 28t-108 75t-67.5 109t-23.5 130q0 15 0.5 31.5t3.5 28.5h118
q0 -6 0.5 -15.5t2.5 -21.5q4 -27 16 -59.5t37.5 -60.5t66 -46.5t100.5 -18.5t99.5 18.5t63.5 46t35.5 60t15.5 60.5q3 24 3 37h114q1 -12 2.5 -28t1.5 -31q0 -68 -24 -130.5t-68 -109.5t-106.5 -75t-138.5 -28z" />
    <glyph glyph-name="Edotaccent" unicode="&#x116;" horiz-adv-x="1339" 
d="M684 1693q-29 0 -53 10.5t-41 28.5t-26.5 42.5t-9.5 53.5q0 32 9.5 60.5t28 50.5t46 34.5t64.5 12.5h1q33 0 58.5 -11.5t43 -30.5t26.5 -43.5t9 -51.5q0 -33 -9.5 -61.5t-28.5 -49.5t-48.5 -33t-68.5 -12h-1v0zM96 109l168 24v1253l-165 25v111h1042l28 -317h-129
l-62 190l-479 13v-565l325 6l30 166h129v-474h-129l-29 176l-326 5v-598l550 22l113 251l128 -38l-59 -359h-1135v109z" />
    <glyph glyph-name="edotaccent" unicode="&#x117;" horiz-adv-x="1112" 
d="M85 571q0 134 40 244t111.5 188.5t170 121.5t215.5 43q192 0 297 -104t112 -304q1 -64 -1.5 -112t-10.5 -84h-693q3 -114 31.5 -196t74 -134.5t106 -77.5t128.5 -25q43 0 87 8t84.5 21.5t75 30t57.5 34.5l42 -96q-28 -29 -73 -56.5t-99.5 -48.5t-116.5 -34t-125 -13
q-129 0 -225.5 43.5t-160.5 122.5t-95.5 188t-31.5 240zM791 680q2 20 3 43.5t1 42.5q0 58 -12 109t-37.5 89.5t-66.5 60.5t-101 22q-51 0 -95 -17.5t-77.5 -60t-54 -113t-25.5 -176.5h465zM578 1352q-29 0 -53.5 10.5t-41.5 29t-26.5 43.5t-9.5 54q0 32 9.5 61t28.5 51.5
t47 36t65 13.5h1q33 0 58.5 -11.5t43 -31t26.5 -44.5t9 -52q0 -33 -9.5 -62.5t-29 -51t-49 -34t-68.5 -12.5h-1v0z" />
    <glyph glyph-name="Eogonek" unicode="&#x118;" horiz-adv-x="1339" 
d="M96 109l168 24v1253l-165 25v111h1042l28 -317h-129l-62 190l-479 13v-565l325 6l30 166h129v-474h-129l-29 176l-326 5v-598l550 22l113 251l128 -38l-59 -359h-15q-50 -8 -100 -35t-89.5 -63t-64 -75.5t-24.5 -70.5q0 -32 11.5 -55t31.5 -37.5t47 -21.5t58 -7
q36 0 71.5 9t69.5 24v-110q-21 -16 -49 -29t-59.5 -22t-64.5 -13.5t-64 -4.5q-51 0 -98 10.5t-83 34t-57.5 61t-21.5 90.5q0 42 22 88t60.5 88.5t91 79t113.5 59.5h-921v109z" />
    <glyph glyph-name="eogonek" unicode="&#x119;" horiz-adv-x="1112" 
d="M466 -304q0 35 16 74t45 77t69.5 73.5t88.5 63.5q-22 -3 -43.5 -5t-42.5 -2q-129 0 -225.5 43.5t-160.5 122.5t-95.5 188t-31.5 240q0 134 40 244t111.5 188.5t170 121.5t215.5 43q192 0 297 -104t112 -304q1 -64 -1.5 -112t-10.5 -84h-693q3 -114 31.5 -196t74 -134.5
t106 -77.5t128.5 -25q43 0 87 8t84.5 21.5t75 30t57.5 34.5l42 -96q-41 -42 -110 -77q-59 -47 -102 -85.5t-71 -72t-41.5 -64.5t-13.5 -62q0 -35 13 -60t35.5 -41t52.5 -24t63 -8q35 0 67 7t63 21v-109q-42 -31 -103 -47.5t-123 -16.5q-51 0 -100.5 11t-89 35t-63.5 63.5
t-24 96.5zM792 680q2 20 3 43.5t1 42.5q0 58 -12 109t-37.5 89.5t-66.5 60.5t-101 22q-51 0 -95 -17.5t-77.5 -60t-54 -113t-25.5 -176.5h465z" />
    <glyph glyph-name="Ecaron" unicode="&#x11a;" horiz-adv-x="1339" 
d="M353 1952l91 61l255 -189l264 189l85 -59l-257 -278h-183zM96 109l168 24v1253l-165 25v111h1042l28 -317h-129l-62 190l-479 13v-565l325 6l30 166h129v-474h-129l-29 176l-326 5v-598l550 22l113 251l128 -38l-59 -359h-1135v109z" />
    <glyph glyph-name="ecaron" unicode="&#x11b;" horiz-adv-x="1112" 
d="M219 1739l89 60l284 -282l289 283l83 -60l-283 -398h-180zM86 571q0 134 40 244t111.5 188.5t170 121.5t215.5 43q192 0 297 -104t112 -304q1 -64 -1.5 -112t-10.5 -84h-693q3 -114 31.5 -196t74 -134.5t106 -77.5t128.5 -25q43 0 87 8t84.5 21.5t75 30t57.5 34.5l42 -96
q-28 -29 -73 -56.5t-99.5 -48.5t-116.5 -34t-125 -13q-129 0 -225.5 43.5t-160.5 122.5t-95.5 188t-31.5 240zM792 680q2 20 3 43.5t1 42.5q0 58 -12 109t-37.5 89.5t-66.5 60.5t-101 22q-51 0 -95 -17.5t-77.5 -60t-54 -113t-25.5 -176.5h465z" />
    <glyph glyph-name="Gcircumflex" unicode="&#x11c;" horiz-adv-x="1527" 
d="M93 738q0 190 60 338.5t165 251.5t247.5 157t306.5 54q80 0 155 -7.5t138.5 -18t111.5 -21.5t75 -17l-20 -355h-154l-54 237q-9 9 -27.5 20.5t-50 21t-78.5 16.5t-112 7q-108 0 -198.5 -39.5t-156 -118.5t-102 -197t-36.5 -275q0 -90 12.5 -176t38.5 -163.5t65 -143
t92.5 -113t121 -74t150.5 -26.5q42 0 84.5 5t81 15.5t70.5 26.5t55 38v438l-245 23v129h597v-129l-117 -21v-539q-39 -2 -91.5 -18.5t-120 -36t-150.5 -35t-184 -15.5q-173 0 -308.5 58t-229.5 160t-143 241t-49 302zM476 1713l271 300h183l274 -298l-92 -61l-273 202
l-278 -202z" />
    <glyph glyph-name="gcircumflex" unicode="&#x11d;" horiz-adv-x="1250" 
d="M227 1382l288 399h180l281 -398l-90 -58l-281 281l-296 -282zM89 -240q0 49 16 93t42 80.5t59.5 64t68.5 45.5q-47 26 -72 67t-25 101q0 39 11.5 74.5t32.5 66t49.5 56t62.5 44.5q-100 46 -153.5 129.5t-53.5 198.5q0 92 40.5 164t107 121.5t152 76t176.5 26.5h1
q107 0 193 -24t146 -73q10 12 30.5 29t49.5 32.5t67 26.5t84 11h54v-194h-210q17 -35 26 -74.5t9 -86.5q0 -92 -36 -167.5t-100 -129.5t-150.5 -83.5t-187.5 -29.5h-1q-82 0 -153 17q-27 -24 -43.5 -56.5t-16.5 -67.5q0 -38 13.5 -62t41 -37.5t70 -18.5t100.5 -5h218
q201 0 296 -76t95 -224q0 -59 -22 -114t-62 -102t-95.5 -86t-122 -67t-142 -43t-155.5 -15h-1q-140 0 -237 22.5t-158 63t-88 98t-27 128.5zM601 524q59 0 100 18t67 52.5t38 84t12 112.5q0 136 -56 198t-171 62h-1q-51 0 -92.5 -13t-71.5 -42t-46.5 -77t-16.5 -118
q0 -58 12.5 -108.5t40 -88t73 -59t111.5 -21.5h1zM313 -181q0 -58 16 -103t52 -76.5t94 -48t142 -16.5h2q65 0 129 15.5t114.5 46t81.5 75.5t31 105q0 45 -9.5 78.5t-36 55.5t-74 33t-122.5 11h-201q-44 0 -82.5 3.5t-72.5 9.5q-26 -32 -45 -78t-19 -111z" />
    <glyph glyph-name="Gbreve" unicode="&#x11e;" horiz-adv-x="1527" 
d="M842 1643q-84 0 -148.5 24.5t-108 67t-66 99.5t-22.5 122v21t2 21h121q0 -4 0.5 -11t2.5 -16q3 -22 15 -49.5t37 -52t66 -41t103 -16.5q61 0 101.5 16.5t64.5 41t34.5 52.5t13.5 50q2 9 2 15.5v10.5h119q2 -11 2 -20.5v-20.5q0 -65 -22.5 -122.5t-66 -100t-106.5 -67
t-144 -24.5zM93 738q0 190 60 338.5t165 251.5t247.5 157t306.5 54q80 0 155 -7.5t138.5 -18t111.5 -21.5t75 -17l-20 -355h-154l-54 237q-9 9 -27.5 20.5t-50 21t-78.5 16.5t-112 7q-108 0 -198.5 -39.5t-156 -118.5t-102 -197t-36.5 -275q0 -90 12.5 -176t38.5 -163.5
t65 -143t92.5 -113t121 -74t150.5 -26.5q42 0 84.5 5t81 15.5t70.5 26.5t55 38v438l-245 23v129h597v-129l-117 -21v-539q-39 -2 -91.5 -18.5t-120 -36t-150.5 -35t-184 -15.5q-173 0 -308.5 58t-229.5 160t-143 241t-49 302z" />
    <glyph glyph-name="gbreve" unicode="&#x11f;" horiz-adv-x="1250" 
d="M89 -240q0 49 16 93t42 80.5t59.5 64t68.5 45.5q-47 26 -72 67t-25 101q0 39 11.5 74.5t32.5 66t49.5 56t62.5 44.5q-100 46 -153.5 129.5t-53.5 198.5q0 92 40.5 164t107 121.5t152 76t176.5 26.5h1q107 0 193 -24t146 -73q10 12 30.5 29t49.5 32.5t67 26.5t84 11h54
v-194h-210q17 -35 26 -74.5t9 -86.5q0 -92 -36 -167.5t-100 -129.5t-150.5 -83.5t-187.5 -29.5h-1q-82 0 -153 17q-27 -24 -43.5 -56.5t-16.5 -67.5q0 -38 13.5 -62t41 -37.5t70 -18.5t100.5 -5h218q201 0 296 -76t95 -224q0 -59 -22 -114t-62 -102t-95.5 -86t-122 -67
t-142 -43t-155.5 -15h-1q-140 0 -237 22.5t-158 63t-88 98t-27 128.5zM601 524q59 0 100 18t67 52.5t38 84t12 112.5q0 136 -56 198t-171 62h-1q-51 0 -92.5 -13t-71.5 -42t-46.5 -77t-16.5 -118q0 -58 12.5 -108.5t40 -88t73 -59t111.5 -21.5h1zM313 -181q0 -58 16 -103
t52 -76.5t94 -48t142 -16.5h2q65 0 129 15.5t114.5 46t81.5 75.5t31 105q0 45 -9.5 78.5t-36 55.5t-74 33t-122.5 11h-201q-44 0 -82.5 3.5t-72.5 9.5q-26 -32 -45 -78t-19 -111zM606 1351q-80 0 -144 28t-108 75t-67.5 109t-23.5 130q0 15 0.5 31.5t3.5 28.5h118
q0 -6 0.5 -15.5t2.5 -21.5q4 -27 16 -59.5t37.5 -60.5t66 -46.5t100.5 -18.5t99.5 18.5t63.5 46t35.5 60t15.5 60.5q3 24 3 37h114q1 -12 2.5 -28t1.5 -31q0 -68 -24 -130.5t-68 -109.5t-106.5 -75t-138.5 -28z" />
    <glyph glyph-name="Gdotaccent" unicode="&#x120;" horiz-adv-x="1527" 
d="M828 1693q-29 0 -53 10.5t-41 28.5t-26.5 42.5t-9.5 53.5q0 32 9.5 60.5t28 50.5t46 34.5t64.5 12.5h1q33 0 58.5 -11.5t43 -30.5t26.5 -43.5t9 -51.5q0 -33 -9.5 -61.5t-28.5 -49.5t-48.5 -33t-68.5 -12h-1v0zM93 738q0 190 60 338.5t165 251.5t247.5 157t306.5 54
q80 0 155 -7.5t138.5 -18t111.5 -21.5t75 -17l-20 -355h-154l-54 237q-9 9 -27.5 20.5t-50 21t-78.5 16.5t-112 7q-108 0 -198.5 -39.5t-156 -118.5t-102 -197t-36.5 -275q0 -90 12.5 -176t38.5 -163.5t65 -143t92.5 -113t121 -74t150.5 -26.5q42 0 84.5 5t81 15.5
t70.5 26.5t55 38v438l-245 23v129h597v-129l-117 -21v-539q-39 -2 -91.5 -18.5t-120 -36t-150.5 -35t-184 -15.5q-173 0 -308.5 58t-229.5 160t-143 241t-49 302z" />
    <glyph glyph-name="gdotaccent" unicode="&#x121;" horiz-adv-x="1250" 
d="M89 -240q0 49 16 93t42 80.5t59.5 64t68.5 45.5q-47 26 -72 67t-25 101q0 39 11.5 74.5t32.5 66t49.5 56t62.5 44.5q-100 46 -153.5 129.5t-53.5 198.5q0 92 40.5 164t107 121.5t152 76t176.5 26.5h1q107 0 193 -24t146 -73q10 12 30.5 29t49.5 32.5t67 26.5t84 11h54
v-194h-210q17 -35 26 -74.5t9 -86.5q0 -92 -36 -167.5t-100 -129.5t-150.5 -83.5t-187.5 -29.5h-1q-82 0 -153 17q-27 -24 -43.5 -56.5t-16.5 -67.5q0 -38 13.5 -62t41 -37.5t70 -18.5t100.5 -5h218q201 0 296 -76t95 -224q0 -59 -22 -114t-62 -102t-95.5 -86t-122 -67
t-142 -43t-155.5 -15h-1q-140 0 -237 22.5t-158 63t-88 98t-27 128.5zM601 524q59 0 100 18t67 52.5t38 84t12 112.5q0 136 -56 198t-171 62h-1q-51 0 -92.5 -13t-71.5 -42t-46.5 -77t-16.5 -118q0 -58 12.5 -108.5t40 -88t73 -59t111.5 -21.5h1zM313 -181q0 -58 16 -103
t52 -76.5t94 -48t142 -16.5h2q65 0 129 15.5t114.5 46t81.5 75.5t31 105q0 45 -9.5 78.5t-36 55.5t-74 33t-122.5 11h-201q-44 0 -82.5 3.5t-72.5 9.5q-26 -32 -45 -78t-19 -111zM595 1352q-29 0 -53.5 10.5t-41.5 29t-26.5 43.5t-9.5 54q0 32 9.5 61t28.5 51.5t47 36
t65 13.5h1q33 0 58.5 -11.5t43 -31t26.5 -44.5t9 -52q0 -33 -9.5 -62.5t-29 -51t-49 -34t-68.5 -12.5h-1v0z" />
    <glyph glyph-name="Gcommaaccent" unicode="&#x122;" horiz-adv-x="1529" 
d="M678 -218q0 33 13.5 54t33 33t40.5 16.5t35 4.5h10q65 0 102.5 -42t37.5 -120q0 -40 -10 -77t-26 -68.5t-35.5 -57.5t-37.5 -44.5t-33 -29t-22 -11.5h-3l-78 39l-1 18q14 6 25 19.5t18.5 31t11.5 37.5t4 40q0 29 -14.5 44t-30.5 26q-17 11 -28.5 30t-11.5 57zM94 738
q0 190 60 338.5t165 251.5t247.5 157t306.5 54q80 0 155 -7.5t138.5 -18t111.5 -21.5t75 -17l-20 -355h-154l-54 237q-9 9 -27.5 20.5t-50 21t-78.5 16.5t-112 7q-108 0 -198.5 -39.5t-156 -118.5t-102 -197t-36.5 -275q0 -90 12.5 -176t38.5 -163.5t65 -143t92.5 -113
t121 -74t150.5 -26.5q42 0 84.5 5t81 15.5t70.5 26.5t55 38v438l-245 23v129h597v-129l-117 -21v-539q-39 -2 -91.5 -18.5t-120 -36t-150.5 -35t-184 -15.5q-173 0 -308.5 58t-229.5 160t-143 241t-49 302z" />
    <glyph glyph-name="gcommaaccent" unicode="&#x123;" horiz-adv-x="1247" 
d="M714.014 1430.99q0 -32.998 -13.499 -53.9961q-13.499 -20.999 -32.998 -32.998t-40.498 -16.499q-20.998 -4.5 -34.9971 -4.5h-10q-64.9961 0 -102.493 41.9971q-37.498 41.998 -37.498 119.993q0 39.9971 9.99902 76.9951q10 36.998 25.999 68.4961t35.498 57.4961
q19.498 25.999 37.4971 44.498q17.999 18.498 32.998 28.998q14.999 10.499 21.999 11.499h3l77.9951 -38.998l1 -17.998q-14 -6 -24.999 -19.499t-18.499 -30.998q-7.49902 -17.499 -11.499 -37.498t-4 -39.9971q0 -28.999 14.499 -43.998q14.5 -14.999 30.498 -25.998
q16.999 -10.999 28.499 -29.998q11.499 -18.999 11.499 -56.9971zM89 -240q0 49 16 93t42 80.5t59.5 64t68.5 45.5q-47 26 -72 67t-25 101q0 39 11.5 74.5t32.5 66t49.5 56t62.5 44.5q-100 46 -153.5 129.5t-53.5 198.5q0 92 40.5 164t107 121.5t152 76t176.5 26.5h1
q107 0 193 -24t146 -73q10 12 30.5 29t49.5 32.5t67 26.5t84 11h54v-194h-210q17 -35 26 -74.5t9 -86.5q0 -92 -36 -167.5t-100 -129.5t-150.5 -83.5t-187.5 -29.5h-1q-82 0 -153 17q-27 -24 -43.5 -56.5t-16.5 -67.5q0 -38 13.5 -62t41 -37.5t70 -18.5t100.5 -5h218
q201 0 296 -76t95 -224q0 -59 -22 -114t-62 -102t-95.5 -86t-122 -67t-142 -43t-155.5 -15h-1q-140 0 -237 22.5t-158 63t-88 98t-27 128.5zM601 524q59 0 100 18t67 52.5t38 84t12 112.5q0 136 -56 198t-171 62h-1q-51 0 -92.5 -13t-71.5 -42t-46.5 -77t-16.5 -118
q0 -58 12.5 -108.5t40 -88t73 -59t111.5 -21.5h1zM313 -181q0 -58 16 -103t52 -76.5t94 -48t142 -16.5h2q65 0 129 15.5t114.5 46t81.5 75.5t31 105q0 45 -9.5 78.5t-36 55.5t-74 33t-122.5 11h-201q-44 0 -82.5 3.5t-72.5 9.5q-26 -32 -45 -78t-19 -111z" />
    <glyph glyph-name="Hcircumflex" unicode="&#x124;" horiz-adv-x="1700" 
d="M100 109l165 24v1252l-159 26v111h566v-111l-172 -25v-540h700v540l-164 25v111h559v-111l-160 -25v-1254l160 -23v-109h-558v109l163 23v582h-700v-581l172 -24v-109h-572v109zM486 1713l271 300h183l274 -298l-92 -61l-273 202l-278 -202z" />
    <glyph glyph-name="hcircumflex" unicode="&#x125;" horiz-adv-x="1356" 
d="M87 109l120 16v1396l-165 20v95l339 43h5l48 -34l1 -464l-9 -179q27 24 69.5 52t95 52.5t113.5 40.5t126 16q97 0 160.5 -27.5t100.5 -85.5t52 -147t15 -212v-565l144 -17v-109h-503v108l131 17v567q0 80 -7.5 139.5t-29.5 98.5t-62 58.5t-105 19.5q-38 0 -77 -8
t-76.5 -22t-72.5 -33t-64 -41v-778l142 -17v-109h-491v109zM390 1713l271 300h183l274 -298l-92 -61l-273 202l-278 -202z" />
    <glyph glyph-name="Hbar" unicode="&#x126;" horiz-adv-x="1699" 
d="M97 109l168 24v890h-213v112h213v250l-162 26v111h567v-111l-172 -25v-251h703v251l-163 25v111h559v-111l-162 -25v-251h217v-112h-217v-889l161 -26v-108h-557v108l162 25v479h-703v-479l173 -24v-109h-574v109zM1201 743v280h-703v-280h703z" />
    <glyph glyph-name="hbar" unicode="&#x127;" horiz-adv-x="1366" 
d="M87 109l120 16v1153h-178v118h178v125l-165 20v95l339 43h5l48 -34v-249h253v-118h-252v-97l-9 -179q27 24 69.5 52t95 52.5t113.5 40.5t126 16q97 0 160.5 -27.5t100.5 -85.5t52 -147t15 -212v-565l144 -17v-109h-503v108l131 17v567q0 80 -7.5 139.5t-29.5 98.5
t-62 58.5t-105 19.5q-38 0 -77 -8t-76.5 -22t-72.5 -33t-64 -41v-778l142 -17v-109h-491v109z" />
    <glyph glyph-name="Itilde" unicode="&#x128;" horiz-adv-x="827" 
d="M112 109l183 24v1252l-183 26v111h602v-111l-183 -25v-1253l186 -27v-106h-605v109zM-12 1795q10 33 34.5 70.5t61.5 69t85.5 52.5t105.5 21q42 0 74.5 -12.5t59 -30.5t49.5 -40t45 -40t45.5 -30.5t52.5 -12.5q35 0 59 13.5t41 32.5t28 39.5t19 34.5l98 -64
q-15 -41 -38.5 -79.5t-56.5 -68.5t-75.5 -48t-95.5 -18q-41 0 -74 12.5t-60.5 31t-51.5 40t-48 40t-49.5 31t-56.5 12.5q-34 0 -59.5 -14t-44.5 -33t-31.5 -39.5t-20.5 -32.5z" />
    <glyph glyph-name="itilde" unicode="&#x129;" horiz-adv-x="685" 
d="M78 109l162 17v838l-145 41v118l318 41h5l51 -39v-999l160 -17v-109h-551v109zM-86 1448q10 33 34.5 71t61.5 69.5t85.5 52.5t105.5 21q41 0 73.5 -12.5t59 -30.5t49 -40t44.5 -40t45.5 -30.5t51.5 -12.5q34 0 59 13.5t42.5 32t28.5 38.5t18 33l98 -62
q-15 -40 -38.5 -78.5t-56.5 -69t-76 -49t-97 -18.5q-41 0 -73.5 12.5t-59.5 31t-50.5 40t-47 40t-49 31t-56.5 12.5q-34 0 -59.5 -13.5t-44 -32.5t-31 -38.5t-20.5 -32.5z" />
    <glyph glyph-name="Imacron" unicode="&#x12a;" horiz-adv-x="827" 
d="M112 109l183 24v1252l-183 26v111h602v-111l-183 -25v-1253l186 -27v-106h-605v109zM134 1904h570v-158h-570v158z" />
    <glyph glyph-name="imacron" unicode="&#x12b;" horiz-adv-x="686" 
d="M78 109l162 17v838l-145 41v118l318 41h5l51 -39v-999l160 -17v-109h-551v109zM61 1586h558v-158h-558v158z" />
    <glyph glyph-name="Ibreve" unicode="&#x12c;" horiz-adv-x="827" 
d="M112 109l183 24v1252l-183 26v111h602v-111l-183 -25v-1253l186 -27v-106h-605v109zM418 1643q-84 0 -148.5 24.5t-108 67t-66 99.5t-22.5 122v21t2 21h121q0 -4 0.5 -11t2.5 -16q3 -22 15 -49.5t37 -52t66 -41t103 -16.5q61 0 101.5 16.5t64.5 41t34.5 52.5t13.5 50
q2 9 2 15.5v10.5h119q2 -11 2 -20.5v-20.5q0 -65 -22.5 -122.5t-66 -100t-106.5 -67t-144 -24.5z" />
    <glyph glyph-name="ibreve" unicode="&#x12d;" horiz-adv-x="685" 
d="M78 109l162 17v838l-145 41v118l318 41h5l51 -39v-999l160 -17v-109h-551v109zM341 1351q-80 0 -144 28t-108 75t-67.5 109t-23.5 130q0 15 0.5 31.5t3.5 28.5h118q0 -6 0.5 -15.5t2.5 -21.5q4 -27 16 -59.5t37.5 -60.5t66 -46.5t100.5 -18.5t99.5 18.5t63.5 46t35.5 60
t15.5 60.5q3 24 3 37h114q1 -12 2.5 -28t1.5 -31q0 -68 -24 -130.5t-68 -109.5t-106.5 -75t-138.5 -28z" />
    <glyph glyph-name="Iogonek" unicode="&#x12e;" horiz-adv-x="827" 
d="M112 109l183 24v1252l-183 26v111h602v-111l-183 -25v-1253l186 -27v-106h-190q-42 -21 -79 -51t-64 -63.5t-43 -67.5t-16 -62q0 -32 11.5 -55t32 -37.5t48.5 -21.5t60 -7q36 0 71 9t70 24v-110q-22 -16 -50 -29t-59.5 -22t-64.5 -13.5t-64 -4.5q-50 0 -97.5 10.5t-84 34
t-58.5 61t-22 90.5q0 42 20.5 88t54.5 88.5t79 79t93 59.5h-253v109z" />
    <glyph glyph-name="iogonek" unicode="&#x12f;" horiz-adv-x="685" 
d="M328 1352q-29 0 -53.5 10.5t-41.5 29t-26.5 43.5t-9.5 54q0 32 9.5 61t28.5 51.5t47 36t65 13.5h1q33 0 58.5 -11.5t43 -31t26.5 -44.5t9 -52q0 -33 -9.5 -62.5t-29 -51t-49 -34t-68.5 -12.5h-1zM78 109l162 17v838l-145 41v118l318 41h5l51 -39v-999l160 -17v-109h-156
q-50 -18 -94 -47t-77 -63t-52 -70t-19 -67q0 -32 11.5 -54.5t31.5 -36.5t47.5 -20.5t59.5 -6.5q37 0 72 9t70 24v-110q-22 -16 -50 -29t-59.5 -22t-65 -13.5t-64.5 -4.5q-50 0 -97.5 10.5t-84 34t-58.5 61t-22 90.5q0 42 20.5 87.5t55 88.5t79.5 79.5t95 59.5h-194v109z" />
    <glyph glyph-name="Idotaccent" unicode="&#x130;" horiz-adv-x="827" 
d="M112 109l183 24v1252l-183 26v111h602v-111l-183 -25v-1253l186 -27v-106h-605v109zM403 1693q-29 0 -53 10.5t-41 28.5t-26.5 42.5t-9.5 53.5q0 32 9.5 60.5t28 50.5t46 34.5t64.5 12.5h1q33 0 58.5 -11.5t43 -30.5t26.5 -43.5t9 -51.5q0 -33 -9.5 -61.5t-28.5 -49.5
t-48.5 -33t-68.5 -12h-1v0z" />
    <glyph glyph-name="dotlessi" unicode="&#x131;" horiz-adv-x="685" 
d="M78 109l162 17v838l-145 41v118l318 41h5l51 -39v-999l160 -17v-109h-551v109z" />
    <glyph glyph-name="IJ" unicode="&#x132;" horiz-adv-x="1607" 
d="M112 109l183 24v1252l-183 26v111h602v-111l-183 -25v-1253l186 -27v-106h-605v109zM1073 -5q12 40 20 82.5t13 98t7 130t2 179.5v900l-188 26v111h602v-111l-181 -26v-820q0 -165 -2 -296.5t-22 -222.5q-20 -92 -66.5 -162.5t-109 -121.5t-134.5 -83t-143 -47l-57 92
q36 9 74.5 32.5t74 58.5t64.5 80.5t46 99.5z" />
    <glyph glyph-name="ij" unicode="&#x133;" horiz-adv-x="1346" 
d="M921 957l-146 41l2 125l317 41h5l50 -39v-1107q0 -128 -29 -221.5t-78 -156.5t-112 -97t-132 -41q-9 -1 -26.5 -1t-36 1t-34.5 3t-21 5l-11 108q7 -1 19.5 0t27.5 4t31 7t31 10q43 16 71 54t44.5 93t23 124.5t6.5 149.5zM81 109l162 17v838l-145 41v118l318 41h5l51 -39
v-999l160 -17v-109h-551v109zM325 1352q-29 0 -53.5 10.5t-41.5 29t-26.5 43.5t-9.5 54q0 32 9.5 61t28.5 51.5t47 36t65 13.5h1q33 0 58.5 -11.5t43 -31t26.5 -44.5t9 -52q0 -33 -9.5 -62.5t-29 -51t-49 -34t-68.5 -12.5h-1v0zM1013 1352q-29 0 -53.5 10.5t-41.5 29
t-26.5 43.5t-9.5 54q0 32 9.5 61t28.5 51.5t47 36t65 13.5h1q33 0 58.5 -11.5t43 -31t26.5 -44.5t9 -52q0 -33 -9.5 -62.5t-29 -51t-49 -34t-68.5 -12.5h-1v0z" />
    <glyph glyph-name="Jcircumflex" unicode="&#x134;" horiz-adv-x="779" 
d="M247 -5q12 40 20 82.5t13 98t7 130t2 179.5v900l-188 26v111h602v-111l-181 -26v-820q0 -165 -2 -296.5t-22 -222.5q-20 -92 -66.5 -162.5t-109 -121.5t-134.5 -83t-143 -47l-57 92q36 9 74.5 32.5t74 58.5t64.5 80.5t46 99.5zM37 1713l271 300h183l274 -298l-92 -61
l-273 202l-278 -202z" />
    <glyph glyph-name="jcircumflex" unicode="&#x135;" horiz-adv-x="656" 
d="M236 957l-146 41l2 125l317 41h5l50 -39v-1107q0 -128 -29 -221.5t-78 -156.5t-112 -97t-132 -41q-9 -1 -26.5 -1t-36 1t-34.5 3t-21 5l-11 108q7 -1 19.5 0t27.5 4t31 7t31 10q43 16 71 54t44.5 93t23 124.5t6.5 149.5zM-33 1382l288 399h180l281 -398l-90 -58l-281 281
l-296 -282z" />
    <glyph glyph-name="Kcommaaccent" unicode="&#x136;" horiz-adv-x="1489" 
d="M678 -218q0 33 13.5 54t33 33t40.5 16.5t35 4.5h10q65 0 102.5 -42t37.5 -120q0 -40 -10 -77t-26 -68.5t-35.5 -57.5t-37.5 -44.5t-33 -29t-22 -11.5h-3l-78 39l-1 18q14 6 25 19.5t18.5 31t11.5 37.5t4 40q0 29 -14.5 44t-30.5 26q-17 11 -28.5 30t-11.5 57zM97 109
l169 24v1253l-165 25v111h562v-111l-162 -26v-700l578 701l-165 25l-1 111h510v-110l-156 -26l-429 -486q36 -32 76.5 -81t82 -108t83.5 -124t82 -128t76.5 -121t67.5 -102.5t55 -72t39 -30.5l90 -25v-108h-307q-25 0 -58.5 42t-73 108.5t-83.5 149.5t-89.5 165.5t-91 155.5
t-87.5 120l-199 -229v-380l188 -24v-108h-592v109z" />
    <glyph glyph-name="kcommaaccent" unicode="&#x137;" horiz-adv-x="1242" 
d="M553 -218q0 33 13.5 54t33 33t40.5 16.5t35 4.5h10q65 0 102.5 -42t37.5 -120q0 -40 -10 -77t-26 -68.5t-35.5 -57.5t-37.5 -44.5t-33 -29t-22 -11.5h-3l-78 39l-1 18q14 6 25 19.5t18.5 31t11.5 37.5t4 40q0 29 -14.5 44t-30.5 26q-17 11 -28.5 30t-11.5 57zM77 109
l131 17v1395l-156 20v95l333 43h3l48 -34v-990l-4 -114l446 465l-161 29v102h509v-102l-157 -34l-291 -284l392 -591l120 -17v-109h-501v108l120 19l-282 457l-196 -194l5 -106v-158l144 -18v-108h-503v109z" />
    <glyph glyph-name="kgreenlandic" unicode="&#x138;" horiz-adv-x="1370" 
d="M86 108l159 17v839l-142 40v120l312 40h5l54 -39v-411l-5 -173l457 460l-161 26v108h515v-108l-142 -19l-315 -304l394 -578l128 -18v-108h-493v107l101 19l-281 443l-202 -186l4 -102v-156l157 -18v-107h-545v108z" />
    <glyph glyph-name="Lacute" unicode="&#x139;" horiz-adv-x="1301" 
d="M354 1701l331 311h1l153 -127q-20 -25 -51 -51.5t-68.5 -52.5t-78.5 -49.5t-79 -43t-71.5 -34t-55.5 -21.5h-1zM98 109l168 24v1253l-165 25v111h595v-111l-193 -26v-1253l505 20l122 334l134 -23l-68 -463h-1098v109z" />
    <glyph glyph-name="lacute" unicode="&#x13a;" horiz-adv-x="689" 
d="M175 1701l331 311h1l153 -127q-20 -25 -51 -51.5t-68.5 -52.5t-78.5 -49.5t-79 -43t-71.5 -34t-55.5 -21.5h-1zM73 108l162 16v1250l-164 17v95l341 43h3l49 -34v-1371l170 -16v-108h-561v108z" />
    <glyph glyph-name="Lcommaaccent" unicode="&#x13b;" horiz-adv-x="1300" 
d="M578 -218q0 33 13.5 54t33 33t40.5 16.5t35 4.5h10q65 0 102.5 -42t37.5 -120q0 -40 -10 -77t-26 -68.5t-35.5 -57.5t-37.5 -44.5t-33 -29t-22 -11.5h-3l-78 39l-1 18q14 6 25 19.5t18.5 31t11.5 37.5t4 40q0 29 -14.5 44t-30.5 26q-17 11 -28.5 30t-11.5 57zM98 109
l168 24v1253l-165 25v111h595v-111l-193 -26v-1253l505 20l122 334l134 -23l-68 -463h-1098v109z" />
    <glyph glyph-name="lcommaaccent" unicode="&#x13c;" horiz-adv-x="688" 
d="M240 -218q0 33 13.5 54t33 33t40.5 16.5t35 4.5h10q65 0 102.5 -42t37.5 -120q0 -40 -10 -77t-26 -68.5t-35.5 -57.5t-37.5 -44.5t-33 -29t-22 -11.5h-3l-78 39l-1 18q14 6 25 19.5t18.5 31t11.5 37.5t4 40q0 29 -14.5 44t-30.5 26q-17 11 -28.5 30t-11.5 57zM73 109
l162 17v1395l-164 20v95l341 43h2l49 -34v-1519l170 -17v-109h-560v109z" />
    <glyph glyph-name="Lcaron" unicode="&#x13d;" horiz-adv-x="1301" 
d="M98 109l168 24v1253l-165 25v111h595v-111l-193 -26v-1253l505 20l122 334l134 -23l-68 -463h-1098v109zM927 1061l-4 24q17 61 25 126.5t8 135.5q0 46 -5 88t-13 76t-17 58.5t-18 35.5l14 40l168 40q14 -14 25.5 -39t20 -58t13 -71t4.5 -77q0 -65 -11 -130t-28.5 -120.5
t-40 -98.5t-45.5 -64z" />
    <glyph glyph-name="lcaron" unicode="&#x13e;" horiz-adv-x="863" 
d="M73 109l162 17v1395l-164 20v95l341 43h2l49 -34v-1519l170 -17v-109h-560v109zM676 1061l-4 24q17 61 25 126.5t8 135.5q0 46 -5 88t-13 76t-17 58.5t-18 35.5l14 40l168 40q14 -14 25.5 -39t20 -58t13 -71t4.5 -77q0 -65 -11 -130t-28.5 -120.5t-40 -98.5t-45.5 -64z
" />
    <glyph glyph-name="Ldot" unicode="&#x13f;" horiz-adv-x="1313" 
d="M98 109l168 24v1253l-165 25v111h595v-111l-193 -26v-1253l505 20l122 334l134 -23l-68 -463h-1098v109zM827 851q0 34 14 63.5t37.5 50.5t53 33t60.5 12q36 0 63 -11t44.5 -30t26 -43.5t8.5 -51.5q0 -36 -13.5 -65.5t-36.5 -50.5t-53 -32t-64 -11q-27 0 -52.5 9.5
t-45 27.5t-31 43t-11.5 56z" />
    <glyph glyph-name="ldot" unicode="&#x140;" horiz-adv-x="1050" 
d="M76 109l162 17v1395l-164 20v95l341 43h2l49 -34v-1519l170 -17v-109h-560v109zM713 726q0 34 14 63.5t37.5 50.5t53 33t60.5 12q36 0 63 -11t44.5 -30t26 -43.5t8.5 -51.5q0 -36 -13.5 -65.5t-36.5 -50.5t-53 -32t-64 -11q-27 0 -52.5 9.5t-45 27.5t-31 43t-11.5 56z
" />
    <glyph glyph-name="Lslash" unicode="&#x141;" horiz-adv-x="1300" 
d="M98 109l168 24v484l-219 -93v123l219 95v644l-165 25v111h595v-111l-193 -26v-546l383 168v-131l-383 -164v-580l505 20l122 334l134 -23l-68 -463h-1098v109z" />
    <glyph glyph-name="lslash" unicode="&#x142;" horiz-adv-x="713" 
d="M84 109l162 17v578l-209 -96v134l209 99v680l-164 20v95l341 43h2l49 -34v-705l219 104v-143l-219 -100v-675l170 -17v-109h-560v109z" />
    <glyph glyph-name="Nacute" unicode="&#x143;" horiz-adv-x="1640" 
d="M719 1701l331 311h1l153 -127q-20 -25 -51 -51.5t-68.5 -52.5t-78.5 -49.5t-79 -43t-71.5 -34t-55.5 -21.5h-1zM98 109l165 23v1253l-165 26v111h395l673 -983l106 -198v1045l-179 25v111h496v-111l-166 -26v-1385h-164l-689 1003l-156 272v-1142l191 -24v-109h-507v109z
" />
    <glyph glyph-name="nacute" unicode="&#x144;" horiz-adv-x="1375" 
d="M102 109l131 17v838l-143 40v120l296 40h5l47 -39v-81l-1 -46q33 30 81 59.5t103.5 53t115 38t115.5 14.5q98 0 161.5 -27t100.5 -84.5t51.5 -147t14.5 -213.5v-565l144 -17v-109h-502v109l128 17v566q0 81 -7.5 140.5t-29 98.5t-61 58t-103.5 19q-38 0 -77.5 -9t-77 -24
t-71.5 -34t-61 -39v-776l138 -17v-109h-498v109zM572 1408l330 406h1l159 -139q-14 -23 -43 -55t-66.5 -67t-80 -70t-83 -65t-76 -52.5t-58.5 -31.5h-2z" />
    <glyph glyph-name="Ncommaaccent" unicode="&#x145;" horiz-adv-x="1640" 
d="M737 -218q0 33 13.5 54t33 33t40.5 16.5t35 4.5h10q65 0 102.5 -42t37.5 -120q0 -40 -10 -77t-26 -68.5t-35.5 -57.5t-37.5 -44.5t-33 -29t-22 -11.5h-3l-78 39l-1 18q14 6 25 19.5t18.5 31t11.5 37.5t4 40q0 29 -14.5 44t-30.5 26q-17 11 -28.5 30t-11.5 57zM98 109
l165 23v1253l-165 26v111h395l673 -983l106 -198v1045l-179 25v111h496v-111l-166 -26v-1385h-164l-689 1003l-156 272v-1142l191 -24v-109h-507v109z" />
    <glyph glyph-name="ncommaaccent" unicode="&#x146;" horiz-adv-x="1375" 
d="M102 109l131 17v838l-143 40v120l296 40h5l47 -39v-81l-1 -46q33 30 81 59.5t103.5 53t115 38t115.5 14.5q98 0 161.5 -27t100.5 -84.5t51.5 -147t14.5 -213.5v-565l144 -17v-109h-502v109l128 17v566q0 81 -7.5 140.5t-29 98.5t-61 58t-103.5 19q-38 0 -77.5 -9t-77 -24
t-71.5 -34t-61 -39v-776l138 -17v-109h-498v109zM602 -218q0 33 13.5 54t33 33t40.5 16.5t35 4.5h10q65 0 102.5 -42t37.5 -120q0 -40 -10 -77t-26 -68.5t-35.5 -57.5t-37.5 -44.5t-33 -29t-22 -11.5h-3l-78 39l-1 18q14 6 25 19.5t18.5 31t11.5 37.5t4 40q0 29 -14.5 44
t-30.5 26q-17 11 -28.5 30t-11.5 57z" />
    <glyph glyph-name="Ncaron" unicode="&#x147;" horiz-adv-x="1640" 
d="M509 1952l91 61l255 -189l264 189l85 -59l-257 -278h-183zM98 109l165 23v1253l-165 26v111h395l673 -983l106 -198v1045l-179 25v111h496v-111l-166 -26v-1385h-164l-689 1003l-156 272v-1142l191 -24v-109h-507v109z" />
    <glyph glyph-name="ncaron" unicode="&#x148;" horiz-adv-x="1375" 
d="M102 109l131 17v838l-143 40v120l296 40h5l47 -39v-81l-1 -46q33 30 81 59.5t103.5 53t115 38t115.5 14.5q98 0 161.5 -27t100.5 -84.5t51.5 -147t14.5 -213.5v-565l144 -17v-109h-502v109l128 17v566q0 81 -7.5 140.5t-29 98.5t-61 58t-103.5 19q-38 0 -77.5 -9t-77 -24
t-71.5 -34t-61 -39v-776l138 -17v-109h-498v109zM337 1739l89 60l284 -282l289 283l83 -60l-283 -398h-180z" />
    <glyph glyph-name="napostrophe" unicode="&#x149;" horiz-adv-x="1688" 
d="M130.026 1771.05q42.9971 0 80.4951 -28.498q37.4971 -28.498 65.4961 -75.9951q27.998 -47.498 43.9971 -108.494t15.999 -126.992q0 -99.9941 -27.499 -185.988q-27.498 -85.9951 -66.9951 -152.991q-39.498 -66.9951 -84.4951 -111.993
q-44.9971 -44.9971 -79.9951 -63.9961h-2l-61.9961 60.9971v23.998q16.999 13.999 39.9971 40.998q22.999 26.998 43.998 67.4951q20.998 40.498 35.4971 95.4941q14.5 54.9971 14.5 124.993q0 44.9971 -10 77.4951q-9.99902 32.498 -24.998 57.4961
q-14.999 24.999 -32.998 44.4971q-17.999 19.499 -32.998 39.998t-24.999 43.4971q-9.99902 22.999 -9.99902 53.9971q0 59.9961 33.498 91.9941t84.4951 31.998h1v0zM402 109l131 17v838l-143 40v120l296 40h5l47 -39v-81l-1 -46q33 30 81 59.5t103.5 53t115 38t115.5 14.5
q98 0 161.5 -27t100.5 -84.5t51.5 -147t14.5 -213.5v-565l144 -17v-109h-502v109l128 17v566q0 81 -7.5 140.5t-29 98.5t-61 58t-103.5 19q-38 0 -77.5 -9t-77 -24t-71.5 -34t-61 -39v-776l138 -17v-109h-498v109z" />
    <glyph glyph-name="Eng" unicode="&#x14a;" horiz-adv-x="1613" 
d="M99 107l167 24v1259l-167 28v104h401l630 -983l144 -274v1123l-174 26v108h493v-108l-168 -26v-985q0 -93 -6 -166t-16 -130t-24.5 -99.5t-31 -75.5t-35 -58t-37.5 -47q-43 -48 -86.5 -81t-89 -55.5t-94 -35t-101.5 -18.5l-54 88q93 24 168 73t126 124q31 47 51 103
l-637 983l-140 272v-1149l188 -24v-107h-507v107z" />
    <glyph glyph-name="eng" unicode="&#x14b;" horiz-adv-x="1383" 
d="M110 109l131 17v842l-142 41v120l295 39h5l47 -39v-69l-1 -58q34 30 82 59.5t103 53t114 37.5t115 14q98 0 162 -26t101 -81.5t51.5 -143.5t14.5 -211v-682q0 -255 -94 -388.5t-268 -143.5h-22t-34 0.5t-33.5 2.5t-19.5 5l-10 108q8 -1 21.5 0.5t29.5 4.5t31.5 7t26.5 8
q45 15 72.5 54t42.5 94.5t20.5 125t5.5 146.5v658q0 79 -7 137t-28.5 95.5t-61 55.5t-104.5 18q-37 0 -76 -8.5t-76 -23t-71.5 -34t-62.5 -40.5v-778l137 -18v-108h-497v109z" />
    <glyph glyph-name="Omacron" unicode="&#x14c;" horiz-adv-x="1480" 
d="M464 1904h570v-158h-570v158zM727 -23q-163 -3 -286.5 52.5t-207 158t-125.5 246t-42 316.5q0 181 52.5 326.5t145.5 248.5t219.5 158.5t274.5 55.5q163 0 286 -54.5t205 -154t123 -240.5t41 -313q0 -181 -52 -327.5t-143.5 -250.5t-217 -161.5t-273.5 -60.5zM740 95
q94 0 170.5 42.5t130.5 127t83.5 212.5t29.5 299q0 150 -27.5 270t-80.5 203.5t-130 128t-175 44.5q-94 0 -170.5 -40.5t-131 -123.5t-84 -209.5t-29.5 -297.5q0 -150 27.5 -271.5t80.5 -207t130 -131.5t176 -46z" />
    <glyph glyph-name="omacron" unicode="&#x14d;" 
d="M336 1586h558v-158h-558v158zM79 573q0 143 46.5 254t122.5 186.5t173.5 115t199.5 39.5q135 0 233 -46t161 -126t93.5 -189t30.5 -235q0 -145 -46 -256t-122 -186.5t-174 -114t-201 -38.5q-135 0 -232.5 46t-160.5 126t-93.5 189t-30.5 235zM609 101q277 0 277 453
q0 105 -15 194.5t-48 155.5t-85.5 103t-128.5 37q-137 0 -207.5 -113t-70.5 -340q0 -105 15.5 -195t48.5 -155.5t86 -102.5t128 -37z" />
    <glyph glyph-name="Obreve" unicode="&#x14e;" horiz-adv-x="1480" 
d="M747 1643q-84 0 -148.5 24.5t-108 67t-66 99.5t-22.5 122v21t2 21h121q0 -4 0.5 -11t2.5 -16q3 -22 15 -49.5t37 -52t66 -41t103 -16.5q61 0 101.5 16.5t64.5 41t34.5 52.5t13.5 50q2 9 2 15.5v10.5h119q2 -11 2 -20.5v-20.5q0 -65 -22.5 -122.5t-66 -100t-106.5 -67
t-144 -24.5zM727 -23q-163 -3 -286.5 52.5t-207 158t-125.5 246t-42 316.5q0 181 52.5 326.5t145.5 248.5t219.5 158.5t274.5 55.5q163 0 286 -54.5t205 -154t123 -240.5t41 -313q0 -181 -52 -327.5t-143.5 -250.5t-217 -161.5t-273.5 -60.5zM740 95q94 0 170.5 42.5
t130.5 127t83.5 212.5t29.5 299q0 150 -27.5 270t-80.5 203.5t-130 128t-175 44.5q-94 0 -170.5 -40.5t-131 -123.5t-84 -209.5t-29.5 -297.5q0 -150 27.5 -271.5t80.5 -207t130 -131.5t176 -46z" />
    <glyph glyph-name="obreve" unicode="&#x14f;" 
d="M79 573q0 143 46.5 254t122.5 186.5t173.5 115t199.5 39.5q135 0 233 -46t161 -126t93.5 -189t30.5 -235q0 -145 -46 -256t-122 -186.5t-174 -114t-201 -38.5q-135 0 -232.5 46t-160.5 126t-93.5 189t-30.5 235zM609 101q277 0 277 453q0 105 -15 194.5t-48 155.5
t-85.5 103t-128.5 37q-137 0 -207.5 -113t-70.5 -340q0 -105 15.5 -195t48.5 -155.5t86 -102.5t128 -37zM616 1351q-80 0 -144 28t-108 75t-67.5 109t-23.5 130q0 15 0.5 31.5t3.5 28.5h118q0 -6 0.5 -15.5t2.5 -21.5q4 -27 16 -59.5t37.5 -60.5t66 -46.5t100.5 -18.5
t99.5 18.5t63.5 46t35.5 60t15.5 60.5q3 24 3 37h114q1 -12 2.5 -28t1.5 -31q0 -68 -24 -130.5t-68 -109.5t-106.5 -75t-138.5 -28z" />
    <glyph glyph-name="Ohungarumlaut" unicode="&#x150;" horiz-adv-x="1480" 
d="M727 -23q-163 -3 -286.5 52.5t-207 158t-125.5 246t-42 316.5q0 181 52.5 326.5t145.5 248.5t219.5 158.5t274.5 55.5q163 0 286 -54.5t205 -154t123 -240.5t41 -313q0 -181 -52 -327.5t-143.5 -250.5t-217 -161.5t-273.5 -60.5zM740 95q94 0 170.5 42.5t130.5 127
t83.5 212.5t29.5 299q0 150 -27.5 270t-80.5 203.5t-130 128t-175 44.5q-94 0 -170.5 -40.5t-131 -123.5t-84 -209.5t-29.5 -297.5q0 -150 27.5 -271.5t80.5 -207t130 -131.5t176 -46zM365 1719l278 295l145 -120q-35 -40 -77 -77.5t-86 -71t-86.5 -61t-78.5 -47.5z
M871 1719l294 293l134 -120q-30 -36 -72 -73t-87.5 -70.5t-91 -62.5t-82.5 -49z" />
    <glyph glyph-name="ohungarumlaut" unicode="&#x151;" 
d="M266 1408l317 405l145 -124q-17 -27 -45.5 -58.5t-64 -65.5t-75 -67.5t-76.5 -62.5t-70 -52.5t-55 -37.5zM751 1409l327 401l138 -121q-14 -24 -41.5 -55t-63 -65t-75.5 -68t-78.5 -64t-73 -54.5t-57.5 -37.5zM79 573q0 143 46.5 254t122.5 186.5t173.5 115t199.5 39.5
q135 0 233 -46t161 -126t93.5 -189t30.5 -235q0 -145 -46 -256t-122 -186.5t-174 -114t-201 -38.5q-135 0 -232.5 46t-160.5 126t-93.5 189t-30.5 235zM609 101q277 0 277 453q0 105 -15 194.5t-48 155.5t-85.5 103t-128.5 37q-137 0 -207.5 -113t-70.5 -340
q0 -105 15.5 -195t48.5 -155.5t86 -102.5t128 -37z" />
    <glyph glyph-name="OE" unicode="&#x152;" horiz-adv-x="2112" 
d="M742 -16q-161 -3 -285 52.5t-208 157t-127.5 244t-43.5 314.5q0 180 52.5 325.5t145 248.5t219 159t274.5 57q72 0 136.5 -11t121.5 -36v27h879l27 -319h-127l-62 191l-483 13v-566l328 7l30 164h130v-468h-130l-30 171l-328 6v-598l560 22l130 251l127 -37l-76 -359
h-975v59q-65 -36 -136.5 -54.5t-148.5 -20.5zM755 99q88 0 155.5 34.5t116.5 99.5v1084q-46 55 -112.5 84.5t-161.5 29.5q-98 0 -175.5 -43.5t-131.5 -129t-83 -212.5t-29 -293q0 -139 28 -258.5t82 -207.5t132.5 -138t178.5 -50z" />
    <glyph glyph-name="oe" unicode="&#x153;" horiz-adv-x="1954" 
d="M79 571q0 143 46.5 254t123 187.5t175.5 116t204 39.5q143 0 242 -52.5t157 -152.5q72 97 179 151t240 54q192 0 296.5 -104t112.5 -304q1 -64 -1.5 -112t-10.5 -84h-693q3 -114 31 -196t74 -134.5t106.5 -77.5t128.5 -25q43 0 87 8t84.5 21.5t75 30t57.5 34.5l42 -96
q-28 -29 -73 -56.5t-99.5 -48.5t-116.5 -34t-125 -13q-149 0 -252.5 56t-166.5 156q-70 -103 -174 -157.5t-230 -54.5q-132 0 -230 43t-162.5 121t-96 187.5t-31.5 242.5zM1615 680q2 20 3 43.5t1 42.5q0 58 -12 109t-38 89.5t-67 60.5t-101 22q-51 0 -95 -17.5t-77 -60
t-53.5 -113t-25.5 -176.5h465zM609 101q137 0 208 113t71 343q0 113 -16.5 203t-51 153t-87 97t-123.5 34q-140 0 -210.5 -114t-70.5 -341q0 -234 71 -361t209 -127z" />
    <glyph glyph-name="Racute" unicode="&#x154;" horiz-adv-x="1440" 
d="M96 109l168 22v1256l-158 26v109h275q41 0 79.5 2.5t76.5 5t77 5t82 2.5q153 0 259 -25t171.5 -75t95 -125.5t29.5 -176.5q0 -69 -19.5 -136t-58 -124.5t-94 -101.5t-127.5 -66q43 -25 83.5 -75.5t78 -112t71.5 -127.5t65.5 -121.5t60 -94t54.5 -44.5l78 -24v-108h-296
q-20 0 -41.5 25t-45 66.5t-48.5 95.5t-51 112t-53 116.5t-55 108.5t-56.5 87.5t-56.5 54.5h-66t-72.5 0.5t-64 1t-39.5 1.5v-538l197 -22v-109h-599v109zM498 786q17 -2 48 -2.5t65 -0.5t65 0.5t48 0.5q63 0 113 20.5t85.5 61.5t54.5 104t19 149q0 66 -15 121t-52.5 95
t-100.5 62.5t-158 22.5q-37 0 -64 -1.5t-47 -3.5t-34.5 -4t-26.5 -3v-622zM577 1701l331 311h1l153 -127q-20 -25 -51 -51.5t-68.5 -52.5t-78.5 -49.5t-79 -43t-71.5 -34t-55.5 -21.5h-1z" />
    <glyph glyph-name="racute" unicode="&#x155;" horiz-adv-x="943" 
d="M321 1408l330 406h1l159 -139q-14 -23 -43 -55t-66.5 -67t-80 -70t-83 -65t-76 -52.5t-58.5 -31.5h-2zM93 108l157 16v840l-142 40v120l286 40h5l48 -39v-63l-2 -130h2q5 10 20.5 31.5t40 47.5t57.5 54t73.5 51t87.5 37.5t101 14.5q23 0 39 -3t27 -8v-246q-17 10 -48 18
t-70 8q-56 0 -101.5 -7.5t-82 -20t-64.5 -28t-49 -30.5v-726l263 -18v-107h-648v108z" />
    <glyph glyph-name="Rcommaaccent" unicode="&#x156;" horiz-adv-x="1440" 
d="M653 -218q0 33 13.5 54t33 33t40.5 16.5t35 4.5h10q65 0 102.5 -42t37.5 -120q0 -40 -10 -77t-26 -68.5t-35.5 -57.5t-37.5 -44.5t-33 -29t-22 -11.5h-3l-78 39l-1 18q14 6 25 19.5t18.5 31t11.5 37.5t4 40q0 29 -14.5 44t-30.5 26q-17 11 -28.5 30t-11.5 57zM96 109
l168 22v1256l-158 26v109h275q41 0 79.5 2.5t76.5 5t77 5t82 2.5q153 0 259 -25t171.5 -75t95 -125.5t29.5 -176.5q0 -69 -19.5 -136t-58 -124.5t-94 -101.5t-127.5 -66q43 -25 83.5 -75.5t78 -112t71.5 -127.5t65.5 -121.5t60 -94t54.5 -44.5l78 -24v-108h-296
q-20 0 -41.5 25t-45 66.5t-48.5 95.5t-51 112t-53 116.5t-55 108.5t-56.5 87.5t-56.5 54.5h-66t-72.5 0.5t-64 1t-39.5 1.5v-538l197 -22v-109h-599v109zM498 786q17 -2 48 -2.5t65 -0.5t65 0.5t48 0.5q63 0 113 20.5t85.5 61.5t54.5 104t19 149q0 66 -15 121t-52.5 95
t-100.5 62.5t-158 22.5q-37 0 -64 -1.5t-47 -3.5t-34.5 -4t-26.5 -3v-622z" />
    <glyph glyph-name="rcommaaccent" unicode="&#x157;" horiz-adv-x="943" 
d="M257 -218q0 33 13.5 54t33 33t40.5 16.5t35 4.5h10q65 0 102.5 -42t37.5 -120q0 -40 -10 -77t-26 -68.5t-35.5 -57.5t-37.5 -44.5t-33 -29t-22 -11.5h-3l-78 39l-1 18q14 6 25 19.5t18.5 31t11.5 37.5t4 40q0 29 -14.5 44t-30.5 26q-17 11 -28.5 30t-11.5 57zM93 108
l157 16v840l-142 40v120l286 40h5l48 -39v-63l-2 -130h2q5 10 20.5 31.5t40 47.5t57.5 54t73.5 51t87.5 37.5t101 14.5q23 0 39 -3t27 -8v-246q-17 10 -48 18t-70 8q-56 0 -101.5 -7.5t-82 -20t-64.5 -28t-49 -30.5v-726l263 -18v-107h-648v108z" />
    <glyph glyph-name="Rcaron" unicode="&#x158;" horiz-adv-x="1440" 
d="M377 1952l91 61l255 -189l264 189l85 -59l-257 -278h-183zM96 109l168 22v1256l-158 26v109h275q41 0 79.5 2.5t76.5 5t77 5t82 2.5q153 0 259 -25t171.5 -75t95 -125.5t29.5 -176.5q0 -69 -19.5 -136t-58 -124.5t-94 -101.5t-127.5 -66q43 -25 83.5 -75.5t78 -112
t71.5 -127.5t65.5 -121.5t60 -94t54.5 -44.5l78 -24v-108h-296q-20 0 -41.5 25t-45 66.5t-48.5 95.5t-51 112t-53 116.5t-55 108.5t-56.5 87.5t-56.5 54.5h-66t-72.5 0.5t-64 1t-39.5 1.5v-538l197 -22v-109h-599v109zM498 786q17 -2 48 -2.5t65 -0.5t65 0.5t48 0.5
q63 0 113 20.5t85.5 61.5t54.5 104t19 149q0 66 -15 121t-52.5 95t-100.5 62.5t-158 22.5q-37 0 -64 -1.5t-47 -3.5t-34.5 -4t-26.5 -3v-622z" />
    <glyph glyph-name="rcaron" unicode="&#x159;" horiz-adv-x="943" 
d="M87 1739l89 60l284 -282l289 283l83 -60l-283 -398h-180zM93 108l157 16v840l-142 40v120l286 40h5l48 -39v-63l-2 -130h2q5 10 20.5 31.5t40 47.5t57.5 54t73.5 51t87.5 37.5t101 14.5q23 0 39 -3t27 -8v-246q-17 10 -48 18t-70 8q-56 0 -101.5 -7.5t-82 -20t-64.5 -28
t-49 -30.5v-726l263 -18v-107h-648v108z" />
    <glyph glyph-name="Sacute" unicode="&#x15a;" horiz-adv-x="1215" 
d="M134 440h139l40 -256q16 -17 43.5 -33t63.5 -28t78.5 -19t89.5 -7q152 0 226 67.5t74 183.5q0 60 -25 106t-71 83.5t-110.5 70.5t-142.5 68q-62 28 -132.5 67t-131 94.5t-100.5 131t-40 176.5q0 85 35 157.5t99.5 125t156.5 82t207 29.5q73 0 136.5 -10t115 -23t90 -25
t61.5 -15l-13 -343h-134l-46 243q-9 10 -29 20t-48.5 18t-63 13t-71.5 5q-138 0 -204 -55.5t-66 -162.5q0 -60 24.5 -104.5t70.5 -82t111 -72t145 -73.5q72 -36 146.5 -76.5t135.5 -94t99.5 -122.5t38.5 -161q0 -79 -33.5 -157.5t-101 -141.5t-170 -102.5t-241.5 -39.5
q-89 0 -164.5 13.5t-135 30.5t-102.5 32t-67 17zM490 1701l331 311h1l153 -127q-20 -25 -51 -51.5t-68.5 -52.5t-78.5 -49.5t-79 -43t-71.5 -34t-55.5 -21.5h-1z" />
    <glyph glyph-name="sacute" unicode="&#x15b;" horiz-adv-x="1049" 
d="M409 1408l330 406h1l159 -139q-14 -23 -43 -55t-66.5 -67t-80 -70t-83 -65t-76 -52.5t-58.5 -31.5h-2zM119 325h141l40 -152q9 -15 31 -30t52 -27t66.5 -19t74.5 -7q60 0 100.5 12t64.5 33.5t34 50.5t10 63q0 40 -19 71.5t-57 60t-94.5 56t-132.5 57.5q-77 30 -134.5 65
t-95.5 79t-56.5 98t-18.5 123t31.5 124.5t87.5 95.5t132.5 61.5t166.5 21.5q65 0 119 -8t96 -18.5t73 -21t51 -15.5v-253h-128l-43 140q-6 12 -22 23.5t-39.5 20.5t-53 14.5t-61.5 5.5q-49 1 -86 -9.5t-62 -29t-37.5 -45t-12.5 -57.5q0 -50 22.5 -83.5t59.5 -59t84.5 -45.5
t98.5 -42q67 -29 130.5 -61t112 -74t78 -97.5t29.5 -133.5q0 -75 -30 -137t-86.5 -106.5t-138 -68.5t-185.5 -24q-57 0 -116 9t-112 22.5t-96 28t-69 26.5v262z" />
    <glyph glyph-name="Scircumflex" unicode="&#x15c;" horiz-adv-x="1215" 
d="M134 440h139l40 -256q16 -17 43.5 -33t63.5 -28t78.5 -19t89.5 -7q152 0 226 67.5t74 183.5q0 60 -25 106t-71 83.5t-110.5 70.5t-142.5 68q-62 28 -132.5 67t-131 94.5t-100.5 131t-40 176.5q0 85 35 157.5t99.5 125t156.5 82t207 29.5q73 0 136.5 -10t115 -23t90 -25
t61.5 -15l-13 -343h-134l-46 243q-9 10 -29 20t-48.5 18t-63 13t-71.5 5q-138 0 -204 -55.5t-66 -162.5q0 -60 24.5 -104.5t70.5 -82t111 -72t145 -73.5q72 -36 146.5 -76.5t135.5 -94t99.5 -122.5t38.5 -161q0 -79 -33.5 -157.5t-101 -141.5t-170 -102.5t-241.5 -39.5
q-89 0 -164.5 13.5t-135 30.5t-102.5 32t-67 17zM271 1713l271 300h183l274 -298l-92 -61l-273 202l-278 -202z" />
    <glyph glyph-name="scircumflex" unicode="&#x15d;" horiz-adv-x="1049" 
d="M167 1382l288 399h180l281 -398l-90 -58l-281 281l-296 -282zM119 325h141l40 -152q9 -15 31 -30t52 -27t66.5 -19t74.5 -7q60 0 100.5 12t64.5 33.5t34 50.5t10 63q0 40 -19 71.5t-57 60t-94.5 56t-132.5 57.5q-77 30 -134.5 65t-95.5 79t-56.5 98t-18.5 123t31.5 124.5
t87.5 95.5t132.5 61.5t166.5 21.5q65 0 119 -8t96 -18.5t73 -21t51 -15.5v-253h-128l-43 140q-6 12 -22 23.5t-39.5 20.5t-53 14.5t-61.5 5.5q-49 1 -86 -9.5t-62 -29t-37.5 -45t-12.5 -57.5q0 -50 22.5 -83.5t59.5 -59t84.5 -45.5t98.5 -42q67 -29 130.5 -61t112 -74
t78 -97.5t29.5 -133.5q0 -75 -30 -137t-86.5 -106.5t-138 -68.5t-185.5 -24q-57 0 -116 9t-112 22.5t-96 28t-69 26.5v262z" />
    <glyph glyph-name="Scedilla" unicode="&#x15e;" horiz-adv-x="1215" 
d="M134 440h139l40 -256q16 -17 43.5 -33t63.5 -28t78.5 -19t89.5 -7q152 0 226 67.5t74 183.5q0 60 -25 106t-71 83.5t-110.5 70.5t-142.5 68q-62 28 -132.5 67t-131 94.5t-100.5 131t-40 176.5q0 85 35 157.5t99.5 125t156.5 82t207 29.5q73 0 136.5 -10t115 -23t90 -25
t61.5 -15l-13 -343h-134l-46 243q-9 10 -29 20t-48.5 18t-63 13t-71.5 5q-138 0 -204 -55.5t-66 -162.5q0 -60 24.5 -104.5t70.5 -82t111 -72t145 -73.5q72 -36 146.5 -76.5t135.5 -94t99.5 -122.5t38.5 -161q0 -72 -27.5 -143.5t-83 -131.5t-140 -103t-198.5 -57
q18 -20 38.5 -49.5t37.5 -66t27.5 -77.5t8.5 -84q-3 -56 -21.5 -94.5t-52 -62t-81.5 -33.5t-109 -10h-1q-17 0 -37 2t-39.5 5.5t-37 8.5t-30.5 11l1 153q21 -8 47.5 -11t38.5 -3h1q34 0 60.5 4.5t44.5 19t27.5 42.5t9.5 75q0 22 -4.5 45t-11.5 44.5t-15.5 40.5t-15.5 34
q-86 1 -158.5 15t-130 30.5t-98.5 31t-65 16.5z" />
    <glyph glyph-name="scedilla" unicode="&#x15f;" horiz-adv-x="1049" 
d="M119 325h141l40 -152q9 -15 31 -30t52 -27t66.5 -19t74.5 -7q60 0 100.5 12t64.5 33.5t34 50.5t10 63q0 40 -19 71.5t-57 60t-94.5 56t-132.5 57.5q-77 30 -134.5 65t-95.5 79t-56.5 98t-18.5 123t31.5 124.5t87.5 95.5t132.5 61.5t166.5 21.5q65 0 119 -8t96 -18.5
t73 -21t51 -15.5v-253h-128l-43 140q-6 12 -22 23.5t-39.5 20.5t-53 14.5t-61.5 5.5q-49 1 -86 -9.5t-62 -29t-37.5 -45t-12.5 -57.5q0 -50 22.5 -83.5t59.5 -59t84.5 -45.5t98.5 -42q67 -29 130.5 -61t112 -74t78 -97.5t29.5 -133.5q0 -66 -22.5 -121t-65.5 -97.5t-106 -71
t-143 -39.5q18 -20 38.5 -49.5t38 -66t28 -78t8.5 -84.5q-3 -56 -21.5 -94.5t-52 -62t-81.5 -33.5t-109 -10h-1q-17 0 -37 2t-39.5 5.5t-37 8.5t-30.5 11l1 153q21 -8 47.5 -11t38.5 -3h1q34 0 60.5 4.5t44.5 19t27.5 42.5t9.5 75q0 22 -4.5 45t-11.5 44.5t-15.5 40.5
t-15.5 34q-57 1 -114.5 10.5t-108.5 22t-93 27t-67 26.5v262z" />
    <glyph glyph-name="Scaron" unicode="&#x160;" horiz-adv-x="1215" 
d="M134 440h139l40 -256q16 -17 43.5 -33t63.5 -28t78.5 -19t89.5 -7q152 0 226 67.5t74 183.5q0 60 -25 106t-71 83.5t-110.5 70.5t-142.5 68q-62 28 -132.5 67t-131 94.5t-100.5 131t-40 176.5q0 85 35 157.5t99.5 125t156.5 82t207 29.5q73 0 136.5 -10t115 -23t90 -25
t61.5 -15l-13 -343h-134l-46 243q-9 10 -29 20t-48.5 18t-63 13t-71.5 5q-138 0 -204 -55.5t-66 -162.5q0 -60 24.5 -104.5t70.5 -82t111 -72t145 -73.5q72 -36 146.5 -76.5t135.5 -94t99.5 -122.5t38.5 -161q0 -79 -33.5 -157.5t-101 -141.5t-170 -102.5t-241.5 -39.5
q-89 0 -164.5 13.5t-135 30.5t-102.5 32t-67 17zM288 1952l91 61l255 -189l264 189l85 -59l-257 -278h-183z" />
    <glyph glyph-name="scaron" unicode="&#x161;" horiz-adv-x="1049" 
d="M174 1739l89 60l284 -282l289 283l83 -60l-283 -398h-180zM119 325h141l40 -152q9 -15 31 -30t52 -27t66.5 -19t74.5 -7q60 0 100.5 12t64.5 33.5t34 50.5t10 63q0 40 -19 71.5t-57 60t-94.5 56t-132.5 57.5q-77 30 -134.5 65t-95.5 79t-56.5 98t-18.5 123t31.5 124.5
t87.5 95.5t132.5 61.5t166.5 21.5q65 0 119 -8t96 -18.5t73 -21t51 -15.5v-253h-128l-43 140q-6 12 -22 23.5t-39.5 20.5t-53 14.5t-61.5 5.5q-49 1 -86 -9.5t-62 -29t-37.5 -45t-12.5 -57.5q0 -50 22.5 -83.5t59.5 -59t84.5 -45.5t98.5 -42q67 -29 130.5 -61t112 -74
t78 -97.5t29.5 -133.5q0 -75 -30 -137t-86.5 -106.5t-138 -68.5t-185.5 -24q-57 0 -116 9t-112 22.5t-96 28t-69 26.5v262z" />
    <glyph glyph-name="uni0162" unicode="&#x162;" horiz-adv-x="1411" 
d="M324 109l261 24v1270l-333 -10l-75 -418h-145l35 547h1266l32 -547h-143l-76 418l-320 10v-1270l283 -24v-109h-345q16 -16 39 -46t43.5 -69t34.5 -85t11 -94q-3 -56 -21.5 -94.5t-52 -62t-81.5 -33.5t-109 -10h-1q-17 0 -37 2t-39.5 5.5t-37 8.5t-30.5 11l1 153
q21 -8 47.5 -11t38.5 -3h1q34 0 60.5 4.5t44.5 19t27.5 42.5t9.5 75q0 27 -6.5 55t-16 53.5t-20 46t-17.5 32.5h-329v109z" />
    <glyph glyph-name="uni0163" unicode="&#x163;" horiz-adv-x="834" 
d="M210 994h-143v95q13 3 29.5 8.5l33 11t30 11t19.5 9.5q17 12 30 30.5t24 47.5q8 18 19 48.5t21.5 63t19.5 62.5t13 47h130l2 -291h336v-143h-335v-605q0 -86 3 -135t14.5 -73t34.5 -30t62 -6h1q28 0 60.5 4t62.5 10t55.5 13t40.5 13h1l34 -97q-19 -16 -50 -32
t-69.5 -30.5t-81 -25.5t-83.5 -17q18 -20 38.5 -49.5t37.5 -66t27.5 -77.5t8.5 -84q-3 -56 -21.5 -94.5t-52 -62t-81.5 -33.5t-109 -10h-1q-17 0 -37 2t-39.5 5.5t-37 8.5t-30.5 11l1 153q21 -8 47.5 -11t38.5 -3h1q34 0 60.5 4.5t44.5 19t27.5 42.5t9.5 75q0 22 -4.5 45.5
t-12 46t-16 42t-16.5 34.5q-47 5 -84 20t-62.5 43t-38.5 70t-13 101v779z" />
    <glyph glyph-name="Tcaron" unicode="&#x164;" horiz-adv-x="1411" 
d="M377 1952l91 61l255 -189l264 189l85 -59l-257 -278h-183zM324 109l261 24v1270l-333 -10l-75 -418h-145l35 547h1266l32 -547h-143l-76 418l-320 10v-1270l283 -24v-109h-785v109z" />
    <glyph glyph-name="tcaron" unicode="&#x165;" horiz-adv-x="862" 
d="M206 994h-143v95q13 3 29.5 8.5l33 11t30 11t19.5 9.5q17 12 30 30.5t24 47.5q8 18 19 48.5t21.5 63t19.5 62.5t13 47h130l2 -291h336v-143h-335v-605q0 -86 3 -135t14.5 -73t34.5 -30t62 -6h1q28 0 60.5 4t62.5 10t55.5 13t40.5 13h1l34 -97q-23 -19 -63 -38.5t-88 -35
t-99 -26t-96 -10.5h-2q-59 0 -105.5 12t-78.5 40t-49 73.5t-17 111.5v779zM635 1313l-4 24q17 61 25 126.5t8 135.5q0 46 -5 88t-13 76t-17 58.5t-18 35.5l14 40l168 40q14 -14 25.5 -39t20 -58t13 -71t4.5 -77q0 -65 -11 -130t-28.5 -120.5t-40 -98.5t-45.5 -64z" />
    <glyph glyph-name="Tbar" unicode="&#x166;" horiz-adv-x="1448" 
d="M343 109l261 24v521h-239v127h239v622l-333 -10l-75 -418h-145l35 547h1266l32 -547h-143l-76 418l-320 10v-622h236v-127h-236v-521l283 -24v-109h-785v109z" />
    <glyph glyph-name="tbar" unicode="&#x167;" horiz-adv-x="834" 
d="M210 615h-141v132h141v247h-143v95q13 3 29.5 8.5l33 11t30 11t19.5 9.5q17 12 30 30.5t24 47.5q8 18 19 48.5t21.5 63t19.5 62.5t13 47h130l2 -291h336v-143h-335v-247h334v-132h-334v-226q0 -86 3 -135t14.5 -73t34.5 -30t62 -6h1q28 0 60.5 4t62.5 10t55.5 13t40.5 13
h1l34 -97q-23 -19 -63 -38.5t-88 -35t-99 -26t-96 -10.5h-2q-59 0 -105.5 12t-78.5 40t-49 73.5t-17 111.5v400z" />
    <glyph glyph-name="Utilde" unicode="&#x168;" horiz-adv-x="1508" 
d="M364 1795q10 33 34.5 70.5t61.5 69t85.5 52.5t105.5 21q42 0 74.5 -12.5t59 -30.5t49.5 -40t45 -40t45.5 -30.5t52.5 -12.5q35 0 59 13.5t41 32.5t28 39.5t19 34.5l98 -64q-15 -41 -38.5 -79.5t-56.5 -68.5t-75.5 -48t-95.5 -18q-41 0 -74 12.5t-60.5 31t-51.5 40t-48 40
t-49.5 31t-56.5 12.5q-34 0 -59.5 -14t-44.5 -33t-31.5 -39.5t-20.5 -32.5zM184 1385l-144 26v111h558v-111l-170 -26v-765q0 -145 27 -244t76.5 -159.5t118.5 -87t153 -26.5q90 0 157 34t112 99t67.5 159t22.5 214v776l-165 26v111h479v-111l-148 -26v-766q0 -165 -42 -285
t-116 -198t-175 -115t-219 -37q-155 0 -267 39t-184 119.5t-106.5 205t-34.5 295.5v742z" />
    <glyph glyph-name="utilde" unicode="&#x169;" horiz-adv-x="1307" 
d="M193 999l-111 37v97l296 30h1l42 -27v-706q0 -82 8.5 -139.5t31 -93.5t61.5 -52t100 -16q44 0 83.5 10t72.5 25t60 32t45 32v770l-143 39v97l316 29h2l53 -27v-1023h120v-100q-35 -11 -85 -23.5t-113 -12.5q-62 0 -93.5 23.5t-31.5 83.5v52q-27 -27 -66.5 -55t-86.5 -51
t-100 -38t-107 -15q-93 0 -160 24.5t-110.5 77.5t-64 137t-20.5 203v580zM222 1448q10 33 34.5 71t61.5 69.5t85.5 52.5t105.5 21q41 0 73.5 -12.5t59 -30.5t49 -40t44.5 -40t45.5 -30.5t51.5 -12.5q34 0 59 13.5t42.5 32t28.5 38.5t18 33l98 -62q-15 -40 -38.5 -78.5
t-56.5 -69t-76 -49t-97 -18.5q-41 0 -73.5 12.5t-59.5 31t-50.5 40t-47 40t-49 31t-56.5 12.5q-34 0 -59.5 -13.5t-44 -32.5t-31 -38.5t-20.5 -32.5z" />
    <glyph glyph-name="Umacron" unicode="&#x16a;" horiz-adv-x="1508" 
d="M511 1904h570v-158h-570v158zM184 1385l-144 26v111h558v-111l-170 -26v-765q0 -145 27 -244t76.5 -159.5t118.5 -87t153 -26.5q90 0 157 34t112 99t67.5 159t22.5 214v776l-165 26v111h479v-111l-148 -26v-766q0 -165 -42 -285t-116 -198t-175 -115t-219 -37
q-155 0 -267 39t-184 119.5t-106.5 205t-34.5 295.5v742z" />
    <glyph glyph-name="umacron" unicode="&#x16b;" horiz-adv-x="1307" 
d="M193 999l-111 37v97l296 30h1l42 -27v-706q0 -82 8.5 -139.5t31 -93.5t61.5 -52t100 -16q44 0 83.5 10t72.5 25t60 32t45 32v770l-143 39v97l316 29h2l53 -27v-1023h120v-100q-35 -11 -85 -23.5t-113 -12.5q-62 0 -93.5 23.5t-31.5 83.5v52q-27 -27 -66.5 -55t-86.5 -51
t-100 -38t-107 -15q-93 0 -160 24.5t-110.5 77.5t-64 137t-20.5 203v580zM344 1586h558v-158h-558v158z" />
    <glyph glyph-name="Ubreve" unicode="&#x16c;" horiz-adv-x="1508" 
d="M794 1643q-84 0 -148.5 24.5t-108 67t-66 99.5t-22.5 122v21t2 21h121q0 -4 0.5 -11t2.5 -16q3 -22 15 -49.5t37 -52t66 -41t103 -16.5q61 0 101.5 16.5t64.5 41t34.5 52.5t13.5 50q2 9 2 15.5v10.5h119q2 -11 2 -20.5v-20.5q0 -65 -22.5 -122.5t-66 -100t-106.5 -67
t-144 -24.5zM184 1385l-144 26v111h558v-111l-170 -26v-765q0 -145 27 -244t76.5 -159.5t118.5 -87t153 -26.5q90 0 157 34t112 99t67.5 159t22.5 214v776l-165 26v111h479v-111l-148 -26v-766q0 -165 -42 -285t-116 -198t-175 -115t-219 -37q-155 0 -267 39t-184 119.5
t-106.5 205t-34.5 295.5v742z" />
    <glyph glyph-name="ubreve" unicode="&#x16d;" horiz-adv-x="1307" 
d="M193 999l-111 37v97l296 30h1l42 -27v-706q0 -82 8.5 -139.5t31 -93.5t61.5 -52t100 -16q44 0 83.5 10t72.5 25t60 32t45 32v770l-143 39v97l316 29h2l53 -27v-1023h120v-100q-35 -11 -85 -23.5t-113 -12.5q-62 0 -93.5 23.5t-31.5 83.5v52q-27 -27 -66.5 -55t-86.5 -51
t-100 -38t-107 -15q-93 0 -160 24.5t-110.5 77.5t-64 137t-20.5 203v580zM630 1351q-80 0 -144 28t-108 75t-67.5 109t-23.5 130q0 15 0.5 31.5t3.5 28.5h118q0 -6 0.5 -15.5t2.5 -21.5q4 -27 16 -59.5t37.5 -60.5t66 -46.5t100.5 -18.5t99.5 18.5t63.5 46t35.5 60
t15.5 60.5q3 24 3 37h114q1 -12 2.5 -28t1.5 -31q0 -68 -24 -130.5t-68 -109.5t-106.5 -75t-138.5 -28z" />
    <glyph glyph-name="Uring" unicode="&#x16e;" horiz-adv-x="1508" 
d="M184 1385l-144 26v111h558v-111l-170 -26v-765q0 -145 27 -244t76.5 -159.5t118.5 -87t153 -26.5q90 0 157 34t112 99t67.5 159t22.5 214v776l-165 26v111h479v-111l-148 -26v-766q0 -165 -42 -285t-116 -198t-175 -115t-219 -37q-155 0 -267 39t-184 119.5t-106.5 205
t-34.5 295.5v742zM799 1505q-87 0 -150 20.5t-103.5 55.5t-59 82t-17.5 100q1 62 30.5 109t77.5 78.5t109.5 47.5t126.5 16h1q81 0 141 -19t100.5 -53.5t60 -81.5t19.5 -103q-1 -61 -28 -108t-72.5 -79t-106 -48.5t-128.5 -16.5h-1zM805 1604q93 0 132 38t39 108
q0 34 -9.5 63.5t-29.5 52t-52.5 35.5t-78.5 13h-1q-92 0 -133.5 -39.5t-41.5 -111.5q0 -31 10 -59.5t31 -50.5t54 -35.5t79 -13.5h1z" />
    <glyph glyph-name="uring" unicode="&#x16f;" horiz-adv-x="1307" 
d="M625 1309q-86 0 -148.5 22.5t-103 61.5t-60 92t-18.5 113q1 66 31 117t78.5 86t110 53t125.5 18h1q79 0 139 -21.5t100.5 -59t60.5 -88.5t20 -111q-1 -68 -28 -120.5t-73 -88.5t-106.5 -55t-127.5 -19h-1zM632 1415q93 0 132.5 43t39.5 127q0 36 -9.5 68.5t-30 56.5
t-53 38.5t-78.5 14.5h-1q-92 0 -135 -44.5t-43 -120.5q0 -36 10.5 -69t32 -58.5t55 -40.5t79.5 -15h1zM193 999l-111 37v97l296 30h1l42 -27v-706q0 -82 8.5 -139.5t31 -93.5t61.5 -52t100 -16q44 0 83.5 10t72.5 25t60 32t45 32v770l-143 39v97l316 29h2l53 -27v-1023h120
v-100q-35 -11 -85 -23.5t-113 -12.5q-62 0 -93.5 23.5t-31.5 83.5v52q-27 -27 -66.5 -55t-86.5 -51t-100 -38t-107 -15q-93 0 -160 24.5t-110.5 77.5t-64 137t-20.5 203v580z" />
    <glyph glyph-name="Uhungarumlaut" unicode="&#x170;" horiz-adv-x="1508" 
d="M184 1385l-144 26v111h558v-111l-170 -26v-765q0 -145 27 -244t76.5 -159.5t118.5 -87t153 -26.5q90 0 157 34t112 99t67.5 159t22.5 214v776l-165 26v111h479v-111l-148 -26v-766q0 -165 -42 -285t-116 -198t-175 -115t-219 -37q-155 0 -267 39t-184 119.5t-106.5 205
t-34.5 295.5v742zM412 1719l278 295l145 -120q-35 -40 -77 -77.5t-86 -71t-86.5 -61t-78.5 -47.5zM918 1719l294 293l134 -120q-30 -36 -72 -73t-87.5 -70.5t-91 -62.5t-82.5 -49z" />
    <glyph glyph-name="uhungarumlaut" unicode="&#x171;" horiz-adv-x="1307" 
d="M193 999l-111 37v97l296 30h1l42 -27v-706q0 -82 8.5 -139.5t31 -93.5t61.5 -52t100 -16q44 0 83.5 10t72.5 25t60 32t45 32v770l-143 39v97l316 29h2l53 -27v-1023h120v-100q-35 -11 -85 -23.5t-113 -12.5q-62 0 -93.5 23.5t-31.5 83.5v52q-27 -27 -66.5 -55t-86.5 -51
t-100 -38t-107 -15q-93 0 -160 24.5t-110.5 77.5t-64 137t-20.5 203v580zM268 1408l317 405l145 -124q-17 -27 -45.5 -58.5t-64 -65.5t-75 -67.5t-76.5 -62.5t-70 -52.5t-55 -37.5zM753 1409l327 401l138 -121q-14 -24 -41.5 -55t-63 -65t-75.5 -68t-78.5 -64t-73 -54.5
t-57.5 -37.5z" />
    <glyph glyph-name="Uogonek" unicode="&#x172;" horiz-adv-x="1508" 
d="M556 -315q0 41 20 84t54 82.5t78.5 74.5t93.5 59q-7 -1 -13.5 -1h-12.5q-155 0 -267 39t-184 119.5t-106.5 205t-34.5 295.5v742l-144 26v111h558v-111l-170 -26v-765q0 -145 27 -244t76.5 -159.5t118.5 -87t153 -26.5q90 0 157 34t112 99t67.5 159t22.5 214v776l-165 26
v111h479v-111l-148 -26v-766q0 -128 -25.5 -228t-71.5 -175t-110.5 -124.5t-142.5 -76.5q-45 -28 -84.5 -60t-68 -65.5t-45 -66.5t-16.5 -63q0 -32 11.5 -55.5t31.5 -39t46.5 -23t57.5 -7.5q37 0 71.5 9t69.5 24v-109q-21 -16 -49 -29t-59.5 -22t-64.5 -14t-64 -5
q-49 0 -95.5 10t-83 33t-58.5 60.5t-22 92.5z" />
    <glyph glyph-name="uogonek" unicode="&#x173;" horiz-adv-x="1307" 
d="M193 999l-111 37v97l296 30h1l42 -27v-706q0 -82 8.5 -139.5t31 -93.5t61.5 -52t100 -16q44 0 83.5 10t72.5 25t60 32t45 32v770l-143 39v97l316 29h2l53 -27v-1023h120v-100q-19 -6 -41.5 -12.5t-49.5 -11.5q-50 -23 -89.5 -50.5t-67 -57.5t-42 -60.5t-14.5 -57.5
q0 -33 11.5 -57t31.5 -39.5t47 -23.5t58 -8q37 0 72 9t69 24v-110q-21 -16 -49 -29t-59 -22t-64 -13.5t-64 -4.5q-51 0 -98 11.5t-83 36.5t-57.5 63.5t-21.5 92.5q0 37 20.5 78t56 80t83 73t101.5 58q-36 8 -54.5 32.5t-18.5 69.5v52q-27 -27 -66.5 -55t-86.5 -51t-100 -38
t-107 -15q-93 0 -160 24.5t-110.5 77.5t-64 137t-20.5 203v580z" />
    <glyph glyph-name="Wcircumflex" unicode="&#x174;" horiz-adv-x="2046" 
d="M90 1384l-134 27v111h559v-111l-183 -27l279 -946l52 -271l61 271l229 771l-56 176l-141 26v111h578v-111l-192 -26l274 -947l61 -294l53 294l261 946l-202 27v111h498v-111l-133 -27l-413 -1394h-216l-302 996l-295 -996h-206zM660 1713l271 300h183l274 -298l-92 -61
l-273 202l-278 -202z" />
    <glyph glyph-name="wcircumflex" unicode="&#x175;" horiz-adv-x="1758" 
d="M529 1382l288 399h180l281 -398l-90 -58l-281 281l-296 -282zM96 1005l-110 26v106h501v-106l-158 -26l165 -589l57 -255l54 255l201 721h213l206 -720l55 -254l60 251l160 590l-155 27v106h433v-106l-114 -26l-313 -1021h-209l-216 725l-51 241l-39 -241l-208 -725h-204
z" />
    <glyph glyph-name="Ycircumflex" unicode="&#x176;" horiz-adv-x="1317" 
d="M333 109l219 24v459l-452 792l-128 27v111h548v-111l-155 -26l282 -543l57 -145l65 143l268 546l-162 25v111h473v-111l-133 -25l-420 -789v-465l224 -23v-109h-686v109zM320 1713l271 300h183l274 -298l-92 -61l-273 202l-278 -202z" />
    <glyph glyph-name="ycircumflex" unicode="&#x177;" horiz-adv-x="1180" 
d="M146 -306q6 -4 19.5 -7t30.5 -5.5t35 -4t34 -1.5q39 0 78.5 11t78.5 45.5t78.5 98.5t78.5 169h-113l-374 1005l-95 26v106h509v-106l-157 -26l193 -604l89 -290l80 291l181 604l-134 25v106h420v-106l-102 -25q-152 -470 -239.5 -728.5t-110.5 -311.5q-47 -118 -92 -207
t-98 -149t-119 -90t-154 -30q-15 0 -32.5 1t-34 3.5t-30 5t-20.5 5.5v189v0zM244 1382l288 399h180l281 -398l-90 -58l-281 281l-296 -282z" />
    <glyph glyph-name="Ydieresis" unicode="&#x178;" horiz-adv-x="1317" 
d="M333 109l219 24v459l-452 792l-128 27v111h548v-111l-155 -26l282 -543l57 -145l65 143l268 546l-162 25v111h473v-111l-133 -25l-420 -789v-465l224 -23v-109h-686v109zM921 1687q-29 0 -52 11t-39.5 29.5t-25.5 43.5t-9 52q0 32 9 61t27.5 51t46 35t63.5 13h1
q33 0 58 -12t41.5 -31t25 -44t8.5 -50q0 -33 -9.5 -62t-28 -50.5t-47.5 -34t-68 -12.5h-1zM420 1687q-28 0 -51 10.5t-39.5 29t-25.5 43.5t-9 53q0 32 9 61t27.5 51t46 35t64.5 13h1q32 0 57 -12t41.5 -31t25 -44t8.5 -50q0 -33 -9.5 -62t-28.5 -50.5t-48 -34t-68 -12.5h-1z
" />
    <glyph glyph-name="Zacute" unicode="&#x179;" horiz-adv-x="1346" 
d="M858 1278l112 136l-573 -22l-112 -265l-125 17l44 384h993l51 -96l-780 -1177l-128 -138l673 39l113 310l130 -26l-48 -440h-1084l-59 98zM566 1701l331 311h1l153 -127q-20 -25 -51 -51.5t-68.5 -52.5t-78.5 -49.5t-79 -43t-71.5 -34t-55.5 -21.5h-1z" />
    <glyph glyph-name="zacute" unicode="&#x17a;" horiz-adv-x="1138" 
d="M445 1408l330 406h1l159 -139q-14 -23 -43 -55t-66.5 -67t-80 -70t-83 -65t-76 -52.5t-58.5 -31.5h-2zM62 94l594 789l131 132l-465 -15l-39 -190h-137v327h863l42 -92l-585 -796l-131 -128l516 22l76 217l130 -15l-30 -345h-920z" />
    <glyph glyph-name="Zdotaccent" unicode="&#x17b;" horiz-adv-x="1346" 
d="M698 1693q-29 0 -53 10.5t-41 28.5t-26.5 42.5t-9.5 53.5q0 32 9.5 60.5t28 50.5t46 34.5t64.5 12.5h1q33 0 58.5 -11.5t43 -30.5t26.5 -43.5t9 -51.5q0 -33 -9.5 -61.5t-28.5 -49.5t-48.5 -33t-68.5 -12h-1v0zM858 1278l112 136l-573 -22l-112 -265l-125 17l44 384h993
l51 -96l-780 -1177l-128 -138l673 39l113 310l130 -26l-48 -440h-1084l-59 98z" />
    <glyph glyph-name="zdotaccent" unicode="&#x17c;" horiz-adv-x="1138" 
d="M62 94l594 789l131 132l-465 -15l-39 -190h-137v327h863l42 -92l-585 -796l-131 -128l516 22l76 217l130 -15l-30 -345h-920zM573 1352q-29 0 -53.5 10.5t-41.5 29t-26.5 43.5t-9.5 54q0 32 9.5 61t28.5 51.5t47 36t65 13.5h1q33 0 58.5 -11.5t43 -31t26.5 -44.5t9 -52
q0 -33 -9.5 -62.5t-29 -51t-49 -34t-68.5 -12.5h-1v0z" />
    <glyph glyph-name="Zcaron" unicode="&#x17d;" horiz-adv-x="1346" 
d="M366 1952l91 61l255 -189l264 189l85 -59l-257 -278h-183zM858 1278l112 136l-573 -22l-112 -265l-125 17l44 384h993l51 -96l-780 -1177l-128 -138l673 39l113 310l130 -26l-48 -440h-1084l-59 98z" />
    <glyph glyph-name="zcaron" unicode="&#x17e;" horiz-adv-x="1138" 
d="M210 1739l89 60l284 -282l289 283l83 -60l-283 -398h-180zM62 94l594 789l131 132l-465 -15l-39 -190h-137v327h863l42 -92l-585 -796l-131 -128l516 22l76 217l130 -15l-30 -345h-920z" />
    <glyph glyph-name="uni018F" unicode="&#x18f;" horiz-adv-x="1374" 
d="M106 579q0 65 2.5 120t10.5 92l951 -1v8q-5 152 -40.5 268.5t-92.5 195t-131.5 118.5t-156.5 40q-66 0 -116 -10.5t-86.5 -27.5t-63 -38.5t-45.5 -44.5l-41 -147l-148 3l9 304q43 2 90.5 14.5t109 27t141.5 26t187 11.5q141 0 256 -54.5t196.5 -154.5t126 -241.5
t44.5 -316.5q0 -180 -51 -326.5t-141 -250.5t-212.5 -160.5t-265.5 -56.5q-115 0 -212 39t-167.5 115t-111 188.5t-42.5 259.5zM345 558q0 -76 19 -155.5t60.5 -145t106.5 -107.5t158 -42q81 0 149.5 30t119.5 96.5t81 172.5t33 259h-720q-3 -28 -5 -53.5t-2 -54.5z" />
    <glyph glyph-name="florin" unicode="&#x192;" horiz-adv-x="1068" 
d="M407 987h-204l8 92l210 56l11 82q9 112 52.5 199.5t107 147t140.5 90.5t153 31q67 0 105.5 -6.5t50.5 -11.5l-22 -186q-15 8 -55.5 21t-111.5 13q-38 0 -71 -9t-59.5 -34.5t-44 -71.5t-23.5 -121l-17 -144h310l-12 -148h-311l-116 -1343h-215z" />
    <glyph glyph-name="uni01C4" unicode="&#x1c4;" horiz-adv-x="2911" 
d="M1926 1952l91 61l255 -189l264 189l85 -59l-257 -278h-183zM2423 1278l112 136l-573 -22l-112 -265l-125 17l44 384h993l51 -96l-780 -1177l-128 -138l673 39l113 310l130 -26l-48 -440h-1084l-59 98zM95 109l169 24v1252l-158 26v111h267q46 0 90.5 2.5t88.5 5t88.5 5
t92.5 2.5q197 0 340 -51t235.5 -146t136.5 -229.5t44 -301.5q0 -187 -56.5 -340.5t-159 -262.5t-245.5 -167.5t-317 -54.5q-38 1 -79.5 3.5t-84 5.5t-84.5 5t-80 2h-288v109zM498 123q57 -15 114 -17.5t122 -1.5q109 2 201 44.5t158.5 125t103.5 205.5t37 287
q0 320 -137 486.5t-417 166.5q-66 0 -110.5 -5.5t-71.5 -7.5v-1283z" />
    <glyph glyph-name="uni01C5" unicode="&#x1c5;" horiz-adv-x="2706" 
d="M1794 1739l89 60l284 -282l289 283l83 -60l-283 -398h-180zM1627 94l594 789l131 132l-465 -15l-39 -190h-137v327h863l42 -92l-585 -796l-131 -128l516 22l76 217l130 -15l-30 -345h-920zM95 109l169 24v1252l-158 26v111h267q46 0 90.5 2.5t88.5 5t88.5 5t92.5 2.5
q197 0 340 -51t235.5 -146t136.5 -229.5t44 -301.5q0 -187 -56.5 -340.5t-159 -262.5t-245.5 -167.5t-317 -54.5q-38 1 -79.5 3.5t-84 5.5t-84.5 5t-80 2h-288v109zM498 123q57 -15 114 -17.5t122 -1.5q109 2 201 44.5t158.5 125t103.5 205.5t37 287q0 320 -137 486.5
t-417 166.5q-66 0 -110.5 -5.5t-71.5 -7.5v-1283z" />
    <glyph glyph-name="uni01C6" unicode="&#x1c6;" horiz-adv-x="2413" 
d="M1498 1739l89 60l284 -282l289 283l83 -60l-283 -398h-180zM1335 94l594 789l131 132l-465 -15l-39 -190h-137v327h863l42 -92l-585 -796l-131 -128l516 22l76 217l130 -15l-30 -345h-920zM531 -23q-89 0 -169.5 34t-142 103.5t-98 176t-36.5 251.5q0 130 40 244t116 199
t185.5 134t248.5 49q49 0 94.5 -5.5t86.5 -13.5v373l-201 20v97l373 40h6l49 -36v-1527h118v-104q-42 -11 -99.5 -23t-120.5 -12q-27 0 -47 3.5t-33.5 14.5t-20 31.5t-6.5 53.5v53q-27 -29 -62 -57t-78 -50t-94 -35.5t-109 -13.5zM623 131q40 0 75.5 10t65.5 25.5t53 34
t39 36.5v752q-8 12 -26.5 23t-45 19.5t-58 13.5t-65.5 5q-68 0 -127.5 -25.5t-104 -82t-70.5 -147t-28 -220.5q-2 -117 20.5 -201t62 -138t93.5 -79.5t116 -25.5z" />
    <glyph glyph-name="uni01C7" unicode="&#x1c7;" horiz-adv-x="2085" 
d="M1551 -5q12 40 20 82.5t13 98t7 130t2 179.5v900l-188 26v111h602v-111l-181 -26v-820q0 -165 -2 -296.5t-22 -222.5q-20 -92 -66.5 -162.5t-109 -121.5t-134.5 -83t-143 -47l-57 92q36 9 74.5 32.5t74 58.5t64.5 80.5t46 99.5zM98 109l168 24v1253l-165 25v111h595v-111
l-193 -26v-1253l505 20l122 334l134 -23l-68 -463h-1098v109z" />
    <glyph glyph-name="uni01C8" unicode="&#x1c8;" horiz-adv-x="1974" 
d="M1540 957l-146 41l2 125l317 41h5l50 -39v-1107q0 -128 -29 -221.5t-78 -156.5t-112 -97t-132 -41q-9 -1 -26.5 -1t-36 1t-34.5 3t-21 5l-11 108q7 -1 19.5 0t27.5 4t31 7t31 10q43 16 71 54t44.5 93t23 124.5t6.5 149.5zM98 109l168 24v1253l-165 25v111h595v-111
l-193 -26v-1253l505 20l122 334l134 -23l-68 -463h-1098v109zM1632 1352q-29 0 -53.5 10.5t-41.5 29t-26.5 43.5t-9.5 54q0 32 9.5 61t28.5 51.5t47 36t65 13.5h1q33 0 58.5 -11.5t43 -31t26.5 -44.5t9 -52q0 -33 -9.5 -62.5t-29 -51t-49 -34t-68.5 -12.5h-1v0z" />
    <glyph glyph-name="uni01C9" unicode="&#x1c9;" horiz-adv-x="1363" 
d="M928 957l-146 41l2 125l317 41h5l50 -39v-1107q0 -128 -29 -221.5t-78 -156.5t-112 -97t-132 -41q-9 -1 -26.5 -1t-36 1t-34.5 3t-21 5l-11 108q7 -1 19.5 0t27.5 4t31 7t31 10q43 16 71 54t44.5 93t23 124.5t6.5 149.5zM73 109l162 17v1395l-164 20v95l341 43h2l49 -34
v-1519l170 -17v-109h-560v109zM1020 1352q-29 0 -53.5 10.5t-41.5 29t-26.5 43.5t-9.5 54q0 32 9.5 61t28.5 51.5t47 36t65 13.5h1q33 0 58.5 -11.5t43 -31t26.5 -44.5t9 -52q0 -33 -9.5 -62.5t-29 -51t-49 -34t-68.5 -12.5h-1v0z" />
    <glyph glyph-name="uni01CA" unicode="&#x1ca;" horiz-adv-x="2419" 
d="M1885 -5q12 40 20 82.5t13 98t7 130t2 179.5v900l-188 26v111h602v-111l-181 -26v-820q0 -165 -2 -296.5t-22 -222.5q-20 -92 -66.5 -162.5t-109 -121.5t-134.5 -83t-143 -47l-57 92q36 9 74.5 32.5t74 58.5t64.5 80.5t46 99.5zM98 109l165 23v1253l-165 26v111h395
l673 -983l106 -198v1045l-179 25v111h496v-111l-166 -26v-1385h-164l-689 1003l-156 272v-1142l191 -24v-109h-507v109z" />
    <glyph glyph-name="uni01CB" unicode="&#x1cb;" horiz-adv-x="2308" 
d="M1874 957l-146 41l2 125l317 41h5l50 -39v-1107q0 -128 -29 -221.5t-78 -156.5t-112 -97t-132 -41q-9 -1 -26.5 -1t-36 1t-34.5 3t-21 5l-11 108q7 -1 19.5 0t27.5 4t31 7t31 10q43 16 71 54t44.5 93t23 124.5t6.5 149.5zM1966 1352q-29 0 -53.5 10.5t-41.5 29
t-26.5 43.5t-9.5 54q0 32 9.5 61t28.5 51.5t47 36t65 13.5h1q33 0 58.5 -11.5t43 -31t26.5 -44.5t9 -52q0 -33 -9.5 -62.5t-29 -51t-49 -34t-68.5 -12.5h-1v0zM98 109l165 23v1253l-165 26v111h395l673 -983l106 -198v1045l-179 25v111h496v-111l-166 -26v-1385h-164
l-689 1003l-156 272v-1142l191 -24v-109h-507v109z" />
    <glyph glyph-name="uni01CC" unicode="&#x1cc;" horiz-adv-x="2058" 
d="M1624 957l-146 41l2 125l317 41h5l50 -39v-1107q0 -128 -29 -221.5t-78 -156.5t-112 -97t-132 -41q-9 -1 -26.5 -1t-36 1t-34.5 3t-21 5l-11 108q7 -1 19.5 0t27.5 4t31 7t31 10q43 16 71 54t44.5 93t23 124.5t6.5 149.5zM1716 1352q-29 0 -53.5 10.5t-41.5 29
t-26.5 43.5t-9.5 54q0 32 9.5 61t28.5 51.5t47 36t65 13.5h1q33 0 58.5 -11.5t43 -31t26.5 -44.5t9 -52q0 -33 -9.5 -62.5t-29 -51t-49 -34t-68.5 -12.5h-1v0zM103 109l131 17v838l-143 40v120l296 40h5l47 -39v-81l-1 -46q33 30 81 59.5t103.5 53t115 38t115.5 14.5
q98 0 161.5 -27t100.5 -84.5t51.5 -147t14.5 -213.5v-565l144 -17v-109h-502v109l128 17v566q0 81 -7.5 140.5t-29 98.5t-61 58t-103.5 19q-38 0 -77.5 -9t-77 -24t-71.5 -34t-61 -39v-776l138 -17v-109h-498v109z" />
    <glyph glyph-name="uni01F1" unicode="&#x1f1;" horiz-adv-x="2911" 
d="M2423 1278l112 136l-573 -22l-112 -265l-125 17l44 384h993l51 -96l-780 -1177l-128 -138l673 39l113 310l130 -26l-48 -440h-1084l-59 98zM95 109l169 24v1252l-158 26v111h267q46 0 90.5 2.5t88.5 5t88.5 5t92.5 2.5q197 0 340 -51t235.5 -146t136.5 -229.5t44 -301.5
q0 -187 -56.5 -340.5t-159 -262.5t-245.5 -167.5t-317 -54.5q-38 1 -79.5 3.5t-84 5.5t-84.5 5t-80 2h-288v109zM498 123q57 -15 114 -17.5t122 -1.5q109 2 201 44.5t158.5 125t103.5 205.5t37 287q0 320 -137 486.5t-417 166.5q-66 0 -110.5 -5.5t-71.5 -7.5v-1283z" />
    <glyph glyph-name="uni01F2" unicode="&#x1f2;" horiz-adv-x="2706" 
d="M1627 94l594 789l131 132l-465 -15l-39 -190h-137v327h863l42 -92l-585 -796l-131 -128l516 22l76 217l130 -15l-30 -345h-920zM95 109l169 24v1252l-158 26v111h267q46 0 90.5 2.5t88.5 5t88.5 5t92.5 2.5q197 0 340 -51t235.5 -146t136.5 -229.5t44 -301.5
q0 -187 -56.5 -340.5t-159 -262.5t-245.5 -167.5t-317 -54.5q-38 1 -79.5 3.5t-84 5.5t-84.5 5t-80 2h-288v109zM498 123q57 -15 114 -17.5t122 -1.5q109 2 201 44.5t158.5 125t103.5 205.5t37 287q0 320 -137 486.5t-417 166.5q-66 0 -110.5 -5.5t-71.5 -7.5v-1283z" />
    <glyph glyph-name="uni01F3" unicode="&#x1f3;" horiz-adv-x="2413" 
d="M1335 94l594 789l131 132l-465 -15l-39 -190h-137v327h863l42 -92l-585 -796l-131 -128l516 22l76 217l130 -15l-30 -345h-920zM531 -23q-89 0 -169.5 34t-142 103.5t-98 176t-36.5 251.5q0 130 40 244t116 199t185.5 134t248.5 49q49 0 94.5 -5.5t86.5 -13.5v373
l-201 20v97l373 40h6l49 -36v-1527h118v-104q-42 -11 -99.5 -23t-120.5 -12q-27 0 -47 3.5t-33.5 14.5t-20 31.5t-6.5 53.5v53q-27 -29 -62 -57t-78 -50t-94 -35.5t-109 -13.5zM623 131q40 0 75.5 10t65.5 25.5t53 34t39 36.5v752q-8 12 -26.5 23t-45 19.5t-58 13.5t-65.5 5
q-68 0 -127.5 -25.5t-104 -82t-70.5 -147t-28 -220.5q-2 -117 20.5 -201t62 -138t93.5 -79.5t116 -25.5z" />
    <glyph glyph-name="AEacute" unicode="&#x1fc;" horiz-adv-x="1887" 
d="M826 1701l331 311h1l153 -127q-20 -25 -51 -51.5t-68.5 -52.5t-78.5 -49.5t-79 -43t-71.5 -34t-55.5 -21.5h-1zM526 1388l-264 25v109h1427l31 -320h-127l-66 195l-480 12v-568l324 6l30 165h127v-468h-127l-30 171l-324 5v-597l556 23l126 252l132 -38l-75 -360h-1142
v107l170 23v304h-517l-122 -304l152 -24v-106h-503v106l148 26zM814 564v836h-125l-107 -260l-232 -576h464z" />
    <glyph glyph-name="aeacute" unicode="&#x1fd;" horiz-adv-x="1764" 
d="M778 1408l330 406h1l159 -139q-14 -23 -43 -55t-66.5 -67t-80 -70t-83 -65t-76 -52.5t-58.5 -31.5h-2zM86 301q0 70 25.5 126t71 98.5t108 72.5t136.5 50t156 29.5t167 11.5v61q0 67 -9.5 114t-33.5 76.5t-66.5 43t-108.5 13.5q-56 0 -108 -9.5t-98 -23.5t-86.5 -31
t-74.5 -33l-50 102q20 18 69.5 45t115 52.5t141 43.5t147.5 18q134 0 214 -34t119 -110q71 72 165.5 111.5t207.5 39.5q192 0 297 -104t113 -304q0 -64 -2 -112t-10 -84h-694q3 -114 31.5 -196t74 -134.5t106 -77.5t128.5 -25q43 0 87.5 8t85 21.5t74.5 30t57 34.5l42 -96
q-28 -29 -73 -56.5t-99.5 -48.5t-116.5 -34t-125 -13q-150 0 -255 57.5t-168 160.5q-24 -34 -62.5 -72.5t-91 -70.5t-118.5 -53.5t-144 -21.5q-68 0 -130.5 19t-110 58.5t-76 101t-28.5 145.5zM1464 680q2 20 2.5 43.5t0.5 42.5q0 58 -12 109t-37.5 89.5t-66.5 60.5t-101 22
q-51 0 -95 -17.5t-77 -60t-54 -113t-26 -176.5h466zM334 332q0 -56 14.5 -95t40 -63t60 -35t75.5 -11q46 0 89.5 15t80.5 38.5t65.5 51.5t43.5 54q-46 123 -46 284v3l-7 5v2q-112 0 -191 -20.5t-129 -55t-73 -79.5t-23 -94z" />
    <glyph glyph-name="uni0218" unicode="&#x218;" horiz-adv-x="1215" 
d="M497 -218q0 33 13.5 54t33 33t40.5 16.5t35 4.5h10q65 0 102.5 -42t37.5 -120q0 -40 -10 -77t-26 -68.5t-35.5 -57.5t-37.5 -44.5t-33 -29t-22 -11.5h-3l-78 39l-1 18q14 6 25 19.5t18.5 31t11.5 37.5t4 40q0 29 -14.5 44t-30.5 26q-17 11 -28.5 30t-11.5 57zM134 440
h139l40 -256q16 -17 43.5 -33t63.5 -28t78.5 -19t89.5 -7q152 0 226 67.5t74 183.5q0 60 -25 106t-71 83.5t-110.5 70.5t-142.5 68q-62 28 -132.5 67t-131 94.5t-100.5 131t-40 176.5q0 85 35 157.5t99.5 125t156.5 82t207 29.5q73 0 136.5 -10t115 -23t90 -25t61.5 -15
l-13 -343h-134l-46 243q-9 10 -29 20t-48.5 18t-63 13t-71.5 5q-138 0 -204 -55.5t-66 -162.5q0 -60 24.5 -104.5t70.5 -82t111 -72t145 -73.5q72 -36 146.5 -76.5t135.5 -94t99.5 -122.5t38.5 -161q0 -79 -33.5 -157.5t-101 -141.5t-170 -102.5t-241.5 -39.5
q-89 0 -164.5 13.5t-135 30.5t-102.5 32t-67 17z" />
    <glyph glyph-name="uni0219" unicode="&#x219;" horiz-adv-x="1049" 
d="M419 -218q0 33 13.5 54t33 33t40.5 16.5t35 4.5h10q65 0 102.5 -42t37.5 -120q0 -40 -10 -77t-26 -68.5t-35.5 -57.5t-37.5 -44.5t-33 -29t-22 -11.5h-3l-78 39l-1 18q14 6 25 19.5t18.5 31t11.5 37.5t4 40q0 29 -14.5 44t-30.5 26q-17 11 -28.5 30t-11.5 57zM119 325
h141l40 -152q9 -15 31 -30t52 -27t66.5 -19t74.5 -7q60 0 100.5 12t64.5 33.5t34 50.5t10 63q0 40 -19 71.5t-57 60t-94.5 56t-132.5 57.5q-77 30 -134.5 65t-95.5 79t-56.5 98t-18.5 123t31.5 124.5t87.5 95.5t132.5 61.5t166.5 21.5q65 0 119 -8t96 -18.5t73 -21t51 -15.5
v-253h-128l-43 140q-6 12 -22 23.5t-39.5 20.5t-53 14.5t-61.5 5.5q-49 1 -86 -9.5t-62 -29t-37.5 -45t-12.5 -57.5q0 -50 22.5 -83.5t59.5 -59t84.5 -45.5t98.5 -42q67 -29 130.5 -61t112 -74t78 -97.5t29.5 -133.5q0 -75 -30 -137t-86.5 -106.5t-138 -68.5t-185.5 -24
q-57 0 -116 9t-112 22.5t-96 28t-69 26.5v262z" />
    <glyph glyph-name="uni021A" unicode="&#x21a;" horiz-adv-x="1411" 
d="M608 -218q0 33 13.5 54t33 33t40.5 16.5t35 4.5h10q65 0 102.5 -42t37.5 -120q0 -40 -10 -77t-26 -68.5t-35.5 -57.5t-37.5 -44.5t-33 -29t-22 -11.5h-3l-78 39l-1 18q14 6 25 19.5t18.5 31t11.5 37.5t4 40q0 29 -14.5 44t-30.5 26q-17 11 -28.5 30t-11.5 57zM324 109
l261 24v1270l-333 -10l-75 -418h-145l35 547h1266l32 -547h-143l-76 418l-320 10v-1270l283 -24v-109h-785v109z" />
    <glyph glyph-name="uni021B" unicode="&#x21b;" horiz-adv-x="834" 
d="M360 -218q0 33 13.5 54t33 33t40.5 16.5t35 4.5h10q65 0 102.5 -42t37.5 -120q0 -40 -10 -77t-26 -68.5t-35.5 -57.5t-37.5 -44.5t-33 -29t-22 -11.5h-3l-78 39l-1 18q14 6 25 19.5t18.5 31t11.5 37.5t4 40q0 29 -14.5 44t-30.5 26q-17 11 -28.5 30t-11.5 57zM210 994
h-143v95q13 3 29.5 8.5l33 11t30 11t19.5 9.5q17 12 30 30.5t24 47.5q8 18 19 48.5t21.5 63t19.5 62.5t13 47h130l2 -291h336v-143h-335v-605q0 -86 3 -135t14.5 -73t34.5 -30t62 -6h1q28 0 60.5 4t62.5 10t55.5 13t40.5 13h1l34 -97q-23 -19 -63 -38.5t-88 -35t-99 -26
t-96 -10.5h-2q-59 0 -105.5 12t-78.5 40t-49 73.5t-17 111.5v779z" />
    <glyph glyph-name="dotlessj" unicode="&#x237;" horiz-adv-x="656" 
d="M236 957l-146 41l2 125l317 41h5l50 -39v-1107q0 -128 -29 -221.5t-78 -156.5t-112 -97t-132 -41q-9 -1 -26.5 -1t-36 1t-34.5 3t-21 5l-11 108q7 -1 19.5 0t27.5 4t31 7t31 10q43 16 71 54t44.5 93t23 124.5t6.5 149.5z" />
    <glyph glyph-name="uni0259" unicode="&#x259;" horiz-adv-x="1090" 
d="M77 385q-2 63 2.5 111t9.5 84h680v3q-3 115 -30.5 196.5t-72.5 133.5t-104.5 76.5t-126.5 24.5q-42 0 -85 -8t-82.5 -21.5t-73 -30.5t-55.5 -34l-42 96q27 29 70.5 56.5t97.5 48.5t115 34t122 13q127 0 222 -44t158 -123t94 -189t31 -241q0 -134 -39 -243.5t-109 -187.5
t-167 -120.5t-212 -42.5q-189 0 -292 104t-111 304zM314 383q0 -58 10 -110.5t34.5 -92.5t65 -63.5t101.5 -23.5q49 0 91.5 17.5t75 60.5t52 114t24.5 178h-451q-2 -17 -2.5 -39.5t-0.5 -40.5z" />
    <glyph glyph-name="circumflex" unicode="&#x2c6;" horiz-adv-x="1053" 
d="M148 1382l288 399h180l281 -398l-90 -58l-281 281l-296 -282z" />
    <glyph glyph-name="caron" unicode="&#x2c7;" horiz-adv-x="1022" 
d="M139 1739l89 60l284 -282l289 283l83 -60l-283 -398h-180z" />
    <glyph glyph-name="uni02C9" unicode="&#x2c9;" horiz-adv-x="1345" 
d="M230 2002h885v-161h-885v161z" />
    <glyph glyph-name="breve" unicode="&#x2d8;" horiz-adv-x="1022" 
d="M511 1351q-80 0 -144 28t-108 75t-67.5 109t-23.5 130q0 15 0.5 31.5t3.5 28.5h118q0 -6 0.5 -15.5t2.5 -21.5q4 -27 16 -59.5t37.5 -60.5t66 -46.5t100.5 -18.5t99.5 18.5t63.5 46t35.5 60t15.5 60.5q3 24 3 37h114q1 -12 2.5 -28t1.5 -31q0 -68 -24 -130.5t-68 -109.5
t-106.5 -75t-138.5 -28z" />
    <glyph glyph-name="dotaccent" unicode="&#x2d9;" horiz-adv-x="573" 
d="M277 1352q-29 0 -53.5 10.5t-41.5 29t-26.5 43.5t-9.5 54q0 32 9.5 61t28.5 51.5t47 36t65 13.5h1q33 0 58.5 -11.5t43 -31t26.5 -44.5t9 -52q0 -33 -9.5 -62.5t-29 -51t-49 -34t-68.5 -12.5h-1v0z" />
    <glyph glyph-name="ring" unicode="&#x2da;" horiz-adv-x="1020" 
d="M506 1309q-86 0 -148.5 22.5t-103 61.5t-60 92t-18.5 113q1 66 31 117t78.5 86t110 53t125.5 18h1q79 0 139 -21.5t100.5 -59t60.5 -88.5t20 -111q-1 -68 -28 -120.5t-73 -88.5t-106.5 -55t-127.5 -19h-1zM513 1415q93 0 132.5 43t39.5 127q0 36 -9.5 68.5t-30 56.5
t-53 38.5t-78.5 14.5h-1q-92 0 -135 -44.5t-43 -120.5q0 -36 10.5 -69t32 -58.5t55 -40.5t79.5 -15h1z" />
    <glyph glyph-name="ogonek" unicode="&#x2db;" horiz-adv-x="709" 
d="M386 8l95 -8q-48 -18 -94.5 -48t-83.5 -65.5t-60 -72t-23 -67.5q0 -66 35 -92.5t104 -26.5q29 0 57 7.5t52.5 18t44.5 21.5t34 17l15 -102q-20 -15 -48 -32.5t-65.5 -33t-84 -25.5t-102.5 -10q-47 0 -90.5 10.5t-77 33.5t-53.5 60t-20 90q0 43 24 89t64.5 88.5t94 79
t111.5 60.5z" />
    <glyph glyph-name="tilde" unicode="&#x2dc;" horiz-adv-x="1022" 
d="M84 1448q10 33 34.5 71t61.5 69.5t85.5 52.5t105.5 21q41 0 73.5 -12.5t59 -30.5t49 -40t44.5 -40t45.5 -30.5t51.5 -12.5q34 0 59 13.5t42.5 32t28.5 38.5t18 33l98 -62q-15 -40 -38.5 -78.5t-56.5 -69t-76 -49t-97 -18.5q-41 0 -73.5 12.5t-59.5 31t-50.5 40t-47 40
t-49 31t-56.5 12.5q-34 0 -59.5 -13.5t-44 -32.5t-31 -38.5t-20.5 -32.5z" />
    <glyph glyph-name="hungarumlaut" unicode="&#x2dd;" horiz-adv-x="1022" 
d="M161 1408l317 405l145 -124q-17 -27 -45.5 -58.5t-64 -65.5t-75 -67.5t-76.5 -62.5t-70 -52.5t-55 -37.5zM646 1409l327 401l138 -121q-14 -24 -41.5 -55t-63 -65t-75.5 -68t-78.5 -64t-73 -54.5t-57.5 -37.5z" />
    <glyph glyph-name="Deltagreek" unicode="&#x394;" horiz-adv-x="1769" 
d="M836 1516h37l751 -1486l-19 -29h-1443l-17 25zM1306 164l-491 1000l-449 -1000h940z" />
    <glyph glyph-name="Omegagreek" unicode="&#x3a9;" horiz-adv-x="1933" 
d="M122 404h133l67 -234l368 -14q-43 24 -91 67t-94.5 98.5t-88 122.5t-73 140.5t-49.5 151t-17 154.5q2 117 30 211t76 166t113.5 124t142 85t161.5 48.5t173 15.5q153 0 277.5 -41t211.5 -122t133.5 -200.5t43.5 -275.5q-2 -69 -18 -141.5t-43.5 -144.5t-64.5 -139.5
t-79.5 -127.5t-89 -108.5t-92.5 -81.5l354 15l72 231h135l-56 -404h-670v146q73 46 134.5 121t105.5 170t68.5 206t24.5 228q0 127 -31.5 222.5t-89.5 160t-141.5 97t-186.5 32.5q-112 0 -201 -32t-150.5 -98.5t-94.5 -168.5t-33 -243q0 -117 34 -228t86.5 -203.5
t116.5 -161t123 -102.5v-146h-687z" />
    <glyph glyph-name="uni03BC" unicode="&#x3bc;" horiz-adv-x="1398" 
d="M246 1001l-118 50v81l302 28l43 -27v-777q0 -31 13.5 -70t42 -73.5t72.5 -58.5t105 -24q49 0 87.5 12.5t67 32t47 42.5t28.5 44v740l-130 49v83l325 27l32 -26v-1022h119v-103q-15 -7 -39.5 -14t-52.5 -12.5t-58 -9t-56 -3.5q-54 0 -81 24.5t-27 70.5v76
q-16 -31 -42.5 -60.5t-61 -52t-77 -36t-90.5 -13.5q-76 0 -137.5 24.5t-103.5 63.5v-440h-210v1374z" />
    <glyph glyph-name="pi" unicode="&#x3c0;" horiz-adv-x="1606" 
d="M176 108q13 3 50 16t78 41q44 29 71 63.5t43.5 75t26.5 87t19 100.5l71 434h-117q-39 0 -66.5 -12t-46 -31.5t-30.5 -45t-20 -51.5l-107 13q-6 75 16.5 137t64.5 106.5t100 69t124 24.5h715q36 0 63.5 1.5t47.5 9t33 22.5t19 42h117q-3 -48 -7 -87.5t-13.5 -71
t-27.5 -55.5t-49 -40t-78 -24t-114 -8h-38l-21 -626q-3 -81 19.5 -115t54.5 -34q22 0 42.5 5.5t40 18.5t37.5 34.5t36 53.5l87 -70q-18 -39 -44.5 -76t-63 -66t-84 -47t-106.5 -18q-113 0 -164 70.5t-37 207.5l60 662l-301 1l-44 -484q-9 -86 -21.5 -146t-31.5 -104
t-44.5 -76.5t-60.5 -63.5q-32 -28 -72.5 -42.5t-93.5 -25.5l-133 125v0z" />
    <glyph glyph-name="uni0400" unicode="&#x400;" horiz-adv-x="1339" 
d="M759 1633q-23 7 -57 22t-73 35t-80 44t-78 49.5t-67.5 51.5t-47.5 50l152 127h1l331 -311l-80 -68h-1v0zM96 109l168 24v1253l-165 25v111h1042l28 -317h-129l-62 190l-479 13v-565l325 6l30 166h129v-474h-129l-29 176l-326 5v-598l550 22l113 251l128 -38l-59 -359
h-1135v109z" />
    <glyph glyph-name="afii10023" unicode="&#x401;" horiz-adv-x="1339" 
d="M934 1687q-29 0 -52 11t-39.5 29.5t-25.5 43.5t-9 52q0 32 9 61t27.5 51t46 35t63.5 13h1q33 0 58 -12t41.5 -31t25 -44t8.5 -50q0 -33 -9.5 -62t-28 -50.5t-47.5 -34t-68 -12.5h-1zM433 1687q-28 0 -51 10.5t-39.5 29t-25.5 43.5t-9 53q0 32 9 61t27.5 51t46 35t64.5 13
h1q32 0 57 -12t41.5 -31t25 -44t8.5 -50q0 -33 -9.5 -62t-28.5 -50.5t-48 -34t-68 -12.5h-1zM96 109l168 24v1253l-165 25v111h1042l28 -317h-129l-62 190l-479 13v-565l325 6l30 166h129v-474h-129l-29 176l-326 5v-598l550 22l113 251l128 -38l-59 -359h-1135v109z" />
    <glyph glyph-name="afii10051" unicode="&#x402;" horiz-adv-x="1728" 
d="M352 110l253 25v1270l-333 -15l-61 -351h-147l27 483h1323l2 -483h-144l-48 351l-381 15v-621l1 1q24 16 62.5 32.5t83.5 29t93.5 20.5t94.5 8q138 0 227 -38t140.5 -106.5t72 -163t20.5 -207.5q0 -166 -30.5 -307t-90.5 -243.5t-150 -160.5t-209 -58q-17 0 -36 1.5
t-37 4t-33.5 6t-24.5 7.5l-5 123q15 -2 41.5 -4t61.5 -2q76 0 129 38t86 113.5t48 188.5t15 262q0 103 -14.5 179t-48 126t-87.5 75t-132 25q-44 0 -81 -5t-70.5 -14t-64.5 -21.5t-61 -26.5h-1v-532l202 -25v-110h-693v110z" />
    <glyph glyph-name="afii10052" unicode="&#x403;" horiz-adv-x="1174" 
d="M440 1701l331 311h1l153 -127q-20 -25 -51 -51.5t-68.5 -52.5t-78.5 -49.5t-79 -43t-71.5 -34t-55.5 -21.5h-1zM50 108l225 27v1249l-218 30v108h1070l15 -542h-149l-62 410l-418 14v-1270l341 -26v-108h-804v108z" />
    <glyph glyph-name="afii10053" unicode="&#x404;" horiz-adv-x="1341" 
d="M66 762q0 172 57 314.5t157.5 245t237 159.5t295.5 57q69 0 134.5 -8t122.5 -19t103.5 -21.5t77.5 -16.5l-18 -358h-150l-56 241q-14 13 -34.5 24.5t-50.5 19.5t-71.5 13t-96.5 5q-89 0 -165.5 -36.5t-133.5 -107t-92 -175.5t-42 -241q31 0 84.5 1.5t118 3.5t133 4.5
t129 4.5t106.5 3t66 2v-189q-19 1 -65.5 2.5t-107 4t-129.5 4.5t-133 4t-118 3t-84 2q7 -122 37.5 -232.5t85 -195t134 -134.5t186.5 -50q55 0 95.5 5.5t70 15t50.5 23t37 29.5l89 205l136 -14l-44 -304q-41 -3 -81 -15.5t-89.5 -26.5t-115 -25.5t-158.5 -11.5
q-170 0 -301.5 56.5t-222 160t-137.5 248t-47 320.5z" />
    <glyph glyph-name="afii10054" unicode="&#x405;" horiz-adv-x="1215" 
d="M134 440h139l40 -256q16 -17 43.5 -33t63.5 -28t78.5 -19t89.5 -7q152 0 226 67.5t74 183.5q0 60 -25 106t-71 83.5t-110.5 70.5t-142.5 68q-62 28 -132.5 67t-131 94.5t-100.5 131t-40 176.5q0 85 35 157.5t99.5 125t156.5 82t207 29.5q73 0 136.5 -10t115 -23t90 -25
t61.5 -15l-13 -343h-134l-46 243q-9 10 -29 20t-48.5 18t-63 13t-71.5 5q-138 0 -204 -55.5t-66 -162.5q0 -60 24.5 -104.5t70.5 -82t111 -72t145 -73.5q72 -36 146.5 -76.5t135.5 -94t99.5 -122.5t38.5 -161q0 -79 -33.5 -157.5t-101 -141.5t-170 -102.5t-241.5 -39.5
q-89 0 -164.5 13.5t-135 30.5t-102.5 32t-67 17z" />
    <glyph glyph-name="afii10055" unicode="&#x406;" horiz-adv-x="827" 
d="M112 109l183 24v1252l-183 26v111h602v-111l-183 -25v-1253l186 -27v-106h-605v109z" />
    <glyph glyph-name="uni0407" unicode="&#x407;" horiz-adv-x="827" 
d="M112 109l183 24v1252l-183 26v111h602v-111l-183 -25v-1253l186 -27v-106h-605v109zM652 1687q-29 0 -52 11t-39.5 29.5t-25.5 43.5t-9 52q0 32 9 61t27.5 51t46 35t63.5 13h1q33 0 58 -12t41.5 -31t25 -44t8.5 -50q0 -33 -9.5 -62t-28 -50.5t-47.5 -34t-68 -12.5h-1z
M151 1687q-28 0 -51 10.5t-39.5 29t-25.5 43.5t-9 53q0 32 9 61t27.5 51t46 35t64.5 13h1q32 0 57 -12t41.5 -31t25 -44t8.5 -50q0 -33 -9.5 -62t-28.5 -50.5t-48 -34t-68 -12.5h-1z" />
    <glyph glyph-name="afii10057" unicode="&#x408;" horiz-adv-x="781" 
d="M247 -5q12 40 20 82.5t13 98t7 130t2 179.5v900l-188 26v111h602v-111l-181 -26v-820q0 -165 -2 -296.5t-22 -222.5q-20 -92 -66.5 -162.5t-109 -121.5t-134.5 -83t-143 -47l-57 92q36 9 74.5 32.5t74 58.5t64.5 80.5t46 99.5z" />
    <glyph glyph-name="afii10058" unicode="&#x409;" horiz-adv-x="2079" 
d="M59 182q20 -2 56 -5t104 -3q42 0 72.5 21t56.5 69q20 36 39 80t34.5 101t28.5 130t22 167t14 212t5 265v170l-199 22v111h959v-3l1 3h189v-111l-190 -26v-533q4 1 22 2t43.5 2t55.5 2.5t57 2t48.5 1t30.5 0.5q126 0 222.5 -28t162.5 -81.5t100 -130.5t34 -175
q0 -113 -39.5 -199.5t-111 -145t-171 -88.5t-219.5 -30q-12 0 -36.5 1t-55.5 3t-66 4t-69 4t-64.5 3t-51.5 1h-335v109l213 25l1 1252h-393v-181q0 -399 -43.5 -666t-117.5 -397q-47 -81 -108 -117.5t-144 -36.5q-42 0 -81.5 3.5t-59.5 8.5zM1252 119q17 -4 34 -7.5t39 -6
t50.5 -4t67.5 -1.5q166 0 251 86t85 244q0 78 -23 134.5t-66.5 93.5t-105.5 55t-140 18q-12 0 -41.5 -0.5t-61.5 -1.5t-58 -2t-32 -2v-607z" />
    <glyph glyph-name="afii10059" unicode="&#x40a;" horiz-adv-x="2204" 
d="M97 109l169 25v1251l-161 26v111h567v-111l-173 -25v-540h639l1 544l-166 30v102h570v-102l-171 -30v-528h255q124 0 220 -28t162 -81.5t100.5 -130.5t34.5 -175q0 -122 -38.5 -210t-108.5 -145.5t-167.5 -85t-215.5 -27.5q-19 0 -49.5 1.5t-67 4t-76 5t-77 5t-69.5 4
t-53 1.5h-249v110l165 24v581h-639v-581l178 -24v-110h-580v109zM1372 125q35 -5 82.5 -14t108.5 -9q165 0 250.5 85.5t85.5 243.5q0 78 -23.5 134.5t-67 93t-106 54.5t-140.5 18h-190v-606z" />
    <glyph glyph-name="afii10060" unicode="&#x40b;" horiz-adv-x="1784" 
d="M356 109l260 24v1271l-337 -14l-62 -351h-146l26 483h1353l3 -483h-142l-51 351l-404 14v-613l1 1q34 18 81 33t97 26t98 17.5t84 6.5q114 0 194 -23t130.5 -76t73.5 -140t23 -215v-288l153 -24v-109h-526v109l141 25v215q0 99 -10 170.5t-36.5 118t-73 69t-119.5 22.5
q-59 0 -103 -4.5t-79.5 -12.5t-66 -18.5t-61.5 -22.5h-1v-537l201 -25v-109h-701v109z" />
    <glyph glyph-name="afii10061" unicode="&#x40c;" horiz-adv-x="1445" 
d="M627 1701l331 311h1l153 -127q-20 -25 -51 -51.5t-68.5 -52.5t-78.5 -49.5t-79 -43t-71.5 -34t-55.5 -21.5h-1zM102 109l163 25v1251l-163 26v111h553v-111l-161 -26v-579h168l396 578l-162 27v111h508v-111l-161 -25l-431 -592q38 -16 76.5 -51.5t77.5 -83t77 -103
t74 -112t69.5 -109.5t63.5 -96t56 -71t46 -35l80 -24v-109h-267q-28 0 -60 30t-66 79t-70.5 112t-74 128t-74.5 128t-73.5 112t-71 79t-66.5 30h-115v-565l171 -27v-106h-563v109z" />
    <glyph glyph-name="uni040D" unicode="&#x40d;" horiz-adv-x="1727" 
d="M972 1633q-23 7 -57 22t-73 35t-80 44t-78 49.5t-67.5 51.5t-47.5 50l152 127h1l331 -311l-80 -68h-1v0zM98 109l168 25v1251l-161 26v111h578v-110l-187 -26v-998l137 210l598 735v53l-170 25v111h562v-111l-161 -26v-1252l170 -24v-109h-575v109l174 24v1010l-125 -199
l-610 -740v-70l180 -25v-109h-578v109z" />
    <glyph glyph-name="afii10062" unicode="&#x40e;" horiz-adv-x="1286" 
d="M679 1661q-187 0 -290 75t-103 233q0 8 0.5 22t1.5 22h170q11 0 17.5 -8t10.5 -20t5 -27t1 -29q0 -37 9.5 -67.5t31.5 -52t58 -33.5t89 -12t89 12t58 33.5t31.5 52t9.5 67.5q0 14 1 29t5 27t10.5 20t17.5 8h170q1 -8 1.5 -22t0.5 -22q0 -159 -102.5 -233.5t-292.5 -74.5z
M247 172q1 0 23 -0.5t49 -1t49.5 -0.5h24.5q48 0 80.5 6.5t56 23t40.5 46t34 76.5l-500 1064l-117 25v111h563v-111l-191 -26l311 -707l55 -175l61 177l254 706l-164 25v111h445v-111l-112 -26l-427 -1061q-14 -34 -29.5 -72.5t-35 -77t-44.5 -74t-58.5 -63t-76.5 -44
t-98 -16.5q-27 0 -54.5 3t-53 8t-47.5 11.5t-38 14.5v158z" />
    <glyph glyph-name="afii10145" unicode="&#x40f;" horiz-adv-x="1634" 
d="M89 109l177 24v1252l-168 26v111h593v-111l-194 -26v-1259h640v1260l-172 25v111h566v-111l-163 -26v-1251l177 -25v-109h-595q-1 -2 -5 -28t-9 -65t-10 -85t-9.5 -87.5t-7.5 -73t-3 -40.5h-156q0 9 -3 40.5t-7.5 73t-10 87.5t-10.5 85t-9 65t-5 28h-616v109z" />
    <glyph glyph-name="afii10017" unicode="&#x410;" horiz-adv-x="1417" 
d="M-34 109l127 24l493 1401h238l497 -1401l127 -24v-109h-549v109l163 24l-95 292h-588l-91 -292l171 -24v-109h-492zM926 552l-214 657l-44 168l-44 -170l-205 -655h507z" />
    <glyph glyph-name="afii10018" unicode="&#x411;" horiz-adv-x="1344" 
d="M59 109l207 23v1253l-205 26v111h1112l21 -384h-149l-68 254l-478 12v-493q17 1 45.5 3t63 3t73 2t74.5 1q131 0 229 -30t163 -87t97.5 -139.5t32.5 -187.5q0 -121 -40 -213t-112 -154t-172 -93.5t-219 -31.5q-12 0 -36.5 1t-55.5 3t-66.5 4t-69.5 4t-64.5 3t-51.5 1
h-331v109zM499 121q16 -4 33 -7.5t39 -6t50.5 -4t67.5 -1.5q169 0 255 91.5t86 265.5q0 85 -23.5 147.5t-67 103t-107 60t-142.5 19.5q-59 0 -110 -2t-81 -4v-662z" />
    <glyph glyph-name="afii10019" unicode="&#x412;" horiz-adv-x="1401" 
d="M96 109l168 24v1253l-165 25v111h272q47 0 87.5 2.5t78.5 5t74.5 5t74.5 2.5q145 0 246.5 -23t165.5 -67.5t93 -108.5t29 -146q0 -71 -20.5 -133t-59.5 -111.5t-96 -83.5t-130 -48q95 3 171.5 -22t130.5 -72.5t83 -115.5t29 -152q0 -91 -30 -175.5t-102 -149t-193 -103
t-302 -38.5q-41 0 -76 2t-72 4t-80 4t-100 2h-277v109zM498 861q19 -2 46 -2.5t56 -1t56 -0.5h47q145 0 214 74.5t69 218.5q0 69 -16 120t-52.5 84.5t-96 50.5t-147.5 17q-64 0 -109 -5t-67 -7v-549zM497 123q13 -6 36.5 -10t51 -5.5t56.5 -2t54 -0.5q103 0 175.5 22
t117.5 62.5t65.5 99t20.5 132.5q0 83 -19.5 141.5t-61 96t-107 55t-156.5 17.5h-58.5h-65t-61.5 -0.5t-48 -1.5v-606z" />
    <glyph glyph-name="afii10020" unicode="&#x413;" horiz-adv-x="1174" 
d="M50 108l225 27v1249l-218 30v108h1070l15 -542h-149l-62 410l-418 14v-1270l341 -26v-108h-804v108z" />
    <glyph glyph-name="afii10021" unicode="&#x414;" horiz-adv-x="1504" 
d="M69 133h145q17 22 43 66t54.5 111.5t57 159.5t51 210.5t36.5 265t14 323.5v117l-209 25v111h1159v-111l-192 -25v-1253h185q0 -5 -1.5 -29.5t-3.5 -61t-4.5 -81t-5.5 -90.5t-5.5 -90t-5 -78.5t-4 -56t-2.5 -23.5h-143q-1 13 -4.5 44t-9.5 70.5t-12.5 83t-13 81.5
t-12 64.5t-7.5 33.5h-902q-2 -4 -9 -29.5t-16.5 -63t-20.5 -81.5t-21 -85t-17.5 -73.5t-10.5 -46.5h-144q0 6 1.5 42.5t4 89t5.5 114t6 116.5t5 96t3 54l6 -6v6zM997 133l2 1259h-391v-135q1 -233 -21 -422t-54 -331.5t-68 -236t-61 -134.5h593z" />
    <glyph glyph-name="afii10022" unicode="&#x415;" horiz-adv-x="1339" 
d="M96 109l168 24v1253l-165 25v111h1042l28 -317h-129l-62 190l-479 13v-565l325 6l30 166h129v-474h-129l-29 176l-326 5v-598l550 22l113 251l128 -38l-59 -359h-1135v109z" />
    <glyph glyph-name="afii10024" unicode="&#x416;" horiz-adv-x="2131" 
d="M14 109l81 24q20 7 45.5 35t55.5 70.5t63 95t69 108.5t74 111.5t77 103t78 83.5t77 53l-429 593l-160 25v111h503v-111l-153 -26l388 -579h170v579l-166 26v111h558v-111l-167 -25v-580h170l387 578l-152 27v111h505v-111l-161 -25l-430 -593q38 -17 77 -53t78 -83.5
t77 -103t74 -111.5t69.5 -108.5t63.5 -95t55.5 -70.5t45.5 -35l81 -24v-109h-267q-28 0 -60.5 30t-67 79t-71 112t-74 128t-75 128t-74 112t-71 79t-66.5 30h-114v-565l172 -27v-106h-566v109l169 25v564h-114q-32 0 -66.5 -30t-71 -79t-74 -112t-74.5 -128t-74 -128
t-71.5 -112t-66.5 -79t-60 -30h-267v109z" />
    <glyph glyph-name="afii10025" unicode="&#x417;" horiz-adv-x="1243" 
d="M135 421h103l67 -257q40 -23 104.5 -38t163.5 -15q69 0 124 20t93.5 60t59 100t20.5 140q0 55 -12 107.5t-47 94t-97.5 67t-162.5 25.5h-145v124h120q57 0 115 18t104.5 56.5t75.5 98t29 142.5q0 69 -21.5 117.5t-58.5 79.5t-87.5 45t-108.5 14q-94 0 -148.5 -24
t-73.5 -61l-44 -176h-139l-21 313q32 2 79 12.5t102.5 22.5t115 21.5t117.5 9.5q126 0 226 -20.5t169.5 -63.5t107 -108t37.5 -153t-32 -155t-83 -114t-114 -76t-126 -42q104 -2 179.5 -32.5t124.5 -80t72.5 -113t23.5 -132.5q0 -102 -34 -186.5t-108 -145.5t-191.5 -94.5
t-285.5 -33.5q-77 0 -144.5 9t-123 21.5t-98 26.5t-70.5 24z" />
    <glyph glyph-name="afii10026" unicode="&#x418;" horiz-adv-x="1727" 
d="M98 109l168 25v1251l-161 26v111h578v-110l-187 -26v-998l137 210l598 735v53l-170 25v111h562v-111l-161 -26v-1252l170 -24v-109h-575v109l174 24v1010l-125 -199l-610 -740v-70l180 -25v-109h-578v109z" />
    <glyph glyph-name="afii10027" unicode="&#x419;" horiz-adv-x="1727" 
d="M871 1661q-187 0 -290 75t-103 233q0 8 0.5 22t1.5 22h170q11 0 17.5 -8t10.5 -20t5 -27t1 -29q0 -37 9.5 -67.5t31.5 -52t58 -33.5t89 -12t89 12t58 33.5t31.5 52t9.5 67.5q0 14 1 29t5 27t10.5 20t17.5 8h170q1 -8 1.5 -22t0.5 -22q0 -159 -102.5 -233.5t-292.5 -74.5z
M98 109l168 25v1251l-161 26v111h578v-110l-187 -26v-998l137 210l598 735v53l-170 25v111h562v-111l-161 -26v-1252l170 -24v-109h-575v109l174 24v1010l-125 -199l-610 -740v-70l180 -25v-109h-578v109z" />
    <glyph glyph-name="afii10028" unicode="&#x41a;" horiz-adv-x="1445" 
d="M102 109l163 25v1251l-163 26v111h553v-111l-161 -26v-579h168l396 578l-162 27v111h508v-111l-161 -25l-431 -592q38 -16 76.5 -51.5t77.5 -83t77 -103t74 -112t69.5 -109.5t63.5 -96t56 -71t46 -35l80 -24v-109h-267q-28 0 -60 30t-66 79t-70.5 112t-74 128t-74.5 128
t-73.5 112t-71 79t-66.5 30h-115v-565l171 -27v-106h-563v109z" />
    <glyph glyph-name="afii10029" unicode="&#x41b;" horiz-adv-x="1517" 
d="M59 182q20 -2 56 -5t104 -3q42 0 72.5 21t56.5 69q20 36 39 80t34.5 101t28.5 130.5t22 168.5t14 214t5 269v158l-235 26v111h1183v-111l-188 -26v-1252l208 -24v-109h-651v109l213 25l1 1252h-393v-181q0 -401 -43 -666.5t-118 -396.5q-46 -82 -107.5 -118t-144.5 -36
q-42 0 -81.5 3.5t-59.5 8.5z" />
    <glyph glyph-name="afii10030" unicode="&#x41c;" horiz-adv-x="2059" 
d="M1 109l178 23l150 1254l-214 25v111h546l314 -917l52 -230l45 230l277 917h546v-111l-222 -26l194 -1252l179 -24v-109h-594v109l177 23l-126 908l-44 399l-69 -274l-326 -1097h-129l-361 985l-111 385l-32 -397l-81 -908l197 -24v-109h-546v109z" />
    <glyph glyph-name="afii10031" unicode="&#x41d;" horiz-adv-x="1700" 
d="M100 109l165 24v1252l-159 26v111h566v-111l-172 -25v-540h700v540l-164 25v111h559v-111l-160 -25v-1254l160 -23v-109h-558v109l163 23v582h-700v-581l172 -24v-109h-572v109z" />
    <glyph glyph-name="afii10032" unicode="&#x41e;" horiz-adv-x="1480" 
d="M727 -23q-163 -3 -286.5 52.5t-207 158t-125.5 246t-42 316.5q0 181 52.5 326.5t145.5 248.5t219.5 158.5t274.5 55.5q163 0 286 -54.5t205 -154t123 -240.5t41 -313q0 -181 -52 -327.5t-143.5 -250.5t-217 -161.5t-273.5 -60.5zM740 95q94 0 170.5 42.5t130.5 127
t83.5 212.5t29.5 299q0 150 -27.5 270t-80.5 203.5t-130 128t-175 44.5q-94 0 -170.5 -40.5t-131 -123.5t-84 -209.5t-29.5 -297.5q0 -150 27.5 -271.5t80.5 -207t130 -131.5t176 -46z" />
    <glyph glyph-name="afii10033" unicode="&#x41f;" horiz-adv-x="1620" 
d="M100 109l166 25v1251l-174 26v111h1438v-110l-174 -28v-1251l192 -24v-109h-589v109l165 25v1257h-625v-1257l188 -25v-109h-587v109z" />
    <glyph glyph-name="afii10034" unicode="&#x420;" horiz-adv-x="1328" 
d="M98 109l168 23v1253l-157 26v111h247q47 0 83.5 2t75 5t84 5t110.5 2q163 0 272 -29.5t175 -85.5t93.5 -137.5t27.5 -185.5q0 -127 -44.5 -226t-123.5 -167.5t-188 -104.5t-238 -36q-28 0 -57.5 1t-55 2t-44 2.5t-25.5 3.5v-441l270 -23v-109h-673v109zM500 691
q28 -5 70 -7t113 -2q66 0 128 19.5t109.5 67t76 127t28.5 200.5q0 88 -21.5 149.5t-64.5 100.5t-108 57t-152 18q-35 0 -60.5 -2t-46 -4t-37.5 -4.5t-35 -2.5v-717z" />
    <glyph glyph-name="afii10035" unicode="&#x421;" horiz-adv-x="1335" 
d="M66 762q0 181 57.5 325t157.5 244t235.5 153.5t291.5 53.5q68 0 135 -7.5t125.5 -18t105.5 -21t76 -15.5l-19 -374h-149l-56 255q-20 26 -82 43.5t-171 17.5q-95 0 -175 -41t-138 -121t-90.5 -198t-32.5 -272q0 -133 26.5 -257.5t82.5 -220.5t143 -154t209 -58q52 0 90 7
t65.5 17.5t45.5 23.5t30 26l87 211l142 -19l-44 -306q-40 -3 -76 -15.5t-80.5 -26.5t-102.5 -25.5t-141 -11.5q-180 0 -319.5 53.5t-235 154.5t-144.5 246.5t-49 330.5z" />
    <glyph glyph-name="afii10036" unicode="&#x422;" horiz-adv-x="1473" 
d="M355 109l261 24v1270l-333 -10l-75 -418h-145l35 547h1266l32 -547h-143l-76 418l-320 10v-1270l283 -24v-109h-785v109z" />
    <glyph glyph-name="afii10037" unicode="&#x423;" horiz-adv-x="1286" 
d="M247 172q1 0 23 -0.5t49 -1t49.5 -0.5h24.5q48 0 80.5 6.5t56 23t40.5 46t34 76.5l-500 1064l-117 25v111h563v-111l-191 -26l311 -707l55 -175l61 177l254 706l-164 25v111h445v-111l-112 -26l-427 -1061q-14 -34 -29.5 -72.5t-35 -77t-44.5 -74t-58.5 -63t-76.5 -44
t-98 -16.5q-27 0 -54.5 3t-53 8t-47.5 11.5t-38 14.5v158z" />
    <glyph glyph-name="afii10038" unicode="&#x424;" horiz-adv-x="1570" 
d="M486 68l191 26v148q-136 4 -236.5 27.5t-172 62t-117 89t-72 108.5t-36.5 121.5t-10 127.5q0 104 42 194t123.5 158t202 110t276.5 51v137l-192 27v109h599v-109l-190 -27v-136q137 -4 238 -26.5t172.5 -59t116.5 -85t71 -105t35.5 -118.5t9.5 -125q0 -105 -43 -197
t-125 -162.5t-202 -115t-273 -54.5v-152l191 -28v-107h-599v111zM677 1198q-126 -9 -202.5 -45t-118.5 -91.5t-56 -125.5t-14 -146q0 -47 5.5 -96.5t20.5 -97t42 -90.5t70.5 -77.5t105.5 -57.5t147 -30v857zM894 340q83 6 144 25.5t104 49.5t70.5 68.5t43 84t21.5 96.5
t6 104q0 72 -13.5 143.5t-54.5 131.5t-117.5 101.5t-203.5 52.5v-857z" />
    <glyph glyph-name="afii10039" unicode="&#x425;" horiz-adv-x="1462" 
d="M12 109l175 23l424 628l-419 625l-150 26v111h613v-111l-181 -26l309 -500l306 500l-173 26v111h508v-111l-160 -26l-410 -585l453 -668l156 -23v-109h-613v109l174 24l-339 540l-317 -541l196 -23v-109h-552v109z" />
    <glyph glyph-name="afii10040" unicode="&#x426;" horiz-adv-x="1636" 
d="M75 108l191 27v1251l-169 25v111h597v-111l-197 -26v-1257h619v1258l-154 25v111h552v-111l-166 -25v-1253h252q0 -5 -2.5 -29.5t-6 -61t-8.5 -81t-10.5 -90.5t-10.5 -90t-9 -78.5t-6.5 -56t-3.5 -23.5h-144q0 13 -2 44t-5 70.5t-6.5 83t-7 81t-7 64.5t-5.5 34h-1291v108
z" />
    <glyph glyph-name="afii10041" unicode="&#x427;" horiz-adv-x="1423" 
d="M723 109l202 25v547q-31 -23 -72 -41t-87 -30.5t-94 -19.5t-94 -7q-104 0 -185 22.5t-136.5 76t-85 143t-29.5 224.5v333l-126 27v113h521v-113l-164 -27v-262q0 -89 4.5 -152t16 -106t31 -68.5t49 -39t70.5 -17.5t96 -4q39 0 79.5 5.5t78.5 15t70.5 23.5t56.5 32v577
l-174 25v111h585v-111l-179 -26v-1252l180 -27v-106h-614v109z" />
    <glyph glyph-name="afii10042" unicode="&#x428;" horiz-adv-x="2247" 
d="M75 109l191 25v1251l-169 26v111h579v-111l-179 -26v-1252h517v1253l-147 25v111h530v-111l-156 -26v-1252h509v1252l-148 26v111h547v-111l-167 -25v-1252l189 -25v-109h-2096v109z" />
    <glyph glyph-name="afii10043" unicode="&#x429;" horiz-adv-x="2273" 
d="M75 109l191 25v1252l-169 25v111h579v-111l-179 -25v-1253h517v1253l-147 25v111h530v-111l-156 -26v-1252h509v1252l-148 26v111h547v-111l-167 -25v-1253h253q0 -5 -2.5 -29.5t-6.5 -61t-9 -81t-10 -91t-10.5 -90t-9.5 -78t-7 -56t-4 -23.5h-143q0 13 -2 44t-5 70.5
t-6.5 83t-7 81t-7 64.5t-5.5 34h-1925v109z" />
    <glyph glyph-name="afii10044" unicode="&#x42a;" horiz-adv-x="1685" 
d="M346 108l268 26v1271l-328 -15l-64 -386h-150l28 518h938v-109l-187 -28v-465h257q126 0 223 -30t163 -87t100.5 -139.5t34.5 -187.5q0 -121 -40 -213t-112 -154t-172 -93.5t-220 -31.5q-12 0 -36.5 1t-55.5 3t-66 4t-69 4t-64.5 3t-51.5 1h-396v108zM851 119
q17 -4 34.5 -7.5t39 -6t50 -4t67.5 -1.5q167 0 253.5 92.5t86.5 266.5q0 85 -23.5 148t-68 104t-107 61t-140.5 20h-192v-673z" />
    <glyph glyph-name="afii10045" unicode="&#x42b;" horiz-adv-x="2026" 
d="M1341 109l183 24v1252l-183 26v111h602v-111l-183 -25v-1253l186 -27v-106h-605v109zM98 109l169 22v1259l-164 30v102h590v-102l-193 -30v-467h256q126 0 222.5 -30.5t162.5 -88t100 -140t34 -187.5q0 -121 -40.5 -213t-113.5 -154.5t-173 -94t-218 -31.5q-24 0 -67 2.5
t-92.5 5.5t-99.5 5.5t-87 2.5l1 1l-2 -1h-285v109zM500 120q17 -4 34.5 -7.5t39 -6t50 -4t67.5 -1.5q166 0 251 93t85 267q0 85 -23 148t-66.5 104t-105.5 61t-140 20h-192v-674z" />
    <glyph glyph-name="afii10046" unicode="&#x42c;" horiz-adv-x="1330" 
d="M97 109l169 22v1259l-164 30v102h590v-102l-193 -30v-467h256q126 0 222.5 -30.5t162.5 -88t100 -140t34 -187.5q0 -121 -40.5 -213t-113.5 -154.5t-173 -94t-218 -31.5q-24 0 -67 2.5t-92.5 5.5t-99.5 5.5t-87 2.5l1 1l-2 -1h-285v109zM499 120q17 -4 34.5 -7.5t39 -6
t50 -4t67.5 -1.5q166 0 251 93t85 267q0 85 -23 148t-66.5 104t-105.5 61t-140 20h-192v-674z" />
    <glyph glyph-name="afii10047" unicode="&#x42d;" horiz-adv-x="1356" 
d="M89 354l147 24l87 -192q14 -13 33.5 -28.5t50.5 -28.5t75 -22t106 -9q92 0 170.5 41t136 119t91 191.5t36.5 258.5q-29 0 -82 -1.5t-117 -3.5t-133 -4t-130 -4.5t-107.5 -4t-66.5 -2.5v189q19 -1 65 -2t105.5 -3t127 -4.5t131 -4.5t117 -3.5t85.5 -1.5q-11 115 -44 217.5
t-88 179t-133 121t-180 44.5q-57 0 -96 -8.5t-66 -22.5t-46 -31t-35 -35l-60 -189l-157 -1l4 328q42 2 83 14t93 26t121.5 25.5t168.5 11.5q165 0 296 -57.5t222.5 -162t140.5 -249.5t49 -320q0 -173 -54 -315t-151 -243.5t-231.5 -157.5t-294.5 -56q-86 0 -148.5 12
t-112 26t-90 26.5t-80.5 12.5z" />
    <glyph glyph-name="afii10048" unicode="&#x42e;" horiz-adv-x="2204" 
d="M99 109l167 24v1253l-161 25v111h558v-111l-166 -25v-537h325q17 165 77.5 293t152 216.5t207 134.5t241.5 46q155 0 274.5 -56.5t200.5 -157t121.5 -240t38.5 -305.5q-3 -189 -55 -337.5t-141.5 -250.5t-209 -156t-257.5 -54q-157 0 -278.5 52.5t-205 148.5
t-127.5 231.5t-45 300.5h-317v-582l173 -24v-109h-573v109zM1072 746q0 -141 27 -259t79.5 -204t129.5 -134t177 -48q93 0 166.5 41t124 125t77 211.5t26.5 300.5q0 142 -26 259.5t-76 202.5t-123 132t-168 47q-90 0 -166 -39t-131 -121.5t-86 -209.5t-31 -304z" />
    <glyph glyph-name="afii10049" unicode="&#x42f;" horiz-adv-x="1440" 
d="M2 108l78 25q26 6 53.5 44t57 93t61.5 120.5t67 126.5t74 110t82 72q-68 21 -122 60t-92 92.5t-58.5 119.5t-20.5 141q0 131 41 213.5t115 129.5t178.5 64.5t231.5 17.5q41 0 77 -2.5t71.5 -5l71 -5t75.5 -2.5h303v-111l-172 -26v-1253l190 -24v-108h-613l-1 108l192 24
v534h-51.5t-79.5 -0.5t-83 -0.5h-61q-27 -21 -54 -60.5t-53 -90t-51 -108.5t-49 -115t-47 -109.5t-45 -93t-42.5 -64.5t-39.5 -24h-284v108zM760 783q56 0 106 2t76 7v613q-17 1 -34.5 3.5t-41 5t-55 4.5t-76.5 2q-77 0 -134.5 -16.5t-95.5 -52t-57 -92t-19 -136.5
q0 -169 87.5 -254.5t243.5 -85.5z" />
    <glyph glyph-name="afii10065" unicode="&#x430;" horiz-adv-x="1148" 
d="M85 302q0 105 56.5 178t150 119t214 68t249.5 24v52q0 68 -10 116t-35.5 78t-68.5 44t-109 14q-56 0 -108.5 -9.5t-98.5 -24t-84 -31t-65 -30.5h-1l-50 104q17 16 64.5 42.5t112 52t139.5 44t147 18.5q108 0 182 -21.5t119.5 -69.5t65.5 -124.5t20 -185.5v-650h122v-98
q-19 -5 -45.5 -11t-56.5 -11t-60.5 -9t-57.5 -4q-29 0 -49 3t-33 13.5t-19 31t-6 54.5v48q-17 -16 -48.5 -41.5t-75 -49.5t-98 -41.5t-117.5 -17.5q-69 0 -132 19t-110.5 58.5t-75.5 101t-28 146.5zM334 331q0 -55 14.5 -93.5t40 -63t61 -35.5t76.5 -11q23 0 52.5 7
t60.5 19.5t61 29t55 35.5v359q-116 0 -196 -20.5t-130 -54t-72.5 -78.5t-22.5 -94z" />
    <glyph glyph-name="afii10066" unicode="&#x431;" horiz-adv-x="1176" 
d="M583 -16q-117 0 -214 46t-166.5 144.5t-108.5 251t-39 365.5q0 129 26 241.5t73.5 204.5t113.5 162.5t147 114.5q35 22 79.5 40t93.5 32t98.5 24t94.5 16q26 3 47 7t37 10.5t26.5 17t16.5 28.5l24 76h118l-17 -110q-5 -49 -12 -84.5t-21 -59t-37.5 -36.5t-60.5 -18
q-55 -6 -116 -12.5t-118 -15t-105 -19.5t-77 -25q-43 -17 -84 -44.5t-73.5 -72.5t-54.5 -111.5t-27 -162.5q20 23 60 52.5t95 55.5t122 43.5t142 17.5q124 0 208.5 -44.5t136 -120.5t74 -176.5t22.5 -211.5q0 -145 -38 -261t-107 -197t-165.5 -124.5t-213.5 -43.5zM592 95
q75 0 125 30t81 89.5t44 147.5t13 204q0 122 -14 206.5t-46 137t-83.5 76t-127.5 23.5q-36 0 -77 -9.5t-80.5 -25t-73.5 -36.5t-55 -44q0 -234 19 -388.5t56 -245.5t92 -128t127 -37z" />
    <glyph glyph-name="afii10067" unicode="&#x432;" horiz-adv-x="1312" 
d="M104 109l143 26v866l-140 29v107h227q28 0 68.5 1.5t86.5 3.5t93.5 3.5t89.5 1.5q142 0 232 -19.5t141.5 -54t71 -82t19.5 -104.5q0 -97 -60 -165t-166 -102q78 -6 137.5 -30.5t100 -61t61.5 -82t21 -93.5q0 -84 -30.5 -151.5t-97 -114t-173 -71.5t-258.5 -25
q-38 0 -89.5 1.5l-103 3t-96.5 3t-70 1.5h-208v109zM652 656q72 0 120.5 17.5t77.5 47.5t41 70t12 84q0 35 -11.5 63.5t-40 49t-77 31.5t-123.5 11h-96.5t-86.5 -1v-373h184zM468 129q11 -4 35 -7t52.5 -5.5t56 -3.5t45.5 -1q90 0 151.5 12.5t99.5 38.5t54.5 65.5t16.5 93.5
q0 114 -68.5 168t-216.5 54h-226v-415z" />
    <glyph glyph-name="afii10068" unicode="&#x433;" horiz-adv-x="1042" 
d="M94 109l152 17v875l-148 29v107h889l10 -426h-138l-58 294l-329 19v-897l272 -18v-109h-650v109z" />
    <glyph glyph-name="afii10069" unicode="&#x434;" horiz-adv-x="1282" 
d="M139 121q19 6 42.5 24t47 56.5t46.5 100.5t40.5 156.5t28 225t10.5 305.5v12l-188 29v107h1052v-107l-180 -29v-881h59l2 -3l117 3q0 -4 -1.5 -39.5t-4 -87t-5 -112t-5 -114.5t-4 -94t-1.5 -50h-140q-1 13 -4.5 42t-9 66t-12.5 78.5t-14.5 79t-14.5 67.5t-13 44h-744
q-8 -16 -16.5 -47t-16.5 -68.5t-15.5 -78.5t-13.5 -77.5t-10 -65t-5 -40.5h-148q0 17 0.5 57t1.5 91t2 107.5t1.5 106t1.5 86.5t1 50h113zM813 120v892h-329v-120q0 -134 -11.5 -256t-31 -223.5t-44 -176.5t-50.5 -115z" />
    <glyph glyph-name="afii10070" unicode="&#x435;" horiz-adv-x="1112" 
d="M85 571q0 134 40 244t111.5 188.5t170 121.5t215.5 43q192 0 297 -104t112 -304q1 -64 -1.5 -112t-10.5 -84h-693q3 -114 31.5 -196t74 -134.5t106 -77.5t128.5 -25q43 0 87 8t84.5 21.5t75 30t57.5 34.5l42 -96q-28 -29 -73 -56.5t-99.5 -48.5t-116.5 -34t-125 -13
q-129 0 -225.5 43.5t-160.5 122.5t-95.5 188t-31.5 240zM791 680q2 20 3 43.5t1 42.5q0 58 -12 109t-37.5 89.5t-66.5 60.5t-101 22q-51 0 -95 -17.5t-77.5 -60t-54 -113t-25.5 -176.5h465z" />
    <glyph glyph-name="afii10072" unicode="&#x436;" horiz-adv-x="1911" 
d="M-6 109l82 24q25 8 53.5 40t60 78t66.5 100t74 105.5t81.5 95t90.5 68.5l-305 382l-149 28v107h479v-107l-147 -27l256 -358h209v357l-142 28v107h525l1 -107l-163 -29v-356h208l256 358l-146 27v107h479v-107l-148 -28l-307 -383q48 -25 91 -68.5t82 -95.5t74 -106
t66.5 -100t59.5 -77.5t53 -38.5l83 -24v-109h-231q-33 0 -63.5 23t-60 61t-58.5 86t-57.5 98.5t-57 98.5t-57.5 86t-59.5 61t-62.5 23l-144 1v-405l172 -24v-109h-543v109l150 23v406h-144q-32 0 -62.5 -23t-59.5 -61t-57.5 -86t-57 -98.5t-57.5 -98.5t-58.5 -86t-60 -61
t-63.5 -23h-231v108z" />
    <glyph glyph-name="afii10073" unicode="&#x437;" horiz-adv-x="1104" 
d="M120 301h137l35 -140q13 -16 38 -27t55.5 -18.5t64 -11t64.5 -3.5q73 0 125.5 16t86 44.5t49 67.5t15.5 85q0 47 -12 87.5t-41.5 70t-80 46t-126.5 15.5q-3 0 -19.5 -2t-36.5 -4.5t-37 -5t-20 -3.5l1 135l74 8q125 16 187 71t62 143q0 39 -10.5 70.5t-36 53.5t-68 33.5
t-105.5 11.5q-48 0 -86.5 -7t-67.5 -17.5t-47.5 -23t-27.5 -22.5l-35 -169h-142v301q52 0 96.5 8.5t94 19t109 19t140.5 8.5q211 0 319.5 -71t108.5 -202q0 -43 -17 -84t-48.5 -76t-76.5 -63.5t-101 -47.5q148 -14 227.5 -87t81.5 -184q1 -83 -30 -150t-94 -114
t-158.5 -72.5t-222.5 -25.5q-81 0 -150.5 8t-126 19.5t-99.5 24.5t-70 24z" />
    <glyph glyph-name="afii10074" unicode="&#x438;" horiz-adv-x="1518" 
d="M100 109l147 18v874l-144 30v106h529v-107l-160 -28v-664l113 149l462 464v51l-153 28v107h518v-107l-140 -28v-876l149 -18v-108h-531v108l157 19v658l-121 -159l-454 -454v-51l126 -11l-1 -110h-497v109z" />
    <glyph glyph-name="afii10075" unicode="&#x439;" horiz-adv-x="1518" 
d="M100 109l147 18v874l-144 30v106h529v-107l-160 -28v-664l113 149l462 464v51l-153 28v107h518v-107l-140 -28v-876l149 -18v-108h-531v108l157 19v658l-121 -159l-454 -454v-51l126 -11l-1 -110h-497v109zM760 1322q-95 0 -168 27.5t-123.5 76t-76.5 116t-26 148.5
q0 8 0.5 20t1.5 20h161q11 0 18 -7.5t10.5 -19.5t4.5 -27t1 -29q0 -38 10.5 -75.5t34 -67t61.5 -48t92 -18.5t90 18.5t58 48t31.5 67t9.5 75.5q0 14 1 29t5 27t10.5 19.5t17.5 7.5h163q1 -8 1.5 -20t0.5 -20q0 -81 -25 -149t-73.5 -116.5t-121.5 -75.5t-169 -27z" />
    <glyph glyph-name="afii10076" unicode="&#x43a;" horiz-adv-x="1307" 
d="M100 109l146 18v875l-143 28v107h525v-107l-159 -28v-357h201l256 357l-146 28v107h479v-107l-148 -28l-307 -383q47 -25 90 -68.5t82 -95.5t73.5 -106t66 -100t59.5 -77.5t53 -38.5l83 -24v-109h-230q-32 0 -63 23t-60.5 61t-58 86t-57 98.5t-57 98.5t-58 86t-59.5 61
t-62 23l-137 1v-412l174 -17v-109h-543v109z" />
    <glyph glyph-name="afii10077" unicode="&#x43b;" horiz-adv-x="1278" 
d="M19 191q43 -10 139 -10q43 0 79 62.5t61.5 172.5t39.5 260t14 325l-187 29v107h1044v-111l-178 -31v-869l171 -17v-109h-551v109l154 18v884h-328v-112q0 -144 -11 -266.5t-28 -221t-39 -170.5t-44 -114q-15 -30 -32 -56t-42.5 -44.5t-62 -29t-89.5 -10.5q-27 0 -53.5 4
t-43.5 9z" />
    <glyph glyph-name="afii10078" unicode="&#x43c;" horiz-adv-x="1753" 
d="M14 109l158 17l98 875l-187 29v107h498l225 -603l69 -221l57 221l209 603h512v-107l-203 -29l130 -875l158 -17v-109h-553v109l162 18l-65 581l-39 322l-98 -319l-234 -652h-146l-257 652l-110 308l-28 -307l-43 -585l181 -18v-109h-494v109z" />
    </font>
</defs>
</svg>
