<?xml version="1.0" standalone="no"?>
<!DOCTYPE svg PUBLIC "-//W3C//DTD SVG 1.1//EN" "http://www.w3.org/Graphics/SVG/1.1/DTD/svg11.dtd" >
<svg xmlns="http://www.w3.org/2000/svg" xmlns:xlink="http://www.w3.org/1999/xlink" version="1.1">
<metadata>
Created by FontForge 20170731 at Fri Jan  1 02:30:17 1904
 By Aleksey,,,
Converted by ALLTYPE
</metadata>
<defs>
<font id="Palatino" horiz-adv-x="250" >
  <font-face 
    font-family="Palatino"
    font-weight="5"
    font-style="italic"
    font-stretch="normal"
    units-per-em="1000"
    panose-1="0 0 0 0 0 0 0 0 0 0"
    ascent="800"
    descent="-200"
    x-height="459"
    cap-height="692"
    bbox="-166 -283 1021 927"
    underline-thickness="50"
    underline-position="-205"
    slope="23853"
    unicode-range="U+0020-F002"
  />
<missing-glyph 
 />
    <glyph glyph-name=".notdef" 
 />
    <glyph glyph-name="glyph1" horiz-adv-x="0" 
 />
    <glyph glyph-name="glyph2" 
 />
    <glyph glyph-name="space" unicode=" " 
 />
    <glyph glyph-name="space" unicode="&#xa0;" 
 />
    <glyph glyph-name="exclam" unicode="!" horiz-adv-x="278" 
d="M138 -5q-12 0 -22 3.5t-18 12.5q-9 9 -13 19t-4 21t4 21t13 19t19 13.5t21 4.5t21.5 -4.5t19.5 -13.5t13.5 -19t4.5 -21t-4.5 -21t-13.5 -19t-19 -12.5t-22 -3.5v0v0zM160 694h34v-25q0 -11 -0.5 -20t-1.5 -18t-1.5 -18t-0.5 -17q-1 -3 -1.5 -6t-0.5 -6v-2.5v-3.5
q-1 -1 -1 -2.5v-3.5q-1 -6 -1.5 -12t-1.5 -12t-1.5 -12t-0.5 -12l-24 -276v-25l-28 -23l-10 5v3.5v5.5v4.5v4.5q0 5 -0.5 10t-1.5 10l-26 307q-1 5 -1.5 11t-0.5 13q-1 7 -1.5 13.5t-0.5 13.5q-1 6 -1.5 12.5t-0.5 13.5v6.5v7.5q-1 3 -1 6.5v6.5l75 40v0v0z" />
    <glyph glyph-name="quotedbl" unicode="&#x22;" horiz-adv-x="371" 
d="M105 469h-20l-33 196v-1v0v0.5v1.5v0v0v0.5v1.5v0v1v0v0v0.5v1.5q1 6 4.5 12t9.5 12t13.5 9t15.5 3t15.5 -3.5t14.5 -9.5t10 -12.5t3 -14.5v0v0v-1v0v0v0v-1v0v-1.5v-0.5v0v0l-33 -194v0v0zM286 469h-20l-33 196v-1v0v0.5v1.5v0v0v0.5v1.5v0v1v0v0v0.5v1.5q1 6 4.5 12
t9.5 12t13.5 9t15.5 3t15.5 -3.5t14.5 -9.5t10 -12.5t3 -14.5v0v0v-1v0v0v0v-1v0v-1.5v-0.5v0v0l-33 -194v0v0z" />
    <glyph glyph-name="numbersign" unicode="#" horiz-adv-x="500" 
d="M470 280v-56h-109l-31 -224h-58l31 224h-134l-33 -224h-58l33 224h-107v56h116l21 139h-110v56h118l31 209h58l-31 -209h133l30 209h58l-30 -209h97v-56h-105l-20 -139h100v0v0zM332 419h-133l-21 -139h134l20 139v0v0z" />
    <glyph glyph-name="dollar" unicode="$" horiz-adv-x="500" 
d="M223 18v279q-41 3 -75.5 12t-62.5 23t-41.5 45t-13.5 79q0 44 13 80t40 63t62 43t78 22v4.5v4.5q-1 2 -1 4.5v4.5v4v5q-1 2 -1 4v4q-1 4 -1.5 7.5t-0.5 7.5v7.5v7.5l45 2v-3.5v-2.5q-1 -1 -1 -2v-2v-2v-1v-2v-2q-1 -6 -1.5 -11.5t-0.5 -10.5v-6v-6q-1 -3 -1 -6.5v-6.5
q5 -1 11 -1.5t12 -0.5q3 0 6 -0.5t6 -0.5q2 -1 5 -1.5t6 -0.5q8 -1 15.5 -2.5t15.5 -2.5q7 -2 15 -4t15 -4q15 -4 30 -10.5t29 -14.5q-4 -13 -6 -28t-4 -31q-1 -16 -2 -33t-1 -34l-32 2v42v3v4q-1 2 -1 4.5v4.5q0 5 -0.5 9.5t-1.5 8.5q-2 9 -8.5 16t-17.5 13q-10 6 -22 10.5
t-24 8.5q-6 2 -12 2.5t-12 1.5t-11.5 1.5t-10.5 1.5v-258q41 -5 78 -14.5t69 -23.5t48 -46.5t16 -82.5q0 -51 -16.5 -90t-48.5 -66q-33 -28 -69 -44t-77 -22v-6.5v-7.5v-3.5t1 -3.5v-3v-4v-6v-6v-3.5t1 -2.5v-3.5v-2.5v-6t1 -7v-6v-6v-6t1 -6v-5v-6h-45q1 9 1.5 20t0.5 24
t0.5 26.5t1.5 27.5q-15 0 -33.5 2t-41.5 6q-22 4 -45.5 9t-47.5 13q-1 1 -3 1.5t-3 1.5q-2 0 -3.5 0.5t-3.5 1.5q-3 1 -6 2.5t-6 2.5q1 5 1.5 10t1.5 10q0 5 0.5 10.5t1.5 10.5q2 11 2.5 21.5t1.5 21.5v8t1 8v8v8q0 8 0.5 16.5t1.5 15.5l32 2v-64v-3.5v-2.5v-2v-2v-5.5v-4.5
q0 -3 1 -4.5t2 -3.5q5 -10 14.5 -18t23.5 -16q14 -7 29 -13t31 -10q3 -1 6 -1.5t7 -1.5q3 -1 6 -1.5t6 -0.5t6 -0.5t6 -0.5q2 -1 5 -1h6v2v0zM260 292v-274q26 1 49.5 13t42.5 34q20 21 30 47t10 57q0 32 -9.5 54.5t-27.5 34.5q-19 12 -42.5 20t-52.5 12v2v0zM223 379v251
q-30 -4 -52 -14.5t-37 -30.5q-15 -19 -22 -42.5t-7 -51.5q0 -29 7.5 -50t23.5 -34t37.5 -20.5t49.5 -9.5v2v0z" />
    <glyph glyph-name="percent" unicode="%" horiz-adv-x="840" 
d="M250 -20h-40l366 729h40l-366 -729v0v0zM649 321q32 -2 59.5 -13t49.5 -32q22 -22 33 -49t11 -60q0 -36 -11 -66t-34 -54q-22 -24 -51.5 -35.5t-66.5 -11.5q-33 0 -60 10t-49 31t-33 48.5t-11 60.5q0 35 11.5 65t33.5 55q23 24 52 36.5t66 12.5v2v0zM646 298
q-19 -2 -33.5 -9.5t-24.5 -21.5t-16 -29.5t-9 -32.5q-1 -6 -2.5 -12t-1.5 -12q-1 -6 -1 -12v-11v-10.5v-11.5t1 -12l2 -12q2 -17 8 -33t15 -30t23.5 -21t33.5 -7t33 7t24 21t16.5 30t10.5 33q2 6 2.5 12t1.5 12v6t1 6v5v6v4.5v5.5q-1 3 -1 6v6q-1 6 -1.5 12t-0.5 12
q-3 17 -9 32.5t-15 29.5t-23 21.5t-34 7.5v2v0zM202 689q32 -2 59.5 -13t49.5 -32q22 -22 33 -49t11 -60q0 -36 -11 -66t-34 -54q-22 -25 -51.5 -37t-66.5 -12q-33 0 -60 10.5t-49 32.5q-22 21 -33 48.5t-11 60.5q0 35 11.5 65t33.5 55q23 24 52 36.5t66 12.5v2v0zM199 666
q-19 -2 -33.5 -9.5t-24.5 -21.5t-16 -29.5t-9 -32.5q-1 -6 -2.5 -12t-1.5 -12q-1 -6 -1 -12v-11v-10.5v-11.5t1 -12l2 -12q2 -17 8 -33t15 -30t23.5 -21t33.5 -7t33 7t24 21t16.5 30t10.5 33q2 6 2.5 12t1.5 12v6t1 6v5v6v4.5v5.5q-1 3 -1 6v6q-1 6 -1.5 12t-0.5 12
q-3 17 -9 32.5t-15 29.5t-23 21.5t-34 7.5v2v0z" />
    <glyph glyph-name="ampersand" unicode="&#x26;" horiz-adv-x="778" 
d="M548 387l194 7q-2 -8 -3.5 -14.5t-3.5 -12.5l-2 -12t-2 -11v-2.5v-3.5q-1 -1 -1 -2.5v-3.5v-6v-6l-14 2l-14 2t-14 1.5t-14 1.5q-11 1 -21.5 1.5t-21.5 1.5q-10 0 -20.5 0.5t-20.5 1.5q2 -6 3 -12t1 -12v-6t1 -5v-5.5v-5.5q0 -25 -6.5 -48t-18.5 -44q-12 -22 -26 -41.5
t-30 -36.5q11 -6 21.5 -12t20.5 -12q5 -3 10.5 -5.5t11.5 -5.5q5 -2 10.5 -4.5t10.5 -4.5q11 -4 21.5 -8t20.5 -6q11 -3 21.5 -4t20.5 -1q7 0 13 1t11 2q5 2 10.5 3.5t10.5 3.5q2 1 4.5 2t4.5 2q1 1 2 1.5l3 1.5q1 0 2.5 0.5t2.5 1.5l6 -23l-87 -63q-3 -2 -6 -3t-7 -2h-4
t-3 -1h-4h-4h-2h-2h-1.5h-1.5h-1.5h-1.5h-1.5h-0.5q-7 0 -17 2t-21 5l-12 4t-11 4q-6 2 -12 3.5t-12 3.5q-9 4 -18 8.5l-17 8.5q-9 5 -16.5 9.5t-14.5 8.5q-4 2 -7 4t-6 5q-3 2 -6 4.5t-5 4.5q-21 -17 -44 -30.5t-49 -24.5q-25 -10 -52 -15t-54 -5q-48 0 -86 13.5t-67 40.5
q-28 27 -42 61.5t-14 75.5q0 38 11.5 69.5t34.5 57.5t50.5 48t58.5 39q-3 6 -5 12l-4 12l-4 12l-4 12q-3 11 -5.5 21.5t-4.5 20.5q-1 11 -2 20.5t-1 19.5q0 15 1 28.5t4 25.5t7.5 20.5t11.5 14.5l68 62q5 3 11.5 6.5t13.5 7.5q8 3 19 5t25 2q22 0 39 -6t30 -18t19.5 -28.5
t6.5 -39.5q0 -27 -9 -51t-26 -47q-17 -22 -36 -41.5t-40 -36.5q-2 -1 -4 -2.5t-4 -3.5q-3 -1 -5 -2.5t-4 -3.5l-8 -6l-8 -6q21 -35 45 -68.5t49 -65.5q26 -31 53.5 -62t56.5 -60l2 2t2 3q0 1 1 2l2 2q2 2 3.5 4.5t3.5 5.5q8 11 14.5 22.5t10.5 22.5q5 11 7 22.5t2 21.5v0v1
v0v0v0.5v1.5q0 14 -2 27.5t-5 25.5q-4 12 -7.5 19t-8.5 9t-14 3.5t-22 2.5q-7 1 -13.5 1.5t-13.5 1.5q-7 0 -14 0.5t-14 1.5l33 47q10 -2 20 -3t20 -1h20h20h4h4h4.5h4.5v2v0zM213 352q-19 -16 -34.5 -31.5t-26.5 -32.5q-11 -16 -16.5 -37t-5.5 -46q0 -34 12 -63.5t37 -55.5
t54.5 -39t63.5 -13h6h7h3.5t3.5 1q1 0 3 0.5t3 0.5q13 2 25.5 6.5t25.5 10.5t24.5 13t21.5 14q-28 32 -56.5 64t-55.5 65t-51 68.5t-44 72.5v2v0zM303 636q-22 -2 -36 -9t-19 -21q-5 -13 -7.5 -28t-2.5 -32q0 -6 0.5 -12.5t1.5 -14.5q2 -7 3.5 -14.5t3.5 -15.5l2 -10l2 -10
q2 -4 3.5 -8.5t2.5 -9.5q1 -3 1.5 -6t1.5 -6t2 -5.5t2 -4.5l6 4t7 5q3 3 6.5 6t7.5 6l8 8l8 8q3 4 7 8.5t8 9.5q8 9 14 18.5t10 19.5q2 5 4.5 10.5t3.5 10.5q2 5 2.5 10.5t0.5 10.5v2v2q-1 1 -1 2v2v2v2q-1 1 -1 2v2q-1 10 -5.5 19t-11.5 18q-7 8 -15.5 12.5t-19.5 4.5v2v0z
" />
    <glyph glyph-name="quotesingle" unicode="'" horiz-adv-x="208" 
d="M114 469h-20l-33 196v-1v0v0.5v1.5v0v0v0.5v1.5v0v1v0v0v0.5v1.5q1 6 4.5 12t9.5 12t13.5 9t15.5 3t15.5 -3.5t14.5 -9.5t10 -12.5t3 -14.5v0v0v-1v0v0v0v-1v0v-1.5v-0.5v0v0l-33 -194v0v0z" />
    <glyph glyph-name="parenleft" unicode="(" horiz-adv-x="333" 
d="M301 -194l-19 -21q-56 48 -98 102t-69 114q-28 62 -41.5 128t-13.5 136q0 68 14 130.5t42 120.5q28 59 69.5 110.5t96.5 97.5l19 -24q-43 -48 -73.5 -98.5t-47.5 -104.5t-25.5 -112t-8.5 -120q0 -63 8.5 -124.5t25.5 -120.5q17 -58 47.5 -112t73.5 -102v0v0z" />
    <glyph glyph-name="parenright" unicode=")" horiz-adv-x="333" 
d="M51 -215l-19 21q44 48 74 102t47 112q17 59 25.5 120.5t8.5 124.5q0 62 -8.5 120t-25.5 112t-47 104.5t-74 96.5l19 28q55 -47 96.5 -99t69.5 -111q28 -58 42 -120.5t14 -130.5q0 -70 -14 -136t-41 -128q-28 -60 -69.5 -114t-97.5 -102v0v0z" />
    <glyph glyph-name="asterisk" unicode="*" horiz-adv-x="389" 
d="M168 514l-131 64l-3 10l44 52h10l95 -98l26 143l9 4l62 -19l3 -15l-69 -125l139 24l6 -4v-62l-9 -8l-138 20l68 -122v-10l-68 -26l-10 4l-18 142l-106 -88h-10l-36 51l5 9l131 54v0v0z" />
    <glyph glyph-name="plus" unicode="+" horiz-adv-x="606" 
d="M275 289v223h56v-223h224v-56h-224v-226h-56v226h-224v56h224v0v0z" />
    <glyph glyph-name="comma" unicode="," 
d="M204 123l14 -14q-12 -35 -28 -67.5t-36 -60.5q-19 -30 -40 -59.5t-43 -57.5l-41 -19l-14 11q17 27 31.5 55.5t27.5 57.5t20.5 59.5t10.5 62.5q8 2 15.5 4t14.5 4q4 1 7.5 2t7.5 2q3 1 6.5 2.5t7.5 2.5q2 1 4.5 1.5t5.5 1.5q2 1 4.5 1.5t4.5 1.5t4.5 2t5.5 2q2 0 4.5 1
t5.5 2v2v0z" />
    <glyph glyph-name="hyphen" unicode="-" horiz-adv-x="333" 
d="M282 215h-260l-5 5l27 67h263l5 -5l-30 -67v0v0z" />
    <glyph glyph-name="period" unicode="." 
d="M124 -5q-12 0 -22 3.5t-18 12.5q-9 9 -13 19t-4 21t4 21t13 19t19 13.5t21 4.5t21.5 -4.5t19.5 -13.5t13.5 -19t4.5 -21t-4.5 -21t-13.5 -19t-19 -12.5t-22 -3.5v0v0z" />
    <glyph glyph-name="slash" unicode="/" horiz-adv-x="606" 
d="M519 726l-372 -845h-60l372 845h60v0v0z" />
    <glyph glyph-name="zero" unicode="0" horiz-adv-x="500" 
d="M238 -20q-52 2 -91 22t-65 59q-27 39 -40 103.5t-13 153.5v22t1 22q0 11 1 22.5t2 23.5q5 52 19 100t38 91q24 44 68 66t108 22q54 0 92.5 -21.5t60.5 -65.5q23 -43 34.5 -99.5t11.5 -125.5q0 -16 -0.5 -32.5t-1.5 -33.5t-2 -34.5t-3 -34.5q-7 -49 -22 -94t-38 -86
q-23 -40 -63 -60t-97 -20v0v0zM248 654q-1 -2 -1.5 -2h-0.5h-1v0h-1.5h-0.5h-1.5h-0.5q-44 0 -71 -24t-37 -72t-15 -100.5t-5 -109.5q0 -73 7 -132.5t20 -106.5q14 -47 41.5 -70.5t69.5 -23.5q41 0 67.5 21.5t38.5 64.5q11 44 17 91t7 99v3v3v2.5v2.5v3v3v2.5v2.5
q0 71 -6.5 132t-18.5 110q-12 50 -39 74.5t-69 24.5v2v0z" />
    <glyph glyph-name="one" unicode="1" horiz-adv-x="500" 
d="M67 555l-7 43q2 -1 3.5 -1t2.5 1h2t2 1l1 0.5t2 0.5q14 5 28 10.5t29 10.5q14 6 28 11.5t28 11.5q28 12 53.5 24t47.5 24l14 -3v-593q0 -10 0.5 -18t1.5 -15q2 -7 4.5 -12.5t6.5 -8.5q5 -4 10.5 -6.5t12.5 -4.5q6 -1 13.5 -2t15.5 -1l52 -1v-30h-9.5h-9.5q-4 1 -8 1h-8
h-15.5h-14.5q-15 1 -27.5 1.5t-23.5 0.5h-21.5h-21.5h-21.5h-22.5t-24 -0.5t-27 -1.5h-15.5h-16.5h-8.5t-8.5 -1h-9.5h-9.5v30l56 3q8 -1 15 -0.5t14 1.5q6 2 12 4.5t11 6.5q4 3 6.5 8.5t3.5 12.5q2 7 2.5 14.5t0.5 16.5v487q0 -1 0 -0.5v1.5v2v2v4t-1 5q0 2 -0.5 4t-0.5 4
q-1 5 -2.5 7t-3.5 2v0v0h-1v0v0v0q-1 -1 -1.5 -1h-0.5v0v0l-129 -56h-10v0v0z" />
    <glyph glyph-name="two" unicode="2" horiz-adv-x="500" 
d="M16 23l170 181q48 49 79 89t46 70t22.5 56.5t7.5 49.5q0 30 -9 55.5t-27 45.5t-42 30t-56 10q-25 0 -45.5 -4.5t-35.5 -12.5q-16 -8 -27 -24.5t-18 -41.5l-13 -44h-29q1 3 1.5 7t1.5 8q0 4 0.5 8.5t1.5 8.5q1 8 2 16.5t2 17.5v3.5v2.5v2t1 2v2v2q1 6 1.5 13t1.5 14
t2 13.5t2 13.5q17 19 36 32.5t41 21.5t45 12t48 4q55 0 94 -14t63 -43q24 -28 36 -60.5t12 -69.5q0 -13 -1.5 -26t-4.5 -25t-7.5 -24t-9.5 -23q-8 -16 -18.5 -31.5t-23.5 -31.5t-28.5 -33.5t-33.5 -37.5l-182 -191q21 -2 42.5 -2t43.5 1q22 0 43.5 1t43.5 2h10.5h11.5
q5 0 10.5 0.5t10.5 0.5q11 0 22 0.5t22 1.5h10.5t10.5 1h10.5h10.5q11 0 22 0.5t22 1.5q-1 -6 -1.5 -12t-0.5 -12v-11.5v-10.5v-6v-6v-5.5t1 -4.5v-2.5v-2.5v-3v-3v-2.5t1 -2.5v-2v-2h-10h-9q-5 1 -10 1h-10h-19.5h-18.5q-10 1 -19.5 1h-18.5h-19h-18q-10 1 -19.5 1h-18.5
h-19.5h-18.5h-38h-38t-37.5 -0.5t-36.5 -1.5h-9h-9h-9.5h-9.5h-9t-9 -1h-9.5h-9.5v26v0v0z" />
    <glyph glyph-name="three" unicode="3" horiz-adv-x="500" 
d="M43 498l29 124q16 16 34 29t39 20q20 8 42.5 12t46.5 4q42 0 75.5 -10.5t58.5 -30.5q25 -21 37.5 -48.5t12.5 -62.5q0 -24 -8 -46t-25 -43q-16 -21 -35 -39t-42 -35q37 -5 65.5 -17t48.5 -30q20 -19 30 -45.5t10 -61.5q0 -46 -22.5 -87.5t-66.5 -78.5t-93 -54.5
t-102 -17.5q-7 0 -15.5 0.5t-17.5 2.5q-10 1 -19.5 3t-19.5 4q-4 1 -7.5 2t-7.5 1q-4 1 -7.5 2t-7.5 2t-7.5 2t-6.5 1l-6 2l-6 2q-1 16 -4 33t-8 36q-4 19 -10 38.5t-13 39.5l27 12q11 -37 26.5 -63.5t36.5 -44.5t50.5 -27t66.5 -9q35 0 62 12.5t46 37.5q20 26 29.5 55
t9.5 62t-8 59.5t-25 46.5q-16 20 -41 30t-59 10q-11 0 -21 -1.5t-19 -4.5t-16.5 -6t-15.5 -6q-1 -1 -2.5 -1.5t-3.5 -0.5q-1 -1 -2 -1.5t-2 -0.5l-7 8l12 53q1 -1 2 -1.5t2 -0.5q0 -1 1 -1h2h4h4h0.5h1.5q0 -1 0.5 -1h0.5h2h2h2h3q1 -1 2.5 -1h2.5h6h6q29 0 52.5 10t41.5 30
q17 20 27 41.5t12 45.5v1.5v1.5v0.5v1.5v3.5v2.5q0 25 -9 46t-27 37q-18 17 -39 25t-46 8h-3h-3q-2 -1 -3.5 -1h-3.5h-3t-3 -1q-2 0 -3.5 -0.5t-3.5 -0.5q-16 -3 -30 -9t-28 -14q-13 -9 -22.5 -18t-14.5 -19v-0.5v-0.5q-1 -1 -1 -1.5v-0.5q-1 -1 -1 -1.5v-0.5l-18 -54h-31v0
v0z" />
    <glyph glyph-name="four" unicode="4" horiz-adv-x="500" 
d="M280 181h-267l-11 23l283 463l74 27l12 -5q-2 -13 -3.5 -40t-2.5 -69t-1 -91.5v-106.5v-137q1 -1 2 -1.5t2 -0.5h1h2h4h4h3.5h2.5h4h4h10h10h10t10 1h9.5h9.5t10 0.5t10 1.5v-69q-12 0 -24.5 0.5t-26.5 0.5h-14t-14 1h-15h-14v-73q0 -27 3.5 -43t10.5 -22q8 -6 19 -9
t27 -4l48 -1v-30h-6.5h-6.5q-4 1 -7.5 1h-6.5h-13.5h-12.5h-3h-3q-2 1 -3.5 1h-3.5h-3h-3h-3.5h-3.5h-10h-10q-5 1 -10 1h-10h-19.5h-19.5h-13.5h-12.5h-13.5h-13.5q-13 0 -26 -0.5t-26 -1.5h-13.5h-12.5h-6t-6 -1h-7h-6v30l62 3q16 -1 27.5 2t18.5 9t10.5 22t3.5 41v77v0v0
zM280 245v349h-2l-213 -349h215v0v0z" />
    <glyph glyph-name="five" unicode="5" horiz-adv-x="500" 
d="M127 605l-9 -209q15 8 32 17t35 16q18 8 36 11.5t37 3.5q44 0 80 -13t64 -39q29 -25 43 -61t14 -81q0 -57 -22 -105t-66 -86t-92.5 -57.5t-101.5 -21.5h-2.5h-2.5h-2h-2q-5 0 -11 0.5t-12 1.5q-7 1 -13.5 1.5t-13.5 1.5q-8 1 -15.5 3.5t-15.5 4.5q-7 3 -13.5 5t-11.5 4
q-1 4 -2.5 8t-2.5 9q-2 4 -3 8t-3 8q-3 8 -6 16.5t-6 17.5q-1 4 -3 8t-3 8q-2 4 -3.5 8.5t-3.5 8.5q-1 4 -3 8t-3 9q-2 4 -3.5 8t-3.5 8l24 16l46 -82q5 -9 11.5 -15.5t16.5 -11.5q10 -4 20.5 -8t20.5 -6q6 -1 12.5 -2t13.5 -2q6 -1 12 -1h11q43 0 75 12t54 36t33 56t11 71
q0 40 -10.5 72t-30.5 56q-21 24 -49.5 36.5t-65.5 12.5q-16 0 -30.5 -2.5t-25.5 -7.5q-12 -5 -22.5 -12.5t-21.5 -16.5l-2.5 -2.5t-3.5 -2.5q-1 -2 -2.5 -3t-3.5 -3l-2.5 -2.5l-2.5 -2.5l-3 -3l-3 -3l-20 8q1 8 2 28t2 50t1.5 63t0.5 67v6.5v7.5v8v8v33v32t-0.5 30t-1.5 27
l5 7q4 -2 7.5 -2.5t7.5 -0.5q3 -1 6.5 -1h7.5h6.5h7.5q4 -1 7.5 -1h7.5q14 -1 28.5 -1.5t29.5 -0.5h28.5h29.5h29.5h28.5t28.5 0.5t29.5 1.5h7.5t7.5 1h6.5h7.5h7.5t7.5 1q3 0 6.5 0.5t7.5 0.5l5 -3q-1 -4 -1.5 -7t-0.5 -5v-5.5v-4.5v-5.5v-4.5v-5.5v-4.5v-10v-10v-4.5
t1 -4.5q0 -3 0.5 -5.5t0.5 -4.5l-5 -3q-35 -2 -69 -2t-67 1q-33 0 -66 1l-66 2h-4.5h-4.5h-5.5h-4.5h-4.5t-4.5 1h-4.5h-4.5v2v0z" />
    <glyph glyph-name="six" unicode="6" horiz-adv-x="500" 
d="M242 -20q-58 0 -98.5 20t-64.5 61t-35.5 87t-11.5 96q0 83 24.5 154.5t73.5 130.5t111 98.5t138 59.5l37 -15v-8q-65 -20 -115.5 -49.5t-85.5 -69.5t-56 -94t-28 -122q7 5 13.5 10t12.5 10q3 2 6 4.5t6 5.5q3 2 6 4.5t6 4.5q12 8 24 15t25 13q13 5 28.5 8t33.5 3
q42 0 74.5 -13.5t55.5 -40.5t34.5 -61t11.5 -76q0 -52 -16.5 -94.5t-49.5 -75.5q-33 -34 -73 -50t-87 -16v0v0zM251 349q-4 -2 -7.5 -2.5t-7.5 -0.5q-4 -1 -7.5 -1.5t-7.5 -1.5q-14 -3 -27.5 -9t-26.5 -15t-22 -19.5t-14 -23.5q-2 -5 -3.5 -10.5t-2.5 -10.5t-1.5 -10.5
t-0.5 -10.5v-2.5v-2.5v-3v-3v-2.5v-2.5v-3v-3v-1.5v-1.5v-1.5v-1.5v-6v-6q0 -4 0.5 -7t0.5 -6q0 -7 0.5 -13.5t1.5 -12.5q4 -27 13 -51.5t23 -47.5q14 -22 37.5 -33.5t54.5 -11.5t53.5 11.5t37.5 33.5q15 23 24 47.5t12 51.5v6.5v7.5v3.5t1 3.5v3v4q0 31 -7.5 59.5
t-22.5 53.5q-15 26 -40.5 38.5t-60.5 12.5v2v0z" />
    <glyph glyph-name="seven" unicode="7" horiz-adv-x="500" 
d="M56 10l244 392q7 10 13.5 21t13.5 23q7 11 14 23t14 25l12.5 25t13.5 26q7 14 14 27.5t14 28.5l-267 2q-18 -2 -29 -5t-16 -9t-9 -19.5t-7 -34.5v-1.5v-0.5v-1.5v-0.5l-7 -54h-30v7v8v4t1 5v4v4v9t1 9v8.5v8.5v9t1 9v8.5v8.5v8v9q-1 4 -1 8.5v8.5v8v9q-1 4 -1 8.5v8.5v4
v5q-1 2 -1 4v4v9.5v8.5l10 7q27 -2 54.5 -3.5t55.5 -2.5t55.5 -1h55.5h55.5t55.5 1t55.5 2t55.5 2v-28l-183 -329q-6 -12 -12 -22.5t-11 -21.5q-6 -10 -11.5 -20.5t-10.5 -21.5q-16 -32 -31.5 -63.5t-29.5 -63.5q-14 -31 -27 -61.5t-24 -58.5h-2h-2q-1 1 -2 1h-2h-2h-1h-2
h-2h-1.5h-0.5q-1 1 -1.5 1h-0.5h-2h-2h-2.5h-3.5q-1 1 -2.5 1h-3.5h-2.5h-2.5h-3h-3h-6h-6h-2.5t-2.5 -1h-3h-3h-2h-2h-1.5t-0.5 -1h-1.5h-0.5h-4h-4h-2t-1 -1h-2h-2l-9 13v0v0z" />
    <glyph glyph-name="eight" unicode="8" horiz-adv-x="500" 
d="M259 689q34 -2 64.5 -11t57.5 -26q27 -18 41 -45.5t14 -65.5q0 -25 -8 -46t-24 -39t-33.5 -33.5t-36.5 -29.5q-1 -1 -2.5 -2t-2.5 -1q-2 -1 -3 -2t-3 -2q-3 -2 -5.5 -3.5t-4.5 -3.5q30 -13 57 -29.5t49 -34.5q23 -19 34 -46.5t11 -64.5q0 -48 -18 -88t-54 -72
q-36 -33 -76.5 -48.5t-87.5 -15.5q-41 0 -76 11.5t-64 34.5q-29 24 -43.5 57.5t-14.5 76.5q0 32 10 60.5t30 52.5t45 41.5t53 28.5q-26 16 -47 33t-37 35t-23.5 40.5t-7.5 50.5q0 44 15 78.5t46 58.5t67 36t78 12v2v0zM284 295l-80 36q-27 -17 -47 -35t-32 -38
q-12 -21 -18 -45t-6 -52q0 -34 10 -61.5t29 -47.5q20 -20 46.5 -30t60.5 -10q29 0 53.5 11.5t43.5 33.5q20 23 30 47.5t11 51.5v1.5v1.5v1.5v1.5q0 20 -5 37t-16 30q-10 14 -22 25t-25 20q-2 2 -4 3t-4 3q-3 1 -5 2.5t-4 2.5q-4 2 -8 4.5t-8 3.5v2v0zM223 423l55 -27
q19 10 35 24t29 30q13 17 19.5 37t6.5 43q0 27 -8 49t-24 39t-37.5 26t-49.5 9t-49.5 -7.5t-38.5 -22.5q-16 -15 -24.5 -36t-8.5 -49q0 -19 6.5 -35.5t19.5 -30.5q13 -13 27 -24.5t30 -20.5q2 -1 3.5 -1.5t2.5 -1.5q2 -1 3.5 -1.5t2.5 -1.5v2v0z" />
    <glyph glyph-name="nine" unicode="9" horiz-adv-x="500" 
d="M96 -20l-34 17v8q63 13 115.5 42t94.5 73t64 98.5t24 119.5l-70 -56q-4 -5 -10 -8.5t-12 -5.5q-3 -1 -6 -2.5t-6 -2.5q-4 -1 -7 -2l-6 -2l-10 -2l-10 -2t-9.5 -1h-8.5q-45 0 -79 14.5t-58 44.5q-24 29 -36 64.5t-12 77.5q0 48 16 89t47 75q32 34 72.5 51t89.5 17
q50 0 89 -18.5t67 -55.5t42 -85.5t14 -108.5q0 -76 -21.5 -143.5t-63.5 -127.5q-43 -60 -112 -102t-164 -66v0v0zM242 317q30 -2 53.5 9.5t40.5 33.5q17 23 25.5 49t8.5 55v6v6q-1 3 -1 6.5v6.5q-1 7 -1.5 13.5t-1.5 13.5q-4 26 -13.5 49.5t-23.5 45.5q-14 21 -35.5 32
t-50.5 11v0v0h-1v0v0v0h-1v0q-39 -1 -65.5 -14t-40.5 -39q-14 -25 -21.5 -53.5t-7.5 -59.5v-1.5v-0.5v0v0v-1v0v-4v-4v-4t1 -4q2 -29 11 -55.5t25 -50.5q17 -24 41.5 -36t57.5 -12v2v0z" />
    <glyph glyph-name="colon" unicode=":" 
d="M123 -5q-12 0 -22 3.5t-18 12.5q-9 9 -13 19t-4 21t4 21t13 19t19 13.5t21 4.5t21.5 -4.5t19.5 -13.5t13.5 -19t4.5 -21t-4.5 -21t-13.5 -19t-19 -12.5t-22 -3.5v0v0zM123 340q-12 -2 -22 2.5t-18 13.5q-9 9 -13 19t-4 21t4 21t13 19t19 13.5t21 4.5t21.5 -4.5
t19.5 -13.5t13.5 -19t4.5 -21t-4.5 -21t-13.5 -19t-19 -13.5t-22 -4.5v2v0z" />
    <glyph glyph-name="semicolon" unicode=";" 
d="M204 125l14 -14q-12 -35 -28 -67.5t-36 -60.5q-19 -30 -40 -59.5t-43 -57.5l-41 -19l-14 11q17 27 31.5 55.5t27.5 57.5t20.5 59.5t10.5 62.5q8 2 15.5 4t14.5 4q4 1 7.5 2t7.5 2q3 1 6.5 2.5t7.5 2.5q2 1 4.5 1.5t5.5 1.5q2 1 4.5 1.5t4.5 1.5t4.5 2t5.5 2q2 0 4.5 1
t5.5 2v2v0zM150 340q-12 -2 -22 2.5t-18 13.5q-9 9 -13 19t-4 21t4 21t13 19t19 13.5t21 4.5t21.5 -4.5t19.5 -13.5t13.5 -19t4.5 -21t-4.5 -21t-13.5 -19t-19 -13.5t-22 -4.5v2v0z" />
    <glyph glyph-name="less" unicode="&#x3c;" horiz-adv-x="606" 
d="M558 60v-60l-501 234v54l501 234v-60l-432 -203l432 -199v0v0z" />
    <glyph glyph-name="equal" unicode="=" horiz-adv-x="606" 
d="M555 192v-56h-504v56h504v0v0zM555 386v-56h-504v56h504v0v0z" />
    <glyph glyph-name="greater" unicode="&#x3e;" horiz-adv-x="606" 
d="M48 60l432 199l-432 203v60l501 -234v-54l-501 -234v60v0v0z" />
    <glyph glyph-name="question" unicode="?" horiz-adv-x="444" 
d="M198 -5q-12 0 -22 3.5t-18 12.5q-9 9 -13 19t-4 21t4 21t13 19t19 13.5t21 4.5t21.5 -4.5t19.5 -13.5t13.5 -19t4.5 -21t-4.5 -21t-13.5 -19t-19 -12.5t-22 -3.5v0v0zM43 546l38 113q5 1 10.5 3.5t11.5 5.5q6 2 12.5 4.5t12.5 4.5q13 5 26 8.5t26 4.5h3.5t3.5 1h3h3h3.5
t3.5 1h3h3q37 0 70 -10t61 -30q29 -19 43.5 -48.5t14.5 -67.5q0 -25 -8 -47.5t-24 -42.5q-16 -19 -33.5 -38t-36.5 -36q-12 -10 -23 -20.5t-22 -19.5q-10 -10 -19 -19.5t-17 -18.5q-5 -7 -9 -13.5t-7 -12.5q-3 -7 -4 -13.5t-1 -12.5q0 -7 1 -13.5t4 -11.5t6 -9.5t7 -9.5
q0 -1 0.5 -1.5l1.5 -1.5q0 -1 0.5 -1.5t1.5 -0.5l-21 -12q-10 4 -18 11.5t-14 17.5t-9 20.5t-3 21.5q0 14 4 26.5t12 25.5t17.5 25.5t20.5 25.5l4.5 4.5l5.5 5.5q2 3 4.5 6t5.5 6v0l1 1v0v0l0.5 0.5l1.5 1.5q14 16 27.5 32.5t25.5 32.5q12 17 18 34.5t6 36.5q0 23 -8.5 42.5
t-25.5 35.5q-16 16 -37.5 24t-47.5 8q-16 0 -30.5 -2.5t-26.5 -7.5q-12 -4 -20.5 -12.5t-13.5 -19.5l-20 -46l-29 8v0v0z" />
    <glyph glyph-name="at" unicode="@" horiz-adv-x="747" 
d="M658 171h61q-23 -44 -56 -79t-77 -61q-43 -25 -89.5 -38t-96.5 -13q-77 0 -143 23.5t-122 72.5q-55 48 -83 111t-28 140t26.5 141.5t78.5 117.5q53 53 118.5 79.5t144.5 26.5q63 0 120.5 -19.5t108.5 -57.5q51 -39 77 -91t26 -117q0 -48 -14 -90t-43 -79q-28 -37 -59 -61
t-65 -36q-7 -2 -13.5 -3.5t-12.5 -3.5q-7 -1 -13.5 -1.5t-12.5 -0.5q-19 0 -33 6.5t-23 19.5q-9 14 -14 28t-6 30q-1 -2 -2.5 -4t-2.5 -3q-2 -2 -3 -3.5t-3 -3.5q-3 -3 -5.5 -6t-4.5 -5q-10 -12 -21.5 -21.5t-22.5 -17.5q-12 -7 -26 -11t-31 -4q-29 0 -53 10.5t-43 31.5
t-28.5 46.5t-9.5 56.5v4.5v4.5v4.5t1 5.5q4 38 22 73.5t49 67.5q32 32 68 48.5t76 16.5q19 0 34 -5t26 -16q11 -10 18 -24t10 -31l2 2l17 66h88l-77 -279q-1 -4 -1.5 -6.5t-0.5 -4.5q-1 -2 -1 -4.5v-4.5q0 -1 -0.5 -1.5l-0.5 -0.5v-1.5v-1.5v-2v-2q0 -6 1 -11t4 -10
q3 -4 8.5 -6.5t13.5 -2.5q6 0 12.5 1.5t13.5 4.5q8 3 15.5 7.5t14.5 10.5q18 14 35 36t33 51q15 29 23 62.5t8 70.5q0 47 -18.5 88t-56.5 77q-37 36 -86 54t-111 18q-68 0 -125 -21.5t-103 -64.5t-69 -98.5t-23 -123.5t23.5 -123.5t70.5 -97.5q47 -43 105 -64t127 -21
q40 0 76 9.5t69 28.5q32 20 59 45.5t49 57.5v2v0zM309 166q20 -2 37.5 8.5t32.5 31.5q14 21 25.5 44t20.5 48q5 15 8.5 30t6.5 30q2 14 3.5 26t1.5 22v2.5v2.5q-1 2 -1 3.5v2.5q0 3 -0.5 6t-1.5 6q-2 9 -6 18t-10 17t-14.5 12t-19.5 4q-21 0 -39.5 -10.5t-34.5 -30.5
t-28.5 -42.5t-21.5 -46.5q-5 -14 -9 -27.5t-6 -26.5q-3 -13 -4 -24t-1 -20v-6v-6v-2.5t1 -2.5q0 -2 0.5 -3t0.5 -3q2 -12 6 -23t11 -22q7 -10 17.5 -15t24.5 -5v2v0z" />
    <glyph glyph-name="A" unicode="A" horiz-adv-x="778" 
d="M408 700l242 -568q1 -3 2 -5.5t2 -4.5q1 -3 2 -5.5t2 -4.5q2 -4 4 -8.5t4 -9.5q2 -4 4 -8.5t4 -8.5l4 -8t4 -7q4 -7 8.5 -12.5t8.5 -10.5q5 -4 10.5 -7t12.5 -4l34 -1v-30h-6h-5q-3 1 -5.5 1h-5.5h-11.5h-10.5q-11 1 -22 1.5t-22 0.5h-22.5h-22.5h-18h-20
q-10 0 -21.5 -0.5t-22.5 -1.5h-6h-6h-7h-6h-6t-7 -1h-6.5h-6.5v30l47 3q8 -1 15 0t13 4q6 2 9.5 6t3.5 8q0 5 -1.5 10.5t-3.5 12.5q-3 8 -6 15.5t-6 15.5v0v1q-1 0 -1 0.5v0.5v0.5v1.5q-1 0 -1.5 1t-0.5 2v0.5v1.5q-1 0 -1 0.5v0.5l-46 117h-288l-28 -67q-1 -3 -2 -5t-1 -4
q-1 -2 -2 -4.5t-2 -5.5l-2 -6t-2 -5q-2 -3 -3 -6l-2 -6q-1 -1 -1.5 -2.5t-0.5 -3.5q0 -1 -0.5 -1.5l-0.5 -0.5q-1 -1 -1 -1.5v-1.5l-6 -16t-5 -16q-2 -7 -3 -12.5t-1 -8.5q0 -8 3 -13.5t9 -7.5q6 -3 15 -4.5t21 -2.5l37 -1v-30h-6h-6q-3 1 -5.5 1h-5.5h-11.5h-10.5
q-10 1 -19.5 1.5t-18.5 0.5h-16.5h-15.5h-19.5h-19.5t-19.5 -0.5t-18.5 -1.5h-4.5h-4.5h-5.5h-4.5h-4.5t-4.5 -1h-5.5h-4.5v30l37 3q9 -1 17 3t15 11t12.5 15t9.5 18l178 407q3 7 6.5 14.5t7.5 15.5q3 8 6.5 16t7.5 16q5 10 9.5 20t8.5 20l4 10t5 10l4 10l4 10q4 9 7.5 18
t7.5 18q3 9 6.5 18t7.5 18l32 2v0v0zM240 269h253l-126 298l-127 -298v0v0z" />
    <glyph glyph-name="B" unicode="B" horiz-adv-x="611" 
d="M113 95v474q0 13 -0.5 24.5t-1.5 21.5q-1 9 -3 16t-4 11t-5.5 7t-8.5 4q-5 2 -12 2.5t-16 1.5l-36 5v30q2 -2 3.5 -2h2.5h3.5h2.5h5.5h5.5q2 -1 4.5 -1h5.5h10.5h11.5q13 -1 25 -1.5t24 -0.5h22h18h3.5h2.5h4h4h25h26q14 0 27.5 0.5t28.5 1.5h16.5h17.5h9.5t8.5 1h10h10
h0.5h1.5h0.5h1.5h0.5h1.5h0.5h1.5q34 0 64 -8t55 -23q26 -15 39 -42t13 -65q0 -33 -12.5 -60t-37.5 -48t-52 -34.5t-57 -19.5h-1.5h-0.5q-1 -1 -1.5 -1h-0.5h-2h-2v0q38 -2 73 -12t66 -28t46.5 -49t15.5 -75q0 -8 -0.5 -16.5t-2.5 -17.5q-1 -9 -3 -17.5t-5 -16.5
q-10 -31 -31 -58.5t-53 -53.5q-31 -25 -77.5 -36.5t-107.5 -11.5h-3.5h-3.5h-2.5h-3.5h-4.5h-4.5q-3 1 -5.5 1h-4.5h-8.5h-9.5q-9 1 -18 1.5t-18 0.5h-18h-18h-9h-9h-9.5h-9.5q-9 0 -18 -0.5t-18 -1.5h-8.5h-9.5h-4.5t-4.5 -1h-4.5h-4.5v23l26 10q6 1 10 6t6 12q2 8 3.5 16
t2.5 17v3.5v2.5v3.5v2.5v2v0zM208 362v-315q3 -2 6.5 -3.5t7.5 -1.5q3 -1 6.5 -1.5t7.5 -0.5l14 -2t14 -1h14.5h13.5q41 0 74 11.5t58 33.5q24 23 36.5 54.5t12.5 71.5q0 41 -12.5 70.5t-38.5 47.5q-25 18 -62 27t-85 9h-10h-10q-5 -1 -9 -1h-8h-8h-8q-3 -1 -7 -1h-7v2v0z
M208 644v-243q7 -2 14.5 -3t16.5 -1h19h21q32 0 60.5 7.5t53.5 22.5t37.5 41.5t12.5 63.5q0 36 -11 59.5t-33 35.5q-22 11 -48.5 17t-58.5 6h-6.5h-7.5q-3 -1 -6.5 -1h-7.5q-7 0 -14 -0.5t-14 -1.5q-4 -1 -7.5 -1.5t-6.5 -0.5q-4 -1 -7.5 -1.5t-6.5 -1.5v2v0z" />
    <glyph glyph-name="C" unicode="C" horiz-adv-x="709" 
d="M670 84l-28 -50q-12 -8 -25 -14.5t-28 -11.5q-7 -2 -14.5 -4t-14.5 -4q-8 -1 -15 -3t-15 -4q-15 -3 -29 -5.5t-28 -3.5q-13 -2 -25.5 -3t-23.5 -1q-90 0 -162.5 23.5t-128.5 71.5q-55 48 -83 115t-28 152q0 43 8 81.5t24 72.5t38.5 62.5t51.5 52.5q28 23 60.5 41t69.5 30
q38 12 77.5 18.5t81.5 6.5q27 0 53 -2t51 -7q26 -4 48 -9.5t41 -10.5q5 -1 10.5 -2.5t9.5 -3.5q5 -1 9.5 -2.5t8.5 -3.5q-3 -15 -6 -30.5t-6 -32.5q-1 -8 -2.5 -16.5t-1.5 -16.5q-1 -9 -1.5 -17.5t-0.5 -16.5q0 -1 -0.5 -2.5t-0.5 -2.5v-3v-3v-2.5v-2.5v-3v-3l-31 2v72
q0 9 -6.5 17.5t-19.5 15.5t-28 13.5t-32 13.5q-8 2 -16.5 4.5t-17.5 4.5q-4 1 -9 1.5t-9 1.5q-5 1 -9.5 1.5t-9.5 1.5h-6t-5 1h-5.5h-4.5h-5.5t-4.5 1h-5.5h-4.5q-70 0 -124 -22.5t-90 -67.5q-37 -45 -55 -99t-18 -118q0 -74 22.5 -133.5t67.5 -103.5q45 -45 105 -67
t134 -22h14t14 1q7 0 14 1.5t14 2.5q21 3 41.5 8.5t39.5 12.5q20 8 36.5 16t29.5 18l9 -8v0v0z" />
    <glyph glyph-name="D" unicode="D" horiz-adv-x="774" 
d="M113 95v474q0 13 -0.5 24.5t-1.5 21.5q-1 9 -3 16t-4 11t-5.5 7t-8.5 4q-5 2 -12 2.5t-16 1.5l-40 5v30q8 -2 16.5 -2.5t16.5 -0.5h16.5h16.5h6h7q3 -1 6.5 -1h6.5h12.5h13.5q10 -1 19.5 -1h19.5h20h20h32.5h31.5t31 0.5t29 1.5h13.5h12.5h6t6 1h6h6h1.5h1.5h2h2h1.5h1.5
h2h2q74 0 135.5 -20t110.5 -61q49 -40 73.5 -96.5t24.5 -127.5q0 -61 -15.5 -116.5t-46.5 -103.5q-31 -49 -69.5 -82.5t-83.5 -52.5q-22 -9 -44.5 -15t-45.5 -11q-24 -4 -50.5 -5.5t-56.5 -1.5h-4h-4h-4.5h-4.5h-5.5h-4.5q-3 1 -5.5 1h-5.5h-10h-10t-10.5 0.5t-10.5 0.5
q-6 1 -11.5 1h-10.5h-22.5h-22.5h-4h-4h-5h-4h-4h-4h-5h-4h-7.5t-6.5 -1h-7.5h-6.5h-14t-14 -1h-6h-5h-6h-6h-6t-5 -1h-6h-6v23l31 16q6 2 11 7.5t8 13.5t4.5 17t1.5 19v2v0zM208 644v-595q6 -3 13 -4.5t16 -2.5q8 -1 17 -1.5t18 -0.5q6 -1 12.5 -1h13.5h12h12q14 0 28 0.5
t29 1.5t30 3.5t31 6.5q5 2 10.5 4t11.5 4l6 2l6 2l5 2.5t6 2.5q41 19 71.5 47.5t49.5 65.5q19 38 28.5 81.5t9.5 94.5q0 93 -23.5 152.5t-70.5 86.5q-46 27 -103 40.5t-125 13.5h-12h-12h-6.5h-6.5q-4 -1 -7 -1h-6q-9 -1 -18 -1.5t-17 -1.5q-9 -1 -16 -1.5t-13 -2.5v2v0z
" />
    <glyph glyph-name="E" unicode="E" horiz-adv-x="611" 
d="M121 120v449q0 13 -0.5 24.5t-1.5 21.5q-1 9 -3 16t-4 11t-5.5 7t-8.5 4q-5 2 -12 2.5t-16 1.5l-48 5v30q7 -2 14 -2.5t14 -0.5h14h14q14 -1 28 -1.5t28 -0.5h28.5h28.5h8h8h4h5h4h4h24h24t24 0.5t24 1.5h30h28h13.5t12.5 1h12h11h16.5h17.5q8 -1 16.5 -1h16.5
q17 0 32 -0.5t30 -1.5q-3 -12 -5.5 -24t-4.5 -25q-1 -7 -1.5 -13.5t-1.5 -12.5q0 -7 -0.5 -13.5t-0.5 -13.5q-1 -7 -1.5 -13.5t-0.5 -12.5v-12v-12l-35 2v65q0 4 -0.5 7.5t-1.5 7.5t-2.5 6.5t-4.5 3.5q-13 5 -27 8.5t-30 5.5q-8 1 -16 1.5t-16 1.5q-9 1 -17 1.5t-16 1.5h-10
t-9 1h-9.5h-9.5h-18h-18h-6.5h-7.5q-3 -1 -6.5 -1h-7.5q-7 0 -14 -0.5t-14 -1.5q-4 -1 -7.5 -1.5t-6.5 -0.5q-4 -1 -7.5 -1.5t-6.5 -1.5v-265q12 -2 25 -3t27 -1q14 -1 30 -1h34q23 0 41 1t31 2q13 2 21.5 3.5t12.5 4.5q2 2 3 4t2 5t1.5 7.5t1.5 9.5l5 54h30v-7v-5
q-1 -3 -1 -5.5v-4.5v-10v-10q-1 -10 -1.5 -20t-0.5 -19v-9v-9v-9.5v-9.5v-4.5v-4.5v-5.5v-4.5v-8.5t1 -9.5v-9.5v-9.5v-8.5t1 -9.5v-9.5v-9.5v-4.5t1 -4.5v-4.5v-4.5l-30 2l-5 59q-1 4 -1.5 7.5t-1.5 6.5t-2 5.5t-3 3.5q-4 3 -12.5 5.5t-21.5 3.5q-13 2 -31 2.5t-41 0.5
h-17.5h-16.5q-9 -1 -16.5 -1h-14.5q-14 0 -27 -0.5t-24 -1.5v-278q3 -2 6.5 -3.5t7.5 -1.5q3 -1 6.5 -1.5t7.5 -0.5l14 -2t14 -1h14.5h13.5h12h12h12h13q26 0 50.5 1.5t46.5 2.5q23 2 36.5 4t19.5 5q5 3 10.5 12t9.5 24q5 15 8.5 34.5t6.5 41.5l35 2q-3 -13 -5 -25.5
t-4 -26.5q-1 -7 -1.5 -13.5t-1.5 -12.5q-1 -7 -1.5 -13.5t-0.5 -13.5q0 -4 -0.5 -8t-0.5 -7q-1 -4 -1 -8v-8v-14.5v-13.5h-12h-13h-6.5t-7.5 -1h-7.5h-7.5h-13.5t-13.5 -1h-14h-15h-14.5t-14.5 -1h-15h-15h-7.5h-6.5h-7.5h-6.5h-4.5h-4.5h-5.5h-4.5h-8.5h-9.5q-5 1 -10 1
h-10h-8.5h-9.5h-4.5h-4.5h-4.5h-4.5q-16 1 -32.5 1.5t-32.5 0.5h-31h-29h-18h-17t-16 -0.5t-16 -1.5h-1.5h-1.5h-1.5h-0.5h-4h-4h-5h-4h-4.5t-4.5 -1h-4.5h-4.5v30l36 3q9 -1 16 0.5t12 2.5q5 2 8.5 4t5.5 6t4 10.5t3 16.5t1.5 22t0.5 26v2v0z" />
    <glyph glyph-name="F" unicode="F" horiz-adv-x="556" 
d="M216 327v-207q0 -16 0.5 -28t1.5 -22t2.5 -16.5t4.5 -10.5q2 -4 6 -6.5t8 -4.5q5 -1 12 -2.5t16 -1.5l48 -1v-30q-19 1 -38 1.5t-37 0.5q-18 1 -35.5 1h-34.5h-10.5h-10.5h-10.5h-10.5h-13.5t-12.5 -1h-13.5h-12.5q-13 0 -26.5 -0.5t-27.5 -1.5v30l48 3q9 -1 16 0t12 2
q5 2 8.5 4.5t5.5 6.5t4 10.5t3 16.5t1.5 22t0.5 26v451q0 13 -0.5 24.5t-1.5 21.5q-1 9 -3 16t-4 11t-5.5 7t-8.5 4q-5 2 -12 2.5t-16 1.5l-48 5v30q7 -2 14 -2.5t14 -0.5h14h14q14 -1 28 -1.5t28 -0.5h28.5h28.5h21.5h22.5h12t12 1h12h12h4.5h5.5h4.5t5.5 1h28.5h27.5h13.5
t12.5 1h11.5h10.5h16.5h17.5q8 -1 16.5 -1h16.5q17 0 32 -0.5t30 -1.5q-3 -12 -5.5 -24t-4.5 -25q-1 -7 -1.5 -13.5t-1.5 -12.5q0 -7 -0.5 -13.5t-0.5 -13.5q-1 -7 -1.5 -13.5t-0.5 -12.5v-12v-12l-35 2v65q0 4 -0.5 7.5t-1.5 7.5t-2.5 6.5t-4.5 3.5q-9 3 -18 5.5t-19 4.5
l-10 2l-10 2q-5 0 -10 1l-10 2q-14 2 -27.5 2.5t-26.5 0.5h-13t-12 1h-10h-10h-6.5h-7.5q-3 -1 -6.5 -1h-7.5q-7 0 -14 -0.5t-14 -1.5q-4 -1 -7.5 -1.5t-6.5 -0.5q-4 -1 -7.5 -1.5t-6.5 -1.5v-265q12 -2 25 -3t27 -1q14 -1 30 -1h34q23 0 41 1t31 2q13 2 21.5 3.5t12.5 4.5
q2 2 3 4t2 5t1.5 7.5t1.5 9.5l5 54h30v-7v-5q-1 -3 -1 -5.5v-4.5v-10v-10q-1 -10 -1.5 -20t-0.5 -19v-9v-9v-9.5v-9.5v-4.5v-4.5v-5.5v-4.5v-8.5t1 -9.5v-9.5v-9.5v-8.5t1 -9.5v-9.5v-9.5v-4.5t1 -4.5v-4.5v-4.5l-30 2l-5 59q-1 4 -1.5 7.5t-1.5 6.5t-2 5.5t-3 3.5
q-4 3 -12.5 5.5t-21.5 3.5q-13 2 -31 2.5t-41 0.5h-17.5h-16.5q-9 -1 -16.5 -1h-14.5q-14 0 -27 -0.5t-24 -1.5v2v0z" />
    <glyph glyph-name="G" unicode="G" horiz-adv-x="763" 
d="M596 98v101q0 7 -2 13t-5 10q-4 5 -10.5 7t-16.5 3l-83 9v30q8 -2 15.5 -2.5t15.5 -0.5q7 -1 15 -1h15h15.5h15.5h15h15h15.5h15.5h15h15q15 0 30.5 0.5t31.5 1.5l4 -23l-29 -10q-4 -3 -6.5 -5.5t-3.5 -5.5t-1 -10v-18v-166q-1 -2 -1.5 -2.5l-0.5 -0.5q-1 -1 -1.5 -1
h-1.5h-1.5h-0.5q-1 -1 -1.5 -1h-1.5q-10 -3 -21.5 -6t-22.5 -6t-22.5 -6t-22.5 -5q-22 -4 -44.5 -8t-43.5 -8q-22 -3 -40.5 -5t-35.5 -2q-84 0 -155 21.5t-130 66.5q-59 44 -88.5 113.5t-29.5 163.5q0 83 30 148.5t90 114.5q60 50 135.5 74.5t166.5 24.5q30 0 57 -2t50 -6
t43 -7.5t38 -8.5q9 -3 17.5 -5.5t15.5 -4.5q8 -2 14.5 -3.5t12.5 -3.5q-4 -15 -7.5 -30.5t-5.5 -32.5q-1 -8 -2.5 -16.5t-2.5 -16.5q0 -9 -1 -17.5t-1 -16.5v-2.5v-2.5v-3v-3v-2.5v-2.5v-3v-3l-31 2v53q0 16 -6 28t-17 20t-25 15t-31 13h-0.5t-0.5 1h-1v0h-0.5t-0.5 1h-1v0
q-12 4 -26.5 7t-31.5 6q-16 2 -37 3.5t-45 1.5q-71 0 -125 -21.5t-91 -63.5t-55 -96.5t-18 -121.5q0 -75 21 -136.5t63 -109.5t101.5 -72t136.5 -24q29 0 53.5 2.5t43.5 8.5q20 5 30.5 11t12.5 13v0.5t1 1.5v0.5v0.5v0.5t1 1.5v0.5v1.5q1 3 1.5 6t0.5 7v4t1 4v6v7v2v0z" />
    <glyph glyph-name="H" unicode="H" horiz-adv-x="832" 
d="M711 569v-449q0 -16 0.5 -28t1.5 -22t2.5 -16.5t4.5 -10.5q2 -4 6 -6.5t8 -4.5q5 -1 12 -2.5t16 -1.5l48 -1v-30q-19 1 -38 1.5t-37 0.5q-18 1 -35.5 1h-34.5h-10.5h-10.5h-10.5h-10.5h-13.5t-12.5 -1h-13.5h-12.5q-13 0 -26.5 -0.5t-27.5 -1.5v30l48 3q9 -1 16 0t12 2
q5 2 8.5 4.5t5.5 6.5t4 10.5t3 16.5t1.5 22t0.5 26v225q-4 -1 -11.5 -1h-18.5h-11t-12 1h-14.5h-15.5l-234 2q-16 -2 -29.5 -2.5t-24.5 -0.5h-9.5h-7.5q-4 -1 -7 -1h-5v-221q0 -16 0.5 -28t1.5 -22t2.5 -16.5t4.5 -10.5q2 -4 6 -6.5t8 -4.5q5 -1 12 -2.5t16 -1.5l48 -1v-30
q-19 1 -38 1.5t-37 0.5q-18 1 -35.5 1h-34.5h-10.5h-10.5h-10.5h-10.5h-13.5t-12.5 -1h-13.5h-12.5q-13 0 -26.5 -0.5t-27.5 -1.5v30l48 3q9 -1 16 0t12 2q5 2 8.5 4.5t5.5 6.5t4 10.5t3 16.5t1.5 22t0.5 26v451q0 13 -0.5 24.5t-1.5 21.5q-1 9 -3 16t-4 11t-5.5 7t-8.5 4
q-5 2 -12 2.5t-16 1.5l-48 5v30q14 -2 27.5 -3t26.5 -1h12.5h13.5q6 -1 12.5 -1h13.5h10.5h10.5h10.5h10.5h34.5t35.5 1q18 0 37 0.5t38 1.5v-28l-48 -3q-4 -2 -8.5 -2.5t-7.5 -0.5q-4 -1 -7 -1.5t-5 -1.5q-4 -1 -8 -4t-6 -7q-3 -4 -4.5 -11t-2.5 -16q-1 -10 -1.5 -22
t-0.5 -26v-176q5 -2 12 -3t17 -1h24.5h29.5l234 2q17 -2 30 -2h23q11 0 18.5 0.5t11.5 1.5v180q0 13 -0.5 24.5t-1.5 21.5q-1 9 -3 16t-4 11t-5.5 7t-8.5 4q-5 2 -12 2.5t-16 1.5l-48 5v30q14 -2 27.5 -3t26.5 -1h12.5h13.5q6 -1 12.5 -1h13.5h10.5h10.5h10.5h10.5h34.5
t35.5 1q18 0 37 0.5t38 1.5v-28l-48 -3q-4 -2 -8.5 -2.5t-7.5 -0.5q-4 -1 -7 -1.5t-5 -1.5q-4 -1 -8 -4t-6 -7q-3 -4 -4.5 -11t-2.5 -16q-1 -10 -1.5 -22t-0.5 -26v2v0z" />
    <glyph glyph-name="I" unicode="I" horiz-adv-x="337" 
d="M216 569v-449q0 -16 0.5 -28t1.5 -22t2.5 -16.5t4.5 -10.5q2 -4 6 -6.5t8 -4.5q5 -1 12 -2.5t16 -1.5l48 -1v-30q-19 1 -38 1.5t-37 0.5q-18 1 -35.5 1h-34.5h-10.5h-10.5h-10.5h-10.5h-13.5t-12.5 -1h-13.5h-12.5q-13 0 -26.5 -0.5t-27.5 -1.5v30l48 3q9 -1 16 0t12 2
q5 2 8.5 4.5t5.5 6.5t4 10.5t3 16.5t1.5 22t0.5 26v451q0 13 -0.5 24.5t-1.5 21.5q-1 9 -3 16t-4 11t-5.5 7t-8.5 4q-5 2 -12 2.5t-16 1.5l-48 5v30q14 -2 27.5 -3t26.5 -1h12.5h13.5q6 -1 12.5 -1h13.5h10.5h10.5h10.5h10.5h34.5t35.5 1q18 0 37 0.5t38 1.5v-28l-48 -3
q-4 -2 -8.5 -2.5t-7.5 -0.5q-4 -1 -7 -1.5t-5 -1.5q-4 -1 -8 -4t-6 -7q-3 -4 -4.5 -11t-2.5 -16q-1 -10 -1.5 -22t-0.5 -26v2v0z" />
    <glyph glyph-name="J" unicode="J" horiz-adv-x="333" 
d="M212 569v-452v-5v-4v-2.5v-3.5q0 -21 -1.5 -44t-4.5 -48q-3 -24 -12.5 -49.5t-26.5 -51.5q-2 -2 -4 -5l-4 -6t-4.5 -6t-4.5 -6q-13 -16 -29 -30t-34 -26t-38 -18t-42 -6h-2.5h-2.5q-1 1 -1.5 1h-1.5h-2h-2q0 1 -1 1h-2l-7 76l11 6q4 -2 7.5 -4.5t7.5 -3.5q3 -2 7 -3.5
t8 -2.5q5 -2 9.5 -2.5t9.5 -1.5h4.5t5.5 -1h5h6q8 0 14 2t12 6q5 4 9.5 10.5t7.5 14.5q1 4 2 9.5t2 12.5t1.5 13.5t1.5 14.5v7.5v7.5v4t1 3v3.5v3.5v586q0 13 -0.5 24.5t-1.5 21.5q-1 9 -3 16t-4 11t-5.5 7t-8.5 4q-5 2 -12 2.5t-16 1.5l-48 5v30q14 -2 27.5 -3t26.5 -1
h12.5h13.5q6 -1 12.5 -1h13.5h10.5h10.5h10.5h10.5h34.5t35.5 1q18 0 37 0.5t38 1.5v-28l-48 -3q-4 -2 -8.5 -2.5t-7.5 -0.5q-4 -1 -7 -1.5t-5 -1.5q-4 -1 -8 -4t-6 -7q-3 -4 -4.5 -11t-2.5 -16q-1 -10 -1.5 -22t-0.5 -26v2v0z" />
    <glyph glyph-name="K" unicode="K" horiz-adv-x="726" 
d="M216 325v-205q0 -16 0.5 -28t1.5 -22t2.5 -16.5t4.5 -10.5q2 -4 6 -6.5t8 -4.5q5 -1 12 -2.5t16 -1.5l48 -1v-30q-19 1 -38 1.5t-37 0.5q-18 1 -35.5 1h-34.5h-10.5h-10.5h-10.5h-10.5h-13.5t-12.5 -1h-13.5h-12.5q-13 0 -26.5 -0.5t-27.5 -1.5v30l48 3q9 -1 16 0t12 2
q5 2 8.5 4.5t5.5 6.5t4 10.5t3 16.5t1.5 22t0.5 26v451q0 13 -0.5 24.5t-1.5 21.5q-1 9 -3 16t-4 11t-5.5 7t-8.5 4q-5 2 -12 2.5t-16 1.5l-48 5v30q14 -2 27.5 -3t26.5 -1h12.5h13.5q6 -1 12.5 -1h13.5h10.5h10.5h10.5h10.5h34.5t35.5 1q18 0 37 0.5t38 1.5v-28l-48 -3
q-4 -2 -8.5 -2.5t-7.5 -0.5q-4 -1 -7 -1.5t-5 -1.5q-4 -1 -8 -4t-6 -7q-3 -4 -4.5 -11t-2.5 -16q-1 -10 -1.5 -22t-0.5 -26v-212l278 271q1 -1 2 0l2 2t1.5 2t1.5 2q5 5 8.5 9.5t6.5 8.5q3 5 5 8t2 5v29q4 -2 7.5 -2.5t7.5 -0.5h8h8q5 -1 10 -1.5t10 -0.5h10.5h10.5h4h4h4.5
h4.5h14h14t13.5 0.5t13.5 1.5h6h6h3.5t3.5 1h3h3v-28l-42 -2q-1 -1 -3 -1.5t-3 -0.5q-2 -1 -3.5 -1.5t-3.5 -0.5q-4 -1 -7 -1.5t-6 -1.5q-7 -3 -13.5 -6t-12.5 -7q-7 -4 -13.5 -9t-12.5 -11l-266 -238l330 -312q9 -10 18 -17.5t16 -12.5q8 -6 14.5 -9t13.5 -4h21v-30h-2.5
h-2.5q-2 1 -3 1h-2h-5.5h-4.5q-4 1 -8.5 1.5t-9.5 0.5h-8h-8h-2.5h-3.5h-2.5h-3.5h-6h-6h-7h-6h-6t-6 -1q-4 0 -7 -0.5t-6 -0.5h-7.5h-6.5h-4t-3 -1h-4h-4l-348 335l-10 -7v0v0z" />
    <glyph glyph-name="L" unicode="L" horiz-adv-x="611" 
d="M216 569v-522q3 -2 6.5 -3.5t7.5 -1.5q3 -1 6.5 -1.5t7.5 -0.5l14 -2t14 -1h14.5h13.5h17h19h18.5t19.5 1q25 0 48.5 1.5t45.5 3.5t35.5 5.5t17.5 7.5q2 2 4.5 5.5t3.5 9.5l2 6l2 6q0 3 1 6l2 6q0 2 0.5 3.5t1.5 3.5q0 1 0.5 3t0.5 3q1 3 1.5 6t1.5 6l12 52h32
q-1 -5 -1.5 -10t-0.5 -9q-1 -5 -1.5 -9.5t-0.5 -9.5l-2 -18l-2 -18q-1 -13 -2.5 -26.5t-3.5 -26.5l-2 -12t-1 -12q-1 -6 -2 -11.5t-2 -9.5h-12h-13h-6.5t-7.5 -1h-7.5h-7.5h-13.5t-13.5 -1h-14h-15h-14.5t-14.5 -1h-15h-15h-7.5h-6.5h-7.5h-6.5h-11.5h-10.5q-5 1 -10.5 1
h-10.5h-20.5h-19.5q-19 1 -36.5 1.5t-34.5 0.5h-32.5h-31.5h-16.5h-15.5q-7 0 -14 -0.5t-13 -1.5h-5.5h-4.5h-4t-4 -1h-2h-2h-2h-2v23l31 16q6 2 11 7.5t8 13.5t4.5 17t1.5 19v476q0 13 -0.5 24.5t-1.5 21.5q-1 9 -3 16t-4 11t-5.5 7t-8.5 4q-5 2 -12 2.5t-16 1.5l-48 5v30
q14 -2 27.5 -3t26.5 -1h12.5h13.5q6 -1 12.5 -1h13.5h10.5h10.5h10.5h10.5h34.5t35.5 1q18 0 37 0.5t38 1.5v-28l-48 -3q-4 -2 -8.5 -2.5t-7.5 -0.5q-4 -1 -7 -1.5t-5 -1.5q-4 -1 -8 -4t-6 -7q-3 -4 -4.5 -11t-2.5 -16q-1 -10 -1.5 -22t-0.5 -26v2v0z" />
    <glyph glyph-name="M" unicode="M" horiz-adv-x="946" 
d="M827 569v-449q0 -16 0.5 -28t1.5 -22t2.5 -16.5t4.5 -10.5q2 -4 6 -6.5t8 -4.5q5 -1 12 -2.5t16 -1.5l48 -1v-30q-19 1 -38 1.5t-37 0.5q-18 1 -35.5 1h-34.5h-36.5t-34.5 -1q-17 0 -33 -0.5t-30 -1.5v30l34 3q9 -1 16 0.5t12 2.5q5 2 8.5 4t5.5 6t4 10.5t3 16.5t1.5 22
t0.5 26v456h-2q-3 -7 -6 -12.5t-5 -10.5q-1 -3 -2.5 -5.5t-2.5 -4.5q-2 -3 -3 -5.5t-3 -4.5q-3 -5 -5.5 -10.5t-4.5 -10.5q-3 -5 -5.5 -10t-4.5 -10l-178 -376q-4 -11 -8.5 -20.5t-8.5 -19.5t-8 -19.5t-8 -18.5q-1 -1 -1.5 -2t-0.5 -2v-1.5v-0.5q-1 -1 -1 -1.5v-1.5
q-3 -5 -5 -10l-4 -10q-1 -2 -1.5 -3.5t-1.5 -3.5t-2.5 -5.5t-3.5 -7.5h-20l-277 587h-2v-454q0 -16 0.5 -28t1.5 -22t2.5 -16.5t4.5 -10.5q2 -4 6 -6l8 -4q5 -1 12 -2.5t16 -2.5l44 -1v-30h-6h-5q-3 1 -5.5 1h-5.5h-10h-10q-5 1 -10 1h-10h-4.5h-4.5h-5.5h-4.5q-5 1 -10 1
h-10h-4.5h-4.5h-5.5h-4.5h-9h-9h-9.5h-9.5q-10 0 -19.5 -0.5t-19.5 -1.5h-10h-10h-5.5t-4.5 -1h-5.5h-4.5v30l44 3q9 -1 16 0.5t12 2.5q5 2 8.5 4t5.5 6t4 10.5t3 16.5t1.5 22t0.5 26v451q0 13 -0.5 24.5t-1.5 21.5q-1 9 -3 16t-4 11t-5.5 7t-8.5 4q-5 2 -12 2.5t-16 1.5
l-44 5v30q4 -2 7.5 -2.5t7.5 -0.5h8h8q8 -1 16 -1.5t16 -0.5h16h16h16h16t16 0.5t16 1.5h7.5h7.5h4t4 1h4h4l264 -554l262 556q4 -2 8 -2.5t8 -0.5h8h8h2h2q1 -1 2 -1h2h4h4h5.5h5.5q3 -1 6 -1h6h12h12h16h16h8t8 1q3 0 7 0.5t8 0.5h7.5h7.5h4t4 1h3h4v-28l-42 -3
q-4 -2 -8.5 -2.5t-7.5 -0.5q-4 -1 -7 -1.5t-5 -1.5q-4 -1 -8 -4t-6 -7q-3 -4 -4.5 -11t-2.5 -16q-1 -10 -1.5 -22t-0.5 -26v2v0z" />
    <glyph glyph-name="N" unicode="N" horiz-adv-x="831" 
d="M112 120v449q0 13 -0.5 24.5t-1.5 21.5q-1 9 -3 16t-4 11t-5.5 7t-8.5 4q-5 2 -12 2.5t-16 1.5l-44 5v30q5 -2 10.5 -2.5t10.5 -0.5h10.5h11.5q10 -1 19.5 -1.5t19.5 -0.5h19.5h18.5h9.5h8.5q5 0 9.5 0.5t8.5 1.5h4.5h4.5h2t3 1h2h2l478 -588h3v467q0 13 -0.5 24.5
t-1.5 21.5q-1 9 -3 16t-4 11t-5.5 7t-8.5 4q-5 2 -12 2.5t-16 1.5l-44 5v30q5 -2 10 -2.5t10 -0.5h10h10q10 -1 19.5 -1.5t19.5 -0.5h9.5h9.5h9h9h4.5h5.5h4.5h4.5h10t10 1h4.5h5.5h4.5h4.5h10t10 1h10h10h5.5t5.5 1h5h6v-28l-44 -3q-4 -2 -8.5 -2.5t-7.5 -0.5
q-4 -1 -7 -1.5t-5 -1.5q-4 -1 -8 -4t-6 -7q-3 -4 -4.5 -11t-2.5 -16q-1 -10 -1.5 -22t-0.5 -26v-550v-6.5v-4.5v-2.5t1 -2.5v-1.5v-1.5v-0.5v-1.5v-0.5t1 -1.5v-0.5v-1.5v-3.5v-2.5v-1.5t1 -1.5v-1.5v-1.5l-90 16l-471 585h-2v-461q0 -16 0.5 -28t1.5 -22t2.5 -16.5
t4.5 -10.5q2 -4 6 -6l8 -4q5 -1 12 -2.5t16 -2.5l44 -1v-30h-6h-5q-3 1 -5.5 1h-5.5h-10h-10q-5 1 -10 1h-10h-4.5h-4.5h-5.5h-4.5q-5 1 -10 1h-10h-4.5h-4.5h-5.5h-4.5h-9h-9h-9.5h-9.5q-10 0 -19.5 -0.5t-19.5 -1.5h-10h-10h-5.5t-4.5 -1h-5.5h-4.5v30l44 3q9 -1 16 0.5
t12 2.5q5 2 8.5 4t5.5 6t4 10.5t3 16.5t1.5 22t0.5 26v2v0z" />
    <glyph glyph-name="O" unicode="O" horiz-adv-x="786" 
d="M377 -20q-76 0 -139.5 23.5t-114.5 72.5t-76 115.5t-25 150.5q0 77 25 142.5t76 117.5q50 53 119 79t156 26q80 0 146 -22t117 -66q51 -43 77 -107t26 -147q0 -81 -28 -149.5t-84 -124.5q-55 -56 -124 -83.5t-151 -27.5v0v0zM382 667q-65 -2 -113 -22.5t-79 -61.5
q-31 -40 -46 -91t-15 -113v-6v-6v-3v-3q0 -2 0.5 -3.5t0.5 -3.5q2 -63 20 -120t51 -110q33 -52 85 -78t123 -26q62 0 108.5 22t77.5 66t46.5 100.5t15.5 125.5q0 74 -17 134t-51 106q-34 45 -85.5 68t-121.5 23v2v0z" />
    <glyph glyph-name="P" unicode="P" horiz-adv-x="604" 
d="M216 642v-522q0 -16 0.5 -28t1.5 -22t2.5 -16.5t4.5 -10.5q2 -4 6 -6.5t8 -4.5q5 -1 12 -2.5t16 -1.5l48 -1v-30q-19 1 -38 1.5t-37 0.5q-18 1 -35.5 1h-34.5h-10.5h-10.5h-10.5h-10.5h-13.5t-12.5 -1h-13.5h-12.5q-13 0 -26.5 -0.5t-27.5 -1.5v30l48 3q9 -1 16 0t12 2
q5 2 8.5 4.5t5.5 6.5t4 10.5t3 16.5t1.5 22t0.5 26v451q0 11 -0.5 22.5t-2.5 21.5q-1 10 -3 16.5t-4 10.5q-3 4 -6.5 7t-8.5 5q-4 2 -11.5 3t-16.5 2l-45 5v30q8 -2 16.5 -2.5t15.5 -0.5h8h8h7h8q15 -1 30 -1.5t30 -0.5h28.5h28.5h28.5h29.5q14 0 28.5 0.5t28.5 1.5h14h14
h6.5t7.5 1h6.5h6.5h0.5h1.5h0.5h1.5v0h1h0.5h1.5h4.5h5.5h2.5h2.5q2 -1 3.5 -1h2.5q33 -2 64 -12t59 -28t42 -46t14 -66q0 -47 -18 -86t-53 -69t-77 -45t-92 -15h-14.5t-15.5 1q-7 1 -14.5 2.5t-15.5 2.5l-10 38q8 -4 16.5 -6t16.5 -4q8 -1 16.5 -1.5t16.5 -0.5
q30 0 55.5 10.5t46.5 31.5t31.5 48t10.5 59q0 39 -11 67t-33 46t-51.5 27t-66.5 9q-17 0 -31.5 -1t-26.5 -3q-12 -1 -22.5 -3.5t-21.5 -4.5v2v0z" />
    <glyph glyph-name="Q" unicode="Q" horiz-adv-x="786" 
d="M398 709q80 -2 146 -24t117 -66q51 -43 77 -107t26 -147q0 -78 -26 -144.5t-79 -122.5q-52 -56 -115 -84.5t-136 -31.5v-2q15 -2 30 -5t29 -8q7 -3 14 -5.5t14 -5.5q6 -3 13 -6l14 -6h0.5h1.5t1.5 -0.5l1.5 -1.5q4 -2 7.5 -3.5t7.5 -2.5q3 -2 6.5 -3.5t7.5 -2.5
q18 -8 36 -14t34 -10q8 -2 16.5 -4t17.5 -3q8 -1 16.5 -2t16.5 -2h4h4h4h4q7 0 13.5 0.5t13.5 1.5t14 1.5t14 2.5v-21l-84 -56l-12 2t-12 3q-7 1 -13 2t-12 3q-13 3 -27 7t-30 9l-148 46q-13 4 -24 6.5t-20 4.5q-10 2 -19 3t-17 1q-4 0 -8 -0.5t-7 -1.5q-3 -2 -6 -3.5
l-5 -2.5l-59 -32l2 32q18 14 34 26t31 22t26 16t18 8l11 4v2h-6q-79 0 -143 23.5t-114 72.5q-49 48 -73.5 115.5t-24.5 153.5q0 77 25 141t76 116q50 52 119 78t156 26v2v0zM382 667q-65 -2 -113 -22.5t-79 -61.5q-31 -40 -46 -91t-15 -113v-2.5v-2.5v-3v-3v-6v-5
q2 -63 20 -120.5t51 -110.5q33 -52 85.5 -78.5t123.5 -26.5q65 0 112.5 22t76.5 65q29 44 44 100.5t15 125.5q0 74 -17 134t-51 106q-34 45 -85.5 68t-121.5 23v2v0z" />
    <glyph glyph-name="R" unicode="R" horiz-adv-x="668" 
d="M216 642v-522q0 -16 0.5 -28t1.5 -22t2.5 -16.5t4.5 -10.5q2 -4 6 -6.5t8 -4.5q5 -1 12 -2.5t16 -1.5l48 -1v-30q-19 1 -38 1.5t-37 0.5q-18 1 -35.5 1h-34.5h-10.5h-10.5h-10.5h-10.5h-13.5t-12.5 -1h-13.5h-12.5q-13 0 -26.5 -0.5t-27.5 -1.5v30l48 3q9 -1 16 0t12 2
q5 2 8.5 4.5t5.5 6.5t4 10.5t3 16.5t1.5 22t0.5 26v451q0 13 -0.5 24.5t-1.5 21.5q-1 9 -3 16t-4 11t-5.5 7t-8.5 4q-5 2 -12 2.5t-16 1.5l-41 5v30q6 -2 13 -2.5t14 -0.5h14h14q14 -1 27.5 -1.5t28.5 -0.5h15h15h14.5h14.5h15h15h14.5h14.5q14 0 28.5 0.5t29.5 1.5h14.5
h14.5h7.5t7.5 1h6.5h7.5h2h2h1.5h1.5h0.5h1.5q52 0 88 -10.5t57 -30.5q20 -20 32 -42.5t15 -46.5v-5.5v-4.5v-2.5t1 -2.5v-3v-2q0 -40 -15 -73t-45 -57t-63 -39.5t-69 -22.5q-1 -1 -1.5 -1h-0.5v0v0h-1v0l227 -294q5 -9 12 -14.5t15 -7.5t16.5 -3.5t17.5 -2.5v-28h-3h-3
q-2 1 -3.5 1h-3.5h-6h-6q-6 1 -12 1.5t-12 0.5h-6h-5h-6h-6h-8.5h-9.5h-4t-4 -1h-4h-4h-2.5h-3.5h-1.5t-0.5 -1h-1.5h-1.5h-6h-6h-2.5t-2.5 -1h-3h-3l-5.5 5.5t-4.5 6.5q-1 2 -2.5 3.5t-2.5 3.5q-2 1 -3 3t-2 3l-1.5 1.5t-0.5 1.5q-1 0 -1.5 0.5t-0.5 1.5l-2 2t-1 2
q-2 2 -4 4.5t-4 4.5q-1 2 -2.5 4.5t-3.5 4.5l-184 249q-4 4 -7.5 8.5t-7.5 8.5q-4 5 -8 9.5t-8 8.5q-1 2 -2.5 3.5t-2.5 3.5q-2 1 -3 3t-3 3q-3 3 -5.5 6t-4.5 6l6 14q3 -2 6.5 -2.5t7.5 -0.5h6.5h7.5h10h10t10 0.5t10 1.5h2t3 1h2.5h2.5q2 0 4.5 0.5t5.5 1.5q26 5 49 16.5
t42 30.5q20 19 29.5 42t9.5 51q0 39 -12 66t-36 42q-24 14 -49.5 21.5t-54.5 8.5h-2h-2h-1.5h-0.5q-17 0 -31.5 -1t-26.5 -3q-12 -1 -22.5 -3.5t-21.5 -4.5v2v0z" />
    <glyph glyph-name="S" unicode="S" horiz-adv-x="525" 
d="M447 526h-32l-6 57q-1 4 -1.5 8.5t-2.5 8.5q-1 5 -3 8.5t-5 7.5l-6 6t-7 6t-8.5 6l-10.5 7q-9 5 -19 9t-22 7q-6 2 -12 3t-11 2q-6 0 -12 1t-12 1h-2.5t-2.5 1h-3h-3h-5.5h-4.5h-2.5h-2.5q-2 -1 -3 -1h-2h-5.5h-4.5q-24 -3 -46 -13.5t-42 -28.5t-30 -44t-10 -59
q0 -25 8.5 -46t26.5 -36q18 -16 50.5 -26.5t79.5 -15.5q53 -6 95 -17t73 -28q31 -16 46.5 -46t15.5 -73q0 -63 -23 -109.5t-68 -77.5q-46 -31 -96 -47t-104 -17h-1.5h-0.5h-1.5h-1.5h-2.5h-3.5q-21 0 -40.5 2t-39.5 7q-10 2 -18.5 4t-16.5 4q-9 3 -16 4.5t-14 3.5
q-2 1 -4 1.5t-4 1.5q-2 0 -3.5 0.5t-3.5 1.5q-3 2 -6 3.5l-5 2.5q1 5 1.5 10t1.5 10v4.5t1 5.5q0 2 0.5 4.5t0.5 4.5q0 10 0.5 20t1.5 20v19.5v18.5v9.5v8.5v9.5v8.5l32 2l8 -67q2 -17 15.5 -31.5t38.5 -26.5t52 -18t57 -6q34 0 64.5 10t58.5 30t42 48.5t14 65.5
q0 35 -12.5 60t-37.5 38q-25 14 -56.5 23t-69.5 13q-59 7 -101 20.5t-68 32.5q-25 20 -37.5 49.5t-12.5 68.5q0 52 17 91.5t51 66.5t71.5 43.5t78.5 22.5h4.5t4.5 1h4.5h5.5h4.5t5.5 1h4.5h4.5q21 0 40.5 -2t37.5 -7q18 -4 34 -8.5t30 -9.5q5 -2 10.5 -4t9.5 -4q2 -1 4.5 -2
t5.5 -2q2 -1 4.5 -1.5t4.5 -1.5q-3 -13 -4.5 -25t-3.5 -24q-1 -12 -2.5 -23.5t-2.5 -22.5v-6v-5q-1 -3 -1 -6v-6v-6v-5v-6v-6v2v0z" />
    <glyph glyph-name="T" unicode="T" horiz-adv-x="613" 
d="M259 120v423v12.5v13.5q-1 6 -1 12.5v12.5q-1 12 -1.5 24t-1.5 23l-155 2q-11 -2 -18.5 -4t-11.5 -6t-6.5 -10t-3.5 -15l-4 -77h-31v8.5v9.5v10v11q-1 15 -1.5 30t-1.5 30t-1.5 30t-2.5 30h13.5h13.5q7 -1 13.5 -1h13.5h27.5h26.5q14 -1 27.5 -1.5t26.5 -0.5h27.5h26.5
l145 2q14 -2 27.5 -2h26.5q14 0 27.5 0.5t26.5 1.5h27.5h26.5h13.5t13.5 1h13.5h13.5q-1 -15 -2.5 -30t-2.5 -30t-1.5 -30t-0.5 -30v-11v-10v-10v-10l-31 2l-4 79q-1 7 -3 13t-6 10t-12 6t-19 2l-155 2q-1 -13 -2 -25t-1 -24q-1 -12 -1 -25.5v-27.5v-421q0 -16 0.5 -28
t1.5 -22t2.5 -16.5t4.5 -10.5q2 -4 6 -6.5t8 -4.5q5 -1 12 -2.5t16 -1.5l48 -1v-30q-19 1 -38 1.5t-37 0.5q-18 1 -35.5 1h-34.5h-10.5h-10.5h-10.5h-10.5h-13.5t-12.5 -1h-13.5h-12.5q-13 0 -26.5 -0.5t-27.5 -1.5v30l48 3q9 -1 16 0t12 2q5 2 8.5 4.5t5.5 6.5t4 10.5
t3 16.5t1.5 22t0.5 26v2v0z" />
    <glyph glyph-name="U" unicode="U" horiz-adv-x="778" 
d="M111 214v355q0 13 -0.5 24.5t-1.5 21.5q-1 9 -3 16t-4 11t-5.5 7t-8.5 4q-5 2 -12 2.5t-16 1.5l-48 5v30q14 -2 27.5 -3t26.5 -1h12.5h13.5q6 -1 12.5 -1h13.5h10.5h10.5h10.5h10.5h34.5t35.5 1q18 0 37 0.5t38 1.5v-28l-48 -3q-4 -2 -8.5 -2.5t-7.5 -0.5q-4 -1 -7 -1.5
t-5 -1.5q-4 -1 -8 -4t-6 -7q-3 -4 -4.5 -11t-2.5 -16q-1 -10 -1.5 -22t-0.5 -26v-342q0 -55 13 -91t40 -56q27 -19 65.5 -28.5t87.5 -9.5q41 0 76.5 10t66.5 31q32 21 47.5 62.5t15.5 103.5v322q0 13 -0.5 24.5t-1.5 21.5q-1 9 -3 16t-4 11t-5.5 7t-8.5 4q-5 2 -12 2.5
t-16 1.5l-44 5v30q5 -2 10 -2.5t10 -0.5h10h10q10 -1 19.5 -1.5t19.5 -0.5h9.5h9.5h9h9h4.5h5.5h4.5h4.5h10t10 1h4.5h5.5h4.5h4.5h10t10 1h10h10h5.5t5.5 1h5h6v-28l-44 -3q-4 -2 -8.5 -2.5t-7.5 -0.5q-4 -1 -7 -1.5t-5 -1.5q-4 -1 -8 -4t-6 -7q-3 -4 -4.5 -11t-2.5 -16
q-1 -10 -1.5 -22t-0.5 -26v-287q0 -82 -16.5 -139.5t-49.5 -92.5q-33 -34 -87 -51t-130 -17q-64 0 -113.5 11.5t-85.5 35.5t-53.5 70t-17.5 115v2v0z" />
    <glyph glyph-name="V" unicode="V" horiz-adv-x="722" 
d="M188 628l197 -507l183 473q2 4 4 9t3 9q1 5 1.5 8.5t0.5 7.5q-1 8 -3.5 13.5t-7.5 8.5t-11 4.5t-13 2.5l-52 5v30q5 -2 9.5 -2.5t8.5 -0.5h9.5h8.5q9 -1 18 -1.5t18 -0.5h18h18h18h18t18 0.5t18 1.5h9.5h8.5h4.5t4.5 1h4.5h4.5v-28l-30 -3l-8 -4t-7 -4q-4 -3 -7.5 -6.5
t-6.5 -8.5q-3 -4 -6 -10l-6 -12q-1 -3 -3 -6.5t-3 -6.5q-2 -4 -3.5 -8t-3.5 -8l-174 -419q-9 -23 -17.5 -45t-16.5 -43q-8 -22 -15.5 -43.5t-14.5 -43.5h-50q-4 15 -9.5 31t-10.5 32l-6 16t-5 15l-6 16t-6 15q-1 2 -2 4.5t-2 5.5q-1 2 -2 4.5t-2 4.5t-2 4.5t-1 5.5
q-1 2 -2 4.5t-2 4.5l-188 464q-5 10 -10.5 18t-10.5 12t-11 6t-12 3l-36 5v30q5 -2 10.5 -2.5t11.5 -0.5h10.5h11.5q11 -1 22 -1.5t22 -0.5h22.5h22.5h22.5h22.5t22 0.5t22 1.5h10.5h11.5h5.5t5.5 1h5h6v-28l-56 -3q-1 -2 -1.5 -2h-0.5v0v0h-1v0q-6 -1 -11 -2.5t-10 -3.5
q-4 -2 -6.5 -6t-1.5 -9v-1.5v-0.5v-1.5v-1.5v-1.5t1 -0.5q0 -1 0.5 -1.5t0.5 -1.5v2v0z" />
    <glyph glyph-name="W" unicode="W" horiz-adv-x="1000" 
d="M613 197l-125 339l-174 -442q-5 -14 -9.5 -27t-9.5 -26q-4 -13 -8.5 -26t-8.5 -24h-50q-1 4 -2 7.5t-1 7.5q-1 3 -2 7l-2 8q-1 8 -2.5 15.5t-3.5 14.5q-1 5 -2.5 10t-3.5 10q-1 5 -2 10.5t-2 10.5l-119 517q-4 14 -9 24t-12 14q-7 5 -14 7t-15 3l-28 5v30q5 -2 10.5 -2.5
t10.5 -0.5h10h11q11 -1 21.5 -1.5t20.5 -0.5h21.5h20.5h21.5h20.5q11 0 21.5 0.5t20.5 1.5h10.5h10.5h5.5t5.5 1h4.5h5.5v-28l-42 -3q-8 -2 -15 -4t-12 -5t-7.5 -10t-2.5 -18v-7.5t1 -7.5q0 -4 1 -7.5t2 -8.5l99 -444h2l123 312q2 4 4 8.5t4 9.5l4 10l4 10q9 24 18.5 49
t19.5 50q9 26 18 51.5t18 50.5l32 2q2 -9 3.5 -17t4.5 -16q2 -8 5 -16l6 -16q0 -1 0.5 -3t1.5 -3q0 -2 0.5 -3.5t1.5 -3.5l2 -6l2 -6t2 -5.5t2 -4.5q0 -3 1 -5.5t2 -4.5t2 -4.5t2 -4.5q0 -2 1 -4.5t2 -4.5l155 -432h2l131 486q0 -1 0 -0.5t1 1.5v0.5v1.5v1.5v1.5v0.5v1.5
q0 6 -3 10t-9 6t-14.5 4t-20.5 3l-40 5v30q2 -1 4 -1.5t5 -0.5q2 -1 4 -1h4h9.5h8.5q8 -1 16.5 -1.5t17.5 -0.5h18h18h9h9h8.5h8.5h9t9 1q4 0 8.5 0.5t8.5 0.5h4h5h4h4h4.5t4.5 1h4.5h4.5v-28l-32 -3q-8 -2 -14 -4.5t-11 -6.5q-4 -4 -7.5 -9t-5.5 -11l-153 -536q-1 -4 -2 -7
t-1 -6l-2 -6l-2 -6t-1.5 -6t-1.5 -5q-1 -3 -1.5 -6t-1.5 -6q-2 -6 -4 -12.5t-4 -13.5q-1 -7 -2.5 -13.5t-3.5 -13.5h-50l-6 18t-5 18q-3 9 -6 17.5t-6 16.5l-6 16t-5 17l-6 16l-6 16q-1 4 -3 8t-3 9q-2 4 -3.5 8.5t-3.5 8.5q-3 8 -6 17l-6 18v2v0z" />
    <glyph glyph-name="X" unicode="X" horiz-adv-x="667" 
d="M487 21l-168 282q-2 -4 -4 -7l-4 -6q-1 -1 -2 -2.5t-1 -2.5q-1 -2 -2 -3l-2 -2q-4 -6 -8 -11.5t-8 -10.5t-7.5 -10.5t-6.5 -10.5l-157 -240h-2h-2q-2 1 -3 1h-2h-4h-4q-4 1 -8.5 1.5t-8.5 0.5h-4h-4h-5h-4h-8.5h-9.5h-4t-4 -1q-3 0 -5 -0.5t-4 -0.5h-4.5h-4.5h-2t-2 -1
h-2h-2v30l26 3q9 -1 17 2.5t14 10.5q6 6 12 13l12 14q1 1 1.5 2t1.5 2l0.5 1t1.5 2t1.5 2t1.5 2l0.5 1t1.5 2l189 257l-128 213q-2 1 -4 4l-4 6q-1 2 -2 3.5t-1 2.5q-1 2 -2 3.5t-2 2.5q-10 15 -20.5 26.5t-21.5 20.5q-10 9 -18.5 13.5t-16.5 5.5l-45 5l-2 26l141 27l12 -10
t12 -11q5 -6 10.5 -12.5t9.5 -13.5q1 -1 2 -2.5t2 -2.5q0 -2 1 -3l2 -2q2 -3 3.5 -5.5t2.5 -4.5l128 -214l185 270h101v-30l-41 -3q-4 -2 -7.5 -4t-8.5 -5q-4 -4 -8.5 -8t-9.5 -9q-1 -1 -2 -2.5t-2 -2.5l-3 -3t-2 -3q-1 -1 -2 -2.5t-2 -2.5l-3 -3t-2 -3l-4 -6l-4 -6t-4 -5.5
t-4 -4.5l-154 -206l176 -280q1 -2 1.5 -3.5t1.5 -2.5q0 -2 0.5 -3t1.5 -2q2 -2 3.5 -4t2.5 -4q6 -10 12.5 -19t13.5 -17t14.5 -12.5t14.5 -4.5l30 -1v-30h-2.5h-3.5q-1 1 -2.5 1h-3.5h-6h-6q-6 1 -12 1.5t-12 0.5h-12h-12h-6h-6h-7h-6q-6 0 -12 -0.5t-12 -1.5h-6h-6h-2.5
t-3.5 -1h-2.5h-3.5l-16 24v0v0z" />
    <glyph glyph-name="Y" unicode="Y" horiz-adv-x="667" 
d="M220 602l143 -261l103 163q15 22 29 45t27 47q14 24 26.5 48t25.5 48l80 2v-15q-10 -13 -20.5 -26t-21.5 -27t-22.5 -28.5t-22.5 -29.5l-6 -8t-5 -7l-6 -8l-6 -8q-6 -7 -11.5 -14.5t-10.5 -15.5q-18 -26 -35 -51.5t-32 -49.5q-16 -25 -27.5 -46t-19.5 -38
q-4 -10 -7 -19.5t-5 -18.5q-1 -10 -1.5 -19t-0.5 -18v-127q0 -16 0.5 -28t1.5 -22t2.5 -16.5t4.5 -10.5q2 -4 6 -6.5t8 -4.5q5 -1 12 -2.5t16 -1.5l48 -1v-30q-19 1 -38 1.5t-37 0.5q-18 1 -35.5 1h-34.5h-10.5h-10.5h-10.5h-10.5h-13.5t-12.5 -1h-13.5h-12.5
q-13 0 -26.5 -0.5t-27.5 -1.5v30l48 3q9 -1 16 0t12 2q5 2 8.5 4.5t5.5 6.5t4 10.5t3 16.5t1.5 22t0.5 26v144q0 4 -0.5 9.5t-1.5 10.5t-3 9.5t-4 8.5l-124 218q-19 32 -38 56.5t-36 39.5q-18 15 -31.5 23t-22.5 9l-29 5v29l115 24v-1.5t1 -0.5v0v0h0.5t1.5 1v0h1v0v0v0h1v0
v0q5 -1 10.5 -3t9.5 -6q5 -4 9.5 -8.5t8.5 -9.5q1 -1 2 -2.5t2 -3.5l1.5 -1.5t1.5 -0.5q0 -1 0.5 -1.5l1.5 -1.5l1.5 -1.5l1.5 -1.5q0 -1 0.5 -1.5l1.5 -1.5q0 -1 0.5 -2t1.5 -1q1 -1 1.5 -2t1.5 -2l4 -6t5 -6q2 -4 4 -7l4 -6t4 -6.5t5 -6.5q2 -4 4 -7.5t4 -6.5v2v0z" />
    <glyph glyph-name="Z" unicode="Z" horiz-adv-x="667" 
d="M637 663l-486 -619h273q56 -2 91 0.5t49 7.5t22.5 21t11.5 41l6 59h34q-1 -7 -1.5 -13t-0.5 -12q-1 -7 -1.5 -13t-0.5 -12q-1 -13 -1 -25.5v-25.5q-1 -10 -1 -19.5v-19.5v-19v-17h-12h-12q-7 1 -13 1h-12h-25.5h-25.5q-20 1 -40 1.5t-40 0.5h-40.5h-40.5h-11.5h-10.5
h-11.5h-10.5h-52h-52t-52 -0.5t-52 -1.5h-26h-26h-13.5t-12.5 -1h-13.5h-12.5v28q4 4 8 8.5t8 8.5l8 10l8 10q1 1 1.5 2t1.5 2l2 2l2 2q4 4 7.5 8t7.5 9q3 4 6.5 8.5t7.5 8.5q4 5 7.5 9.5t7.5 8.5q3 5 6.5 9.5t7.5 8.5l302 390q2 1 3 2.5t3 2.5q1 2 2.5 3.5t2.5 3.5
q3 4 6 7.5t6 7.5q2 2 3 4t3 4q1 1 2.5 3t2.5 4q3 4 6 7.5t6 7.5q5 8 10.5 15.5t10.5 14.5q3 4 5.5 7.5t4.5 7.5q2 3 4.5 6.5t4.5 7.5l-228 2q-52 -2 -83.5 -5t-43.5 -8q-12 -6 -18 -15t-7 -21l-6 -69h-34v3.5t1 5.5v4.5v5.5v4.5t1 5.5v5v6v4.5t1 5.5v4.5v5.5v10.5v10.5v10
v10v4.5v5.5q-1 2 -1 4.5v5.5v4.5v4.5q-1 2 -1 4.5v5.5v4.5v5.5q-1 2 -1 4.5v5.5h16.5h16.5q8 -1 16.5 -1h16.5h33.5h32.5h8h9q4 -1 8 -1h8h16.5h17.5h24h25q12 -1 24.5 -1h25.5h49.5h49.5h26h26t26 0.5t26 1.5h12.5h13.5h6t7 1h6.5h6.5l4 -27v0v0z" />
    <glyph glyph-name="bracketleft" unicode="[" horiz-adv-x="333" 
d="M88 14v514q-1 6 -1 13.5v16.5v16.5v17.5q-1 18 -1.5 35.5t-0.5 33.5q-1 17 -2.5 29t-3.5 21l9 15q6 -2 12 -2.5t13 -0.5q6 -1 12 -1h12h24h24h12h13h12h12q12 0 24 0.5t24 1.5l6 -4v-26l-4 -5h-38q-14 -2 -26 -4t-22 -7q-10 -4 -15.5 -10.5t-6.5 -15.5q-1 -7 -1.5 -14
t-0.5 -15q0 -4 -0.5 -8t-0.5 -7v-8v-8q-1 -9 -1 -18v-17v-16.5v-14.5v-512v-5v-3v-11v-12v-17t1 -18v-8v-8q0 -3 0.5 -7t0.5 -8q0 -8 0.5 -15t1.5 -14q1 -9 6.5 -15.5t15.5 -10.5q10 -5 22 -7t26 -2h38l4 -5v-26l-6 -6q-12 1 -24 1.5t-24 0.5h-12h-12h-13h-12h-24h-24h-12
t-12 -1q-7 0 -13 -0.5t-12 -0.5l-9 13q2 9 3 21t2 28t1.5 32t1.5 33v2v2v2v2v5.5v4.5v5.5v4.5v6v6v5.5t1 4.5v5v4v4.5v5.5v2v0z" />
    <glyph glyph-name="backslash" unicode="\" horiz-adv-x="606" 
d="M81 726h59l372 -726h-59l-372 726v0v0z" />
    <glyph glyph-name="bracketright" unicode="]" horiz-adv-x="333" 
d="M245 528v-514v-8.5t1 -6.5v-8.5v-8.5v-16.5v-17.5q0 -18 0.5 -35.5t1.5 -33.5q1 -17 2.5 -29t3.5 -21l-9 -13q-13 1 -25 1.5t-24 0.5h-24h-24h-25h-24t-24 -0.5t-24 -1.5l-6 6v26l4 5h38q14 0 26.5 2t22.5 7q10 4 15 10.5t6 15.5q0 7 0.5 14t1.5 15v8t1 7v8v8v8.5t1 9.5
v8.5v8.5v15.5v13.5v516v12.5v16.5v8.5v8.5q-1 5 -1 9.5v8.5v8v8q-1 3 -1 7v8q-1 8 -1.5 15t-0.5 14q-1 9 -6 15.5t-15 10.5q-10 5 -22.5 7t-26.5 2l-38 2l-4 5v26l6 6q12 -2 24 -3t24 -1h24h25h24h24t24 0.5t25 1.5l9 -11q-2 -10 -3.5 -22.5t-2.5 -28.5t-1.5 -32t-0.5 -33
v-2v-2v-2v-2v-5.5v-4.5v-5.5v-4.5v-6v-6v-5.5v-4.5q-1 -3 -1 -6v-5v-5.5v-4.5v2v0z" />
    <glyph glyph-name="asciicircum" unicode="^" horiz-adv-x="606" 
d="M119 283h-68l219 406h66l218 -406h-68l-183 338l-184 -338v0v0z" />
    <glyph glyph-name="underscore" unicode="_" horiz-adv-x="500" 
d="M500 -125h-500v50h500v-50v0v0z" />
    <glyph glyph-name="grave" unicode="`" horiz-adv-x="333" 
d="M215 506l-144 90q-1 -1 -2.5 -0.5t-3.5 1.5q-1 0 -1.5 0.5t-0.5 1.5q-1 0 -1.5 0.5l-1.5 1.5q-6 3 -10.5 7.5t-9.5 8.5q-4 5 -6.5 10.5t-2.5 12.5q0 8 2 14t6 11q5 5 11 7.5t14 2.5q3 0 6 -0.5t6 -2.5q3 -1 6 -2.5l7 -3.5l4.5 -4.5t5.5 -4.5q2 -1 3 -2t3 -2q1 -1 2.5 -2
t2.5 -2t1.5 -2t1.5 -2t2 -1.5t2 -1.5l138 -136h-40v0v0z" />
    <glyph glyph-name="a" unicode="a" horiz-adv-x="500" 
d="M225 270l99 18q0 28 -7.5 51t-22.5 40t-39 26t-57 9q-16 0 -27.5 -1t-18.5 -3t-13 -6.5t-11 -10.5q-1 -1 -1.5 -2l-0.5 -1q-1 -1 -1.5 -2t-0.5 -2q-1 -1 -2 -3.5t-2 -4.5t-2.5 -4.5t-2.5 -4.5t-2 -4.5t-2 -4.5l-13 -29l-26 7v65l53 32q16 8 31.5 14.5t30.5 10.5
q15 3 28.5 5t25.5 2q47 0 79 -11.5t49 -34.5q17 -22 26 -60.5t9 -92.5v-181v-14t1 -12q0 -6 0.5 -10.5t1.5 -8.5t3 -6.5t5 -4.5l7.5 -2.5t9.5 -1.5h39v-30h-3h-3q-2 1 -3.5 1h-3.5h-6h-6t-6 0.5t-6 0.5q-4 1 -7 1h-6h-6h-6h-7h-6h-10h-10h-4.5t-4.5 -1h-4.5h-4.5h-3.5h-3.5
h-1.5t-1.5 -1h-1.5h-1.5h-7h-6h-3t-3 -1h-3.5h-3.5l5 85l-124 -86q-3 -2 -7 -3t-9 -2t-10.5 -1.5t-11.5 -1.5h-2h-2h-2h-2q-25 0 -47 7t-40 21q-18 15 -26.5 37.5t-8.5 53.5q0 39 13 67t40 44q26 16 55.5 27.5t61.5 18.5h3t3 1q1 0 2.5 0.5t2.5 0.5q3 0 6 0.5t6 1.5v2v0z
M324 124v132q-9 -2 -17.5 -3.5t-16.5 -3.5q-8 -1 -16 -2.5t-16 -3.5q-10 -2 -20 -4.5t-20 -5.5t-19.5 -6.5t-20.5 -7.5t-20.5 -11.5t-17.5 -18.5q-7 -10 -12.5 -21.5t-7.5 -23.5q-1 -3 -1.5 -5.5t-0.5 -4.5v-4.5v-4.5q0 -19 6 -34t18 -26t25.5 -16.5t28.5 -5.5q11 0 23 3
t24 10t24 15t25 18q2 1 3.5 2t2.5 2l1.5 1.5l1.5 1.5l0.5 0.5l1.5 1.5q4 4 7 7.5t6 6.5t5 6t3 4v2v0z" />
    <glyph glyph-name="b" unicode="b" horiz-adv-x="553" 
d="M150 718v-347h2l53 54q7 6 16 12t21 11t24.5 9t25.5 7q4 0 8.5 0.5t8.5 1.5h4t5 1h4h4q44 0 78 -15t57 -45t35 -66t12 -78q0 -7 -0.5 -13.5t-1.5 -13.5q-1 -4 -1.5 -7.5t-0.5 -6.5q-1 -4 -1.5 -7.5t-1.5 -6.5q-4 -19 -11.5 -38t-17.5 -37t-20.5 -31t-22.5 -22l-100 -70
q-2 -3 -4 -4.5t-4 -2.5q-3 -2 -5 -2.5t-4 -0.5q-4 -2 -8 -3.5t-8 -2.5q-8 -2 -15.5 -3.5t-15.5 -1.5h-7.5t-6.5 -1h-7h-6h-2.5h-3.5h-2.5h-3.5q-15 1 -30 3.5t-29 6.5q-15 3 -28 9t-25 15l-40 -34l-16 6v2.5v2.5v2v2q0 2 0.5 4.5t1.5 5.5v2t1 3v2.5v2.5v3.5t1 2.5v3.5v2.5
l4 118v467q0 7 -1 14t-3 13t-7.5 9t-13.5 3l-56 2v28q11 0 20.5 1.5t19.5 2.5q9 2 19 4l20 4q20 4 39 10t38 13l9 -6v0v0zM150 308v-215q0 -4 1 -6.5t2 -4.5q2 -3 4.5 -5.5t6.5 -4.5l6 -4t7 -4q4 -3 8 -5t9 -4q9 -4 19 -7.5t20 -5.5l10 -2l10 -2q2 0 4.5 -0.5t5.5 -0.5h4.5
h4.5q30 0 56.5 12t48.5 36t33 60.5t11 85.5q0 32 -8 61.5t-25 56.5q-16 26 -42.5 39.5t-63.5 13.5q-19 0 -36 -4.5t-32 -13.5t-27 -18.5t-20 -20.5q-4 -6 -7.5 -11t-5.5 -10t-3 -9.5t-1 -8.5v2v0z" />
    <glyph glyph-name="c" unicode="c" horiz-adv-x="444" 
d="M399 311h-28l-7 61v-1v0h-1v0v0.5v1.5l-4.5 4.5l-5.5 5.5q-3 2 -6.5 4.5t-8.5 4.5q-9 5 -18.5 9t-19.5 7q-3 1 -6 1.5t-5 1.5q-3 0 -5.5 0.5t-4.5 1.5q-5 1 -9.5 1.5t-9.5 0.5h-5.5h-4.5h-2.5h-2.5q-2 -1 -3 -1h-2q-24 -2 -45.5 -12t-41.5 -27q-19 -17 -29 -48t-10 -75
q0 -59 14.5 -101.5t42.5 -68.5q29 -26 61 -39t69 -13h10t10 1l10 2t11 2q8 2 16 4.5t16 5.5t15 6.5t14 7.5l10 -13l-21 -32q-1 -3 -3.5 -5t-5.5 -4q-4 -2 -8.5 -3.5t-9.5 -2.5q-5 -2 -10.5 -3.5t-11.5 -3.5q-6 -1 -12.5 -3t-13.5 -3q-15 -3 -31 -4.5t-33 -1.5
q-45 0 -84 14.5t-74 43.5q-34 29 -51.5 72t-17.5 99q0 32 5.5 59.5t17.5 49.5q12 23 25 40.5t28 29.5l2 2l2 2q2 1 3.5 2t2.5 2q2 2 4 3.5t4 2.5q2 2 4 3.5t5 2.5q4 2 8.5 4.5t8.5 5.5q2 2 4.5 3t5.5 3q2 1 4.5 2.5t5.5 2.5l8 4l8 4l4 2l4 2q1 0 3 1l4 2q11 5 23 9t24 7
t24 5t25 2q19 0 35 -2t29 -7q7 -2 13 -4.5t12 -4.5q5 -3 10.5 -5.5t9.5 -4.5l1.5 -1.5t1.5 -0.5q0 -1 0.5 -1.5t1.5 -0.5q2 -1 3.5 -1.5t2.5 -1.5q-3 -9 -5 -20t-4 -23q-1 -13 -2.5 -25.5t-1.5 -26.5q-1 -4 -1 -7.5v-6.5v-7.5v-6.5v2v0z" />
    <glyph glyph-name="d" unicode="d" horiz-adv-x="611" 
d="M412 437v183q0 7 -1 14t-3 13t-7.5 9t-13.5 3l-56 2v28q10 0 20 1.5t20 2.5q9 2 19 4l20 4q20 4 39 10t38 13l9 -6v-616v-20t1 -17q0 -7 1.5 -13l2.5 -10q2 -4 4.5 -6t6.5 -4q4 -1 9 -2.5t12 -1.5l46 -1v-30h-5.5h-4.5q-2 1 -4.5 1h-4.5h-8.5h-8.5q-8 1 -15.5 1.5
t-13.5 0.5h-13.5h-12.5h-10h-10h-4.5t-4.5 -1h-4.5h-4.5h-3.5h-3.5h-1.5t-1.5 -1h-1.5h-1.5h-7h-6h-3t-3 -1h-3.5h-3.5l5 92l-111 -93q-3 -2 -8.5 -3.5t-13.5 -2.5q-7 -1 -15.5 -1.5t-16.5 -0.5h-1.5h-0.5h-1.5h-1.5h-1.5h-0.5h-1.5h-1.5q-52 0 -91 16t-65 49
q-25 33 -37.5 74t-12.5 90q0 34 7 63t21 54q14 24 30.5 41t35.5 27l88 48q11 4 21.5 8t20.5 5q9 2 17 3t15 1q9 0 17.5 -0.5t16.5 -2.5l8 -2t8 -1l8 -2l8 -2q3 -1 6.5 -2.5t7.5 -2.5q3 -2 6.5 -3t6.5 -3q3 -1 6.5 -2.5t6.5 -2.5q4 -2 7.5 -3t7.5 -3v2v0zM412 221v129
q0 1 -2 4.5t-6 7.5q-4 5 -9.5 9.5t-11.5 8.5q-7 5 -15.5 10.5t-18.5 9.5q-10 5 -19.5 8.5t-20.5 6.5q-4 1 -8.5 1.5t-9.5 1.5q-4 1 -8.5 1.5t-8.5 0.5h-1.5h-0.5v0v0h-1v0q-38 -1 -66.5 -12.5t-46.5 -34.5q-18 -22 -27 -56t-9 -80v-5.5v-4.5v-2.5v-2.5q0 -2 0.5 -3t0.5 -3
q2 -33 13.5 -62.5t30.5 -56.5q20 -27 47.5 -40.5t63.5 -13.5q16 0 31 4.5t29 14.5q14 9 26.5 20t22.5 24q1 1 1.5 2t1.5 2q1 2 2 3.5t2 2.5q7 11 11 21.5t5 21.5t1.5 23.5t0.5 25.5v2.5v2.5v3.5v2.5v2v0z" />
    <glyph glyph-name="e" unicode="e" horiz-adv-x="479" 
d="M258 469q41 -2 75 -14.5t61 -36.5q27 -25 40.5 -58.5t13.5 -75.5v-10.5v-10.5t-0.5 -10.5t-1.5 -10.5q-11 -2 -22.5 -3.5t-22.5 -3.5q-12 -1 -23 -2l-22 -2q-12 -1 -23.5 -1.5t-22.5 -0.5q-11 -1 -22.5 -1h-22.5l-146 2q0 -46 11 -82t33 -63q23 -27 57 -40.5t80 -13.5
q17 0 33 3.5t30 10.5t28.5 14.5t27.5 15.5h0.5t1.5 1h0.5h0.5l0.5 0.5l1.5 1.5l13 -8l-20 -34q-1 -4 -4.5 -7t-9.5 -6q-6 -4 -13.5 -7.5t-15.5 -8.5q-9 -4 -18 -6.5t-20 -5.5q-5 -2 -10 -3t-10 -3q-6 -1 -11 -2.5t-10 -2.5t-10 -1.5t-10 -1.5h-4.5t-4.5 -1h-4.5h-4.5
q-57 0 -100 15.5t-72 47.5q-30 32 -44.5 73.5t-14.5 92.5q0 36 4.5 66t14.5 52q9 23 22.5 41.5t30.5 31.5q7 5 14.5 10.5t15.5 11.5q8 5 16 9.5t16 8.5q7 3 13.5 6t13.5 6q7 2 13.5 4.5t13.5 4.5q5 2 10.5 2.5t10.5 1.5t11 1.5t12 0.5v2v0zM253 436q-28 -2 -51 -11.5
t-43 -29.5q-19 -19 -29 -48t-9 -67v-2.5v-3.5v-2.5v-3.5q17 -2 33.5 -3.5t32.5 -1.5q17 -1 32.5 -1h31.5h28.5t27.5 1q14 0 26.5 0.5t25.5 1.5q0 35 -6.5 64.5t-19.5 54.5t-33 37.5t-47 12.5v2v0z" />
    <glyph glyph-name="f" unicode="f" horiz-adv-x="333" 
d="M341 717v-77l-12 -6q-7 5 -14.5 9.5t-15.5 8.5q-9 4 -18 6t-18 2q-23 0 -38 -7.5t-22 -21.5t-10 -42.5t-3 -71.5v-83l131 4l-7 -53h-124v-283v-20t1 -17q0 -7 1.5 -13l2.5 -10q2 -4 4.5 -6t6.5 -4q4 -1 9 -2.5t12 -1.5l46 -1v-30h-4.5h-4.5q-3 1 -5.5 1h-4.5h-4.5h-4.5
h-5.5h-4.5q-10 1 -20 1.5t-21 0.5h-22h-24h-23.5h-22.5t-21.5 -0.5t-19.5 -1.5h-10h-10h-4.5t-4.5 -1h-4.5h-4.5v30l46 3q6 -1 11.5 0t9.5 2q4 2 7 4t4 6q2 4 2.5 10t1.5 13v8t1 8v9v10v285l-69 -4v22l69 31v42q0 23 2.5 44t7.5 38t13 32t19 28l58 68q5 5 11 10t12 9t13 7
l14 6q5 2 10 3.5t10 2.5t10.5 1.5t9.5 0.5h2h2q0 -1 1 -1h2h2h2q1 -1 2 -1h2q4 -1 7.5 -1.5t7.5 -2.5q2 -1 4 -1.5t4 -0.5q1 -1 3 -1.5t4 -1.5v2v0z" />
    <glyph glyph-name="g" unicode="g" horiz-adv-x="556" 
d="M519 378h-92q2 -5 3 -8.5t2 -6.5q1 -4 1.5 -7.5t1.5 -7.5q2 -7 2.5 -14t0.5 -14q0 -20 -5 -38t-14 -34t-21 -29t-27 -23q-5 -4 -10 -7l-10 -6q-6 -3 -11 -6t-10 -5q-5 -3 -10.5 -5t-10.5 -4q-6 -2 -11.5 -3.5t-10.5 -3.5q-7 -2 -14 -3.5t-14 -2.5t-14 -1.5t-14 -0.5h-2.5
h-2.5h-3h-3q-3 0 -5.5 0.5t-4.5 1.5q-2 -2 -4.5 -4t-4.5 -4q-1 -1 -2.5 -2t-2.5 -2l-3 -3t-3 -2q-3 -2 -5 -4.5t-5 -4.5q-2 -3 -4 -5.5t-4 -4.5q-4 -4 -6 -9.5t-2 -10.5q0 -10 4 -17.5t12 -11.5t16.5 -6.5t18.5 -3.5q3 -1 6 -1h6h3.5h3.5h3h3l160 2q26 -2 45 -8.5t32 -20.5
q14 -13 22.5 -26.5t12.5 -28.5q2 -5 2.5 -10.5t1.5 -10.5q0 -2 0.5 -4.5t0.5 -5.5q1 -2 1 -4.5v-4.5v-2v-2v-2.5v-2.5q-2 -38 -21 -73.5t-55 -67.5t-84.5 -48.5t-110.5 -16.5q-46 0 -84 10.5t-69 31.5t-46.5 48t-15.5 60v4v4v4.5t1 4.5q1 9 3 18t5 17t7.5 15t11.5 13l87 47
q-16 4 -29 9t-21 12t-12 16t-4 20q0 5 1 10.5t3 11.5q2 5 4.5 10.5t6.5 9.5l77 61v2q-4 -2 -10 -1t-14 3q-4 1 -7.5 2t-6.5 3q-4 1 -7.5 3t-7.5 4q-12 7 -23 17.5t-22 24.5q-10 14 -15 33t-5 43t5.5 44.5t15.5 36.5q11 17 24.5 30.5t30.5 24.5q7 5 14.5 8.5t14.5 7.5
q8 3 15.5 6t14.5 6q12 4 23.5 7t22.5 4q11 2 21 3t19 1h4h4h2h2q1 -1 2.5 -1h2.5q14 -1 28.5 -4t27.5 -8q14 -5 26.5 -12.5t22.5 -16.5l142 6l4 -12l-25 -41v0v0zM254 -252q41 0 75 11t59 33q26 22 38.5 48t12.5 56q0 22 -7 39t-21 28q-14 12 -42.5 17.5t-70.5 5.5h-21h-25
q-13 0 -28 -1.5t-32 -2.5q-4 0 -7.5 -1.5t-8.5 -2.5q-4 -2 -8.5 -4.5t-9.5 -6.5q-10 -6 -18.5 -14.5t-16.5 -20.5q-7 -12 -11 -25.5t-4 -29.5q0 -32 10.5 -56.5t32.5 -40.5q21 -16 47 -24t56 -8v0v0zM354 290q0 26 -6.5 51t-20.5 47q-13 23 -35 34t-53 11q-25 0 -44 -8.5
t-31 -25.5q-13 -17 -19 -38t-6 -46q0 -33 8 -58t24 -42q17 -16 37 -24.5t44 -8.5q22 0 40 7.5t33 22.5q14 15 21.5 34t7.5 42v2v0z" />
    <glyph glyph-name="h" unicode="h" horiz-adv-x="582" 
d="M88 102v518q0 7 -1 14t-3 13t-7.5 9t-13.5 3l-56 2v28q10 0 20 1.5t20 2.5q9 2 19 4l20 4q20 4 39 10t38 13l9 -6v-338h2l74 64q1 -1 2 -0.5t2 1.5l2 2l2 2q7 5 14.5 8.5t15.5 5.5t19 3t24 1q44 0 75.5 -11.5t50.5 -34.5q20 -23 29.5 -55t9.5 -73v-191v-20t1 -17
q0 -7 1.5 -13l2.5 -10q2 -4 4.5 -6t6.5 -4q4 -1 9 -2.5t12 -1.5l41 -1v-30h-3h-3q-2 1 -3.5 1h-3.5h-3h-3h-3.5h-3.5q-5 1 -10 1.5t-10 0.5h-4.5h-4.5h-5.5h-4.5h-4.5h-4.5h-4h-4h-2.5h-3.5h-2.5h-3.5h-11.5h-10.5q-6 0 -11 -0.5t-10 -1.5h-7h-6h-2.5t-3.5 -1h-2.5h-3.5v284
q0 29 -8 52.5t-24 39.5q-16 17 -36.5 25t-46.5 8h-1.5h-0.5v0v0h-1v0q-18 -1 -35 -6.5t-34 -16.5q-16 -11 -27.5 -23t-17.5 -24q-1 -3 -2.5 -6t-2.5 -6t-1 -6v-6v-210v-20t1 -17q0 -7 1.5 -13l2.5 -10q2 -4 4.5 -6t6.5 -4q4 -1 9 -2.5t12 -1.5l45 -1v-30h-4.5h-4.5
q-2 1 -4.5 1h-4.5h-4.5h-4.5h-5.5h-4.5q-10 1 -20 1.5t-21 0.5h-22h-24h-23.5h-22.5t-21.5 -0.5t-19.5 -1.5h-9.5h-9.5h-4.5t-4.5 -1h-4.5h-4.5v30l45 3q6 -1 11.5 0t9.5 2q4 2 7 4t4 6q2 4 2.5 10t1.5 13v8t1 8v9v10v2v0z" />
    <glyph glyph-name="i" unicode="i" horiz-adv-x="291" 
d="M188 465v-363v-20t1 -17q0 -7 1.5 -13l2.5 -10q2 -4 4.5 -6t6.5 -4q4 -1 9 -2.5t12 -1.5l46 -1v-30h-4.5h-4.5q-3 1 -5.5 1h-4.5h-4.5h-4.5h-5.5h-4.5q-10 1 -20 1.5t-21 0.5h-22h-24h-23.5h-22.5t-21.5 -0.5t-19.5 -1.5h-10h-10h-4.5t-4.5 -1h-4.5h-4.5v30l46 3
q6 -1 11.5 0t9.5 2q4 2 7 4t4 6q2 4 2.5 10t1.5 13v8t1 8v9v10v227q0 10 -0.5 20t-1.5 18t-2 13.5t-3 8.5t-5 5t-8 3q-4 2 -10 2.5t-14 0.5l-37 2v28q1 -2 2 -2h2h0.5t1.5 1h0.5h0.5q17 2 34 5t33 7q17 5 31.5 9.5t27.5 9.5l6 2l6 2l3 1.5l3 1.5q1 0 2.5 0.5t2.5 1.5l9 -2v0
v0zM141 687q11 -2 20.5 -6.5t18.5 -12.5q8 -9 12.5 -18.5t4.5 -20.5t-4.5 -21t-12.5 -18q-9 -8 -18.5 -12t-20.5 -4t-21 4t-18 12t-12 18t-4 21t4 20.5t12 18.5q8 8 18 12.5t21 4.5v2v0z" />
    <glyph glyph-name="j" unicode="j" horiz-adv-x="234" 
d="M159 465v-484q0 -30 -3.5 -57.5t-10.5 -51.5t-17 -44t-22 -36q-12 -15 -26 -28t-30 -24t-35 -17t-41 -6l-14 38q5 -1 9 -1.5t8 -0.5h4.5t4.5 -1h4.5h5.5h2.5t2.5 1q1 0 2.5 0.5t2.5 1.5q3 1 6.5 2.5t7.5 3.5q4 3 7.5 6.5l7.5 7.5t7.5 9t6.5 11q5 10 9.5 28t8.5 44
q4 25 6 56.5t2 69.5v334q0 10 -0.5 20t-1.5 18t-2 13.5t-3 8.5t-5 5t-8 3q-4 2 -10 2.5t-14 0.5l-37 2v28q2 -2 3.5 -2h2.5v0v1h0.5h0.5q17 2 34 5t33 7q17 5 31.5 9.5t27.5 9.5l6 2l6 2l3 1.5l3 1.5q1 0 2.5 0.5t2.5 1.5l9 -2v0v0zM112 577q-11 -2 -21 2t-18 13
q-9 8 -13 18t-4 21t4 20.5t13 17.5q8 8 18 12.5t21 4.5t20.5 -4.5t17.5 -12.5t12.5 -17.5t4.5 -20.5t-4.5 -21t-12.5 -18q-8 -9 -17.5 -13t-20.5 -4v2v0z" />
    <glyph glyph-name="k" unicode="k" horiz-adv-x="556" 
d="M104 102v518q0 7 -1 14t-3 13t-7.5 9t-13.5 3l-56 2v28q10 0 20 1.5t20 2.5q9 2 19 4l20 4q20 4 39 10t38 13l9 -6v-457l73 59q2 0 3.5 1t3.5 2q1 2 3 3.5t3 2.5q2 2 3.5 3t3.5 3q1 1 3 2.5t4 2.5q5 5 11 10.5t12 10.5t12 10.5t12 11.5q11 9 20.5 18.5l19.5 19.5l18 18
l18 18l100 2v-30q-1 -2 -1.5 -2h-0.5v0v0h-1.5h-0.5v0v0h-1v0q-14 0 -27.5 -3.5t-25.5 -10.5q-13 -7 -24 -14.5t-22 -15.5l-1.5 -1.5l-0.5 -0.5h-0.5h-0.5l-1 -1v0l-129 -99q8 -11 15.5 -20t15.5 -17l16.5 -16.5l16.5 -16.5l126 -123q2 -3 3.5 -4.5t2.5 -3.5q2 -1 3.5 -2.5
l3.5 -3.5q5 -5 11 -9.5t13 -9.5q6 -4 12.5 -7.5t13.5 -5.5l3 -1.5t3 -0.5q1 -1 2.5 -1h2.5q2 0 3 -0.5t3 -0.5h2.5h2.5v-21l-96 -29l-265 252v-138v-20t1 -17q0 -7 1.5 -13l2.5 -10q2 -4 4.5 -6t6.5 -4q4 -1 9 -2.5t12 -1.5l44 -1v-30h-4.5h-4.5q-2 1 -4.5 1h-4.5h-8.5h-9.5
q-10 1 -20 1.5t-21 0.5h-22h-24h-23.5h-22.5t-21.5 -0.5t-19.5 -1.5h-10h-10h-4.5t-4.5 -1h-4.5h-4.5v30l46 3q6 -1 11.5 0t9.5 2q4 2 7 4t4 6q2 4 2.5 10t1.5 13v8t1 8v9v10v2v0z" />
    <glyph glyph-name="l" unicode="l" horiz-adv-x="291" 
d="M104 102v518q0 7 -1 14t-3 13t-7.5 9t-13.5 3l-56 2v28q10 0 20 1.5t20 2.5q9 2 19 4l20 4q20 4 39 10t38 13l9 -6v-616v-20t1 -17q0 -7 1.5 -13l2.5 -10q2 -4 4.5 -6t6.5 -4q4 -1 9 -2.5t12 -1.5l46 -1v-30h-4.5h-4.5q-3 1 -5.5 1h-4.5h-4.5h-4.5h-5.5h-4.5
q-10 1 -20 1.5t-21 0.5h-22h-24h-23.5h-22.5t-21.5 -0.5t-19.5 -1.5h-10h-10h-4.5t-4.5 -1h-4.5h-4.5v30l46 3q6 -1 11.5 0t9.5 2q4 2 7 4t4 6q2 4 2.5 10t1.5 13v8t1 8v9v10v2v0z" />
    <glyph glyph-name="m" unicode="m" horiz-adv-x="883" 
d="M99 102v225q0 10 -0.5 20t-1.5 18t-2 13.5t-3 8.5t-5 5t-8 3q-4 2 -10 2.5t-14 0.5l-37 2v28q1 -2 2 -2h2h0.5t1.5 1h0.5h0.5q17 2 34 5t33 7q17 5 31.5 9.5t27.5 9.5l6 2l6 2l3 1.5l3 1.5q1 0 2.5 0.5t2.5 1.5l9 -2v-85l69 64q8 5 17.5 9.5t19.5 7.5q11 3 23.5 4.5
t27.5 1.5q22 0 42 -5.5t38 -16.5q18 -10 32.5 -28t24.5 -43l76 70q8 5 17.5 9.5t19.5 7.5q11 3 23.5 4.5t27.5 1.5q29 0 54.5 -10.5t46.5 -31.5t32 -50.5t11 -68.5v-204v-20t1 -17q0 -7 1.5 -13l2.5 -10q2 -4 4.5 -6t6.5 -4q4 -1 9 -2.5t12 -1.5l47 -1v-30h-4h-4q-2 1 -4 1
h-4h-7.5h-6.5q-7 1 -14.5 1.5t-15.5 0.5h-14h-14h-2.5h-3.5h-2.5h-3.5h-11.5h-10.5q-6 0 -11 -0.5t-10 -1.5h-7h-6h-2.5t-3.5 -1h-2.5h-3.5v284q0 23 -6 45t-17 41q-11 20 -29 29.5t-42 9.5h-1.5h-0.5v0v0h-1v0q-18 -1 -35 -6.5t-34 -16.5q-16 -11 -27.5 -23t-17.5 -24
q-1 -3 -2.5 -6t-2.5 -6t-1 -6v-6v-210v-20t1 -17q0 -7 1.5 -13l2.5 -10q2 -4 4.5 -6t6.5 -4q4 -1 9 -2.5t12 -1.5l46 -1v-30h-4.5h-4.5q-3 1 -5.5 1h-4.5h-4.5h-4.5h-5.5h-4.5q-10 1 -20 1.5t-21 0.5h-22h-24h-23.5h-22.5t-21.5 -0.5t-19.5 -1.5h-10h-10h-4.5t-4.5 -1h-4.5
h-4.5v30l46 3q6 -1 11.5 0t9.5 2q4 2 7 4t4 6q2 4 2.5 10t1.5 13v8t1 8v9v10v181q0 23 -6 45t-17 41q-11 20 -29 29.5t-42 9.5h-1.5h-0.5v0v0h-1v0q-18 -1 -35 -6.5t-34 -16.5q-16 -11 -27.5 -23t-17.5 -24q-1 -3 -2.5 -6t-2.5 -6t-1 -6v-6v-210v-20t1 -17q0 -7 1.5 -13
l2.5 -10q2 -4 4.5 -6t6.5 -4q4 -1 9 -2.5t12 -1.5l42 -1v-30h-4h-4q-3 1 -5 1h-4h-8.5h-9.5q-9 1 -19 1.5t-21 0.5h-22h-24h-23.5h-22.5t-21.5 -0.5t-19.5 -1.5h-10h-10h-4.5t-4.5 -1h-4.5h-4.5v30l46 3q6 -1 11.5 0t9.5 2q4 2 7 4t4 6q2 4 2.5 10t1.5 13v8t1 8v9v10v2v0z
" />
    <glyph glyph-name="n" unicode="n" horiz-adv-x="582" 
d="M172 314v-212v-20t1 -17q0 -7 1.5 -13l2.5 -10q2 -4 4.5 -6t6.5 -4q4 -1 9 -2.5t12 -1.5l45 -1v-30h-4.5h-4.5q-2 1 -4.5 1h-4.5h-4.5h-4.5h-5.5h-4.5q-10 1 -20 1.5t-21 0.5h-22h-24h-23.5h-22.5t-21.5 -0.5t-19.5 -1.5h-9.5h-9.5h-4.5t-4.5 -1h-4.5h-4.5v30l45 3
q6 -1 11.5 0t9.5 2q4 2 7 4t4 6q2 4 2.5 10t1.5 13v8t1 8v9v10v227q0 10 -0.5 20t-1.5 18t-2 13.5t-3 8.5t-5 5t-8 3q-4 2 -10 2.5t-14 0.5l-37 2v28q1 -2 2 -2h2h0.5t1.5 1h0.5h0.5q17 2 34 5t33 7q17 5 31.5 9.5t27.5 9.5l6 2l6 2l3 1.5l3 1.5q1 0 2.5 0.5t2.5 1.5l9 -2
v-85h2l74 64q1 -1 2 -0.5t2 1.5l2 2l2 2q7 5 14.5 8.5t15.5 5.5t19 3t24 1q44 0 75.5 -11.5t50.5 -34.5q20 -23 29.5 -55t9.5 -73v-191v-20t1 -17q0 -7 1.5 -13l2.5 -10q2 -4 4.5 -6t6.5 -4q4 -1 9 -2.5t12 -1.5l41 -1v-30h-3h-3q-2 1 -3.5 1h-3.5h-3h-3h-3.5h-3.5
q-5 1 -10 1.5t-10 0.5h-4.5h-4.5h-5.5h-4.5h-4.5h-4.5h-4h-4h-2.5h-3.5h-2.5h-3.5h-11.5h-10.5q-6 0 -11 -0.5t-10 -1.5h-7h-6h-2.5t-3.5 -1h-2.5h-3.5v284q0 29 -8 52.5t-24 39.5q-16 17 -36.5 25t-46.5 8h-1.5h-0.5v0v0h-1v0q-18 -1 -35 -6.5t-34 -16.5q-16 -11 -27.5 -23
t-17.5 -24q-1 -3 -2.5 -6t-2.5 -6t-1 -6v-6v2v0z" />
    <glyph glyph-name="o" unicode="o" horiz-adv-x="546" 
d="M252 -20h-1.5h-0.5h-1v0h-1.5h-0.5h-1.5h-0.5q-46 0 -84.5 16t-68.5 49t-45 74.5t-15 92.5q0 56 16.5 102t50.5 82q33 35 80 53t108 18q48 0 88 -16.5t73 -49.5t49.5 -73.5t16.5 -88.5q0 -58 -18.5 -105t-55.5 -83t-84 -53.5t-104 -17.5v0v0zM264 436q-40 -2 -67 -16
t-42 -41t-22.5 -58t-7.5 -66v-15.5t1 -16.5q0 -8 1.5 -16.5t2.5 -16.5q5 -34 16.5 -64.5t30.5 -58.5q18 -28 46.5 -42t67.5 -14q34 0 58.5 14.5t40.5 42.5q15 29 23 60.5t8 66.5q0 48 -11 90t-32 78q-21 35 -49.5 53t-64.5 18v2v0z" />
    <glyph glyph-name="p" unicode="p" horiz-adv-x="601" 
d="M91 -176v503q0 10 -0.5 20t-1.5 18t-2 13.5t-3 8.5t-5 5t-8 3q-4 2 -10 2.5t-14 0.5l-37 2v28q1 -2 2 -2h2h0.5t1.5 1h0.5h0.5q17 2 34 5t33 7q17 5 31.5 9.5t27.5 9.5l6 2l6 2l3 1.5l3 1.5q1 0 2.5 0.5t2.5 1.5l9 -2v-94h2l80 73q6 4 15.5 8t21.5 8q12 3 26.5 5t30.5 2
q40 0 75 -14t66 -42t46.5 -65t15.5 -83q0 -7 -1 -15.5t-3 -16.5q-1 -9 -3.5 -17.5t-5.5 -16.5q-4 -12 -9 -24t-11 -23q-3 -6 -6 -11.5t-5 -10.5q-3 -5 -6 -9.5t-6 -8.5q-4 -6 -8 -11l-8 -10q-4 -4 -8 -7.5t-7 -5.5l-114 -72q-7 -4 -14.5 -7t-16.5 -5t-18.5 -3t-19.5 -1h-6
h-7q-3 1 -6.5 1h-7.5t-7.5 0.5t-6.5 1.5q-4 0 -7.5 0.5t-7.5 1.5t-7.5 2t-6.5 1q-4 1 -7.5 2t-6.5 2q-7 1 -13 4t-12 7v-187v-19t1 -16q0 -8 1.5 -13.5t2.5 -9.5q2 -3 4.5 -6t6.5 -4q4 -2 9 -2.5t12 -1.5l46 -3v-30h-4.5h-4.5q-3 1 -5.5 1h-4.5h-4.5h-4.5h-5.5h-4.5
q-10 1 -20 1.5t-21 0.5h-22h-24h-23.5h-22.5t-21.5 -0.5t-19.5 -1.5h-10h-10h-4.5t-4.5 -1h-4.5h-4.5v30l46 3q6 1 11.5 1.5t9.5 2.5q4 1 7 4t4 6q2 4 2.5 9.5t1.5 13.5v8t1 8v9.5v9.5v0v0zM175 301v-203q14 -18 30 -30t34 -18q17 -7 36.5 -10t41.5 -3q30 0 56.5 13.5
t48.5 41.5q23 28 34 63t11 78q0 35 -9.5 65t-29.5 55q-19 24 -48.5 36.5t-68.5 12.5q-21 0 -39 -4.5t-32 -12.5t-25 -17t-19 -18q-3 -3 -5 -6l-4 -6t-3.5 -6t-3.5 -6q-2 -4 -3.5 -7.5t-1.5 -6.5v-3v-3v-3.5v-3.5v2v0z" />
    <glyph glyph-name="q" unicode="q" horiz-adv-x="560" 
d="M393 -176v242l-104 -66q-4 -3 -9 -5t-11 -3q-6 -2 -11.5 -2.5t-10.5 -1.5h-2h-2h-2h-2h-1.5h-1.5h-1.5h-1.5q-52 3 -89 18.5t-59 44.5t-34.5 61t-14.5 66q-1 2 -1 4.5v5.5v6v6q0 38 7 68.5t21 54.5q14 23 31 41.5t38 31.5l84 56q5 1 12.5 3.5t17.5 5.5q9 2 19 3.5t20 2.5
h1.5h1.5h1.5h1.5q18 0 36 -2t36 -7q18 -4 35.5 -10t33.5 -14l49 33l19 -11q-4 -9 -7.5 -18t-5.5 -19t-3.5 -19.5t-2.5 -19.5q-1 -9 -2 -17.5t-1 -16.5q-1 -8 -1 -15.5v-14.5v-492v-19t1 -16q0 -8 1.5 -13.5t2.5 -9.5q2 -3 4.5 -6t6.5 -4q4 -2 9 -2.5t12 -1.5l46 -3v-30h-4.5
h-4.5q-3 1 -5.5 1h-4.5h-4.5h-4.5h-5.5h-4.5q-10 1 -20 1.5t-21 0.5h-22h-24h-19h-18h-8.5t-9.5 -1h-8.5h-9.5h-4.5h-4.5h-2t-2 -1h-3h-2h-6h-5h-6h-6h-6t-5 -1h-6h-6v30l58 3q6 1 11.5 1.5t9.5 2.5q4 1 7 4t4 6q2 4 2.5 9.5t1.5 13.5v8t1 8v9.5v9.5v0v0zM393 120v261
q-10 8 -21.5 15t-23.5 11q-13 5 -25.5 7.5t-24.5 3.5h-4t-4 1h-4h-4h-4t-4 1h-4h-4h-4h-4q-3 -1 -5 -1h-4q-4 -1 -8 -1.5t-8 -1.5q-21 -5 -40.5 -17t-36.5 -32q-17 -19 -25.5 -48t-8.5 -68v-2.5v-2.5v-3v-3v-5.5t1 -4.5q2 -35 11 -67.5t26 -61.5t46.5 -43.5t70.5 -14.5h5h6
h3t3 1q1 0 2.5 0.5t2.5 1.5q5 1 10 2.5t11 3.5q5 2 10 4.5t10 5.5q10 6 18 12t15 13q5 4 8 8l6 8q3 5 4.5 8.5t1.5 6.5v2v0z" />
    <glyph glyph-name="r" unicode="r" horiz-adv-x="395" 
d="M104 102v225q0 10 -0.5 20t-1.5 18t-2 13.5t-3 8.5t-5 5t-8 3q-4 2 -10 2.5t-14 0.5l-37 2v28q1 -2 2 -2h2h0.5t1.5 1h0.5h0.5q17 2 34 5t33 7q17 5 31.5 9.5t27.5 9.5l6 2l6 2l3 1.5l3 1.5q1 0 2.5 0.5t2.5 1.5l9 -2v-101h2l54 64q5 4 10.5 9t11.5 9q6 5 12 8t12 5
q2 1 4.5 1.5t5.5 1.5q2 1 4.5 1.5t4.5 1.5q2 0 4.5 0.5t5.5 0.5q2 1 4.5 1h4.5h3.5h2.5h1.5h1.5q1 -1 1.5 -1h1.5q5 -1 10.5 -1.5t9.5 -2.5q5 -1 8 -2.5t6 -3.5l-9 -118h-21q-4 7 -10.5 15t-14.5 15t-18.5 10.5t-24.5 3.5q-16 0 -31.5 -8t-29.5 -23q-13 -16 -20 -35.5
t-7 -43.5v-170v-20t1 -17q0 -7 1.5 -13l2.5 -10q2 -4 5 -6t9 -4q5 -1 12 -2.5t16 -1.5l52 -1v-30h-6.5h-6.5q-3 1 -6 1h-6h-12h-12h-4h-4q-2 1 -4 1h-4h-8h-8q-7 1 -14.5 1h-15.5h-14.5h-15.5h-23.5h-22.5t-21.5 -0.5t-19.5 -1.5h-10h-10h-4.5t-4.5 -1h-4.5h-4.5v30l46 3
q6 -1 11.5 0t9.5 2q4 2 7 4t4 6q2 4 2.5 10t1.5 13v8t1 8v9v10v2v0z" />
    <glyph glyph-name="s" unicode="s" horiz-adv-x="424" 
d="M41 143h30v-41q0 -21 7.5 -36t23.5 -25t33.5 -16t36.5 -8q3 -1 6.5 -1.5t7.5 -0.5h6.5h7.5q23 0 43.5 6t38.5 19q17 13 26 29.5t9 36.5q0 12 -3.5 22.5t-9.5 19.5t-15 15t-20 9q-10 2 -21 4.5t-22 5.5q-12 3 -23.5 6t-22.5 6q-7 2 -14.5 4t-15.5 4q-7 2 -14 4.5t-14 5.5
q-18 7 -33.5 16.5t-27.5 21.5t-18 30t-6 41q0 41 14.5 69t44.5 44q29 17 61.5 25t67.5 8q17 0 34 -2t33 -5q17 -4 32 -8.5t30 -9.5q-1 -7 -1.5 -14t-0.5 -13q-1 -7 -1 -14v-14q-1 -14 -1.5 -28.5t-0.5 -29.5l-28 2v23q0 17 -9 32t-26 25q-17 11 -36 16.5t-39 6.5h-2h-2h-1.5
h-0.5q-25 0 -42.5 -4.5t-28.5 -13.5q-10 -9 -16.5 -19t-8.5 -21q-1 -3 -1.5 -6t-0.5 -6v-2.5v-2.5v-3v-3q0 -16 6.5 -29t19.5 -22t34 -16t49 -12q44 -7 77 -17.5t55 -24.5q21 -13 32 -35t11 -51q0 -41 -17 -72.5t-52 -52.5q-34 -20 -72.5 -30.5t-79.5 -10.5h-8h-8q-4 1 -8 1
h-8q-8 1 -15.5 1.5t-15.5 2.5q-10 1 -19.5 3t-18.5 4q-5 1 -10 2.5t-9 2.5q-5 2 -10 3l-10 2q3 13 5 26.5t3 27.5t1.5 28t1.5 29v6.5v7.5v6.5v7.5v2v0z" />
    <glyph glyph-name="t" unicode="t" horiz-adv-x="326" 
d="M98 382l-76 -4v21l78 35v70v8.5v9.5q-1 4 -1 9v10q-1 10 -1.5 20t-1.5 20q7 2 13.5 4t12.5 5q6 2 12 4.5t12 5.5q5 2 10.5 4.5t9.5 5.5q5 2 8.5 4.5t6.5 4.5l12 -9q-1 -9 -2 -17.5t-2 -16.5q-1 -9 -2 -17.5t-1 -16.5l-2 -20t-1 -20q-1 -10 -1 -19v-17v-36l137 6l-9 -54
h-128v-262q0 -19 3 -32t9 -22t16.5 -13t26.5 -4q8 0 14.5 1t12.5 3t12 4.5t10 5.5h1.5t1.5 1l0.5 0.5t1.5 0.5t1.5 0.5l1.5 1.5l0.5 0.5t1.5 0.5l13 -15l-48 -53q-2 -2 -6 -4t-10 -3q-6 -2 -12 -2.5t-12 -1.5h-3t-3 -1h-3.5h-3.5h-6h-6q-20 0 -37.5 5.5t-31.5 15.5
q-15 11 -22 31.5t-7 51.5v290v0v0z" />
    <glyph glyph-name="u" unicode="u" horiz-adv-x="603" 
d="M503 465v-363v-20t1 -17q0 -7 1.5 -13l2.5 -10q2 -4 4.5 -6t6.5 -4q4 -1 9 -2.5t12 -1.5l41 -1v-30h-3h-3q-2 1 -3.5 1h-3.5h-3h-3h-3.5h-3.5q-5 1 -10 1.5t-10 0.5h-4.5h-4.5h-5.5h-4.5h-4.5h-4.5h-4h-4h-7.5h-6.5h-7.5h-7.5q-7 0 -14 -0.5t-14 -1.5h-7.5h-6.5h-3t-3 -1
h-3.5h-3.5v2v1v1t1 2q0 9 0.5 19t1.5 20v10t1 11v12v12l-67 -60q-10 -11 -22.5 -18.5t-26.5 -10.5q-13 -5 -29 -7.5t-34 -2.5q-48 0 -77.5 11t-40.5 34t-17 48.5t-6 53.5v4.5v5.5v6v6v170q0 10 -0.5 20t-1.5 18t-2 13.5t-3 8.5t-5 5t-8 3q-4 2 -10 2.5t-14 0.5l-37 2v28
q1 -2 2 -2h2h0.5t1.5 1h0.5h0.5q17 2 34 5t33 7q17 5 31.5 9.5t27.5 9.5l6 2l6 2l3 1.5l3 1.5q1 0 2.5 0.5t2.5 1.5l9 -2v-295q0 -31 5 -54t15 -38q10 -16 32.5 -23.5t56.5 -7.5q19 0 37 6t34 19q17 13 29 27t19 29q1 2 1.5 4t1.5 5q1 2 1.5 4t1.5 4q0 2 0.5 4t0.5 5
q1 2 1 4v4v165q0 10 -0.5 20t-1.5 18t-2 13.5t-3 8.5t-5 5t-8 3q-4 2 -10 2.5t-14 0.5l-37 2v28q1 -2 2 -2h2h0.5t1.5 1h0.5h0.5q17 2 34 5t33 7q17 5 31.5 9.5t27.5 9.5l6 2l6 2l3 1.5l3 1.5q1 0 2.5 0.5t2.5 1.5l9 -2v0v0z" />
    <glyph glyph-name="v" unicode="v" horiz-adv-x="565" 
d="M452 362l-118 -260q-1 -5 -2.5 -8t-2.5 -6t-2 -5.5t-2 -4.5q-1 -3 -2.5 -6t-2.5 -6q-2 -4 -3 -7l-2 -6l-4 -12l-4 -12q-1 -2 -2 -4.5t-1 -4.5q-1 -3 -2 -5.5t-2 -4.5q-1 -3 -2 -5t-1 -4q-1 -1 -1 -1.5t-1 -0.5q0 -2 -0.5 -3.5t-1.5 -2.5h-50l-172 403q-1 -1 -1.5 0
t-0.5 2q-1 1 -1.5 2t-0.5 2q-1 5 -3.5 8.5t-5.5 7.5t-7.5 6t-10.5 3l-34 4v28q2 -1 4.5 -1.5t5.5 -0.5q2 -1 4.5 -1h4.5h10h10q10 -1 19.5 -1.5t19.5 -0.5h19.5h19.5h7.5h7.5h6.5h7.5h7.5t7.5 1h6.5h7.5h4.5h4.5h2t3 1h2.5h2.5h4.5h5.5h4.5h4.5h4.5t5.5 1h4.5h5.5v-26
l-49 -2q-6 -2 -11 -4t-8 -4t-4.5 -6t-1.5 -9q0 -4 0.5 -7.5t1.5 -8.5q2 -4 3.5 -9.5t3.5 -10.5l119 -286q2 3 4 7l4 8q2 5 4 9.5t4 8.5q3 6 6 12.5t6 13.5q2 6 5 12.5t6 13.5t6 13.5t6 13.5q2 6 5 12.5t6 13.5l42 108q5 11 8.5 21.5t5.5 19.5t3.5 16.5t1.5 13.5t-1.5 11
t-4.5 8t-7.5 4.5t-10.5 2.5l-41 4v28q4 -2 7.5 -2.5t7.5 -0.5h8h8h2h2q1 -1 2 -1h2h4h4h6h6q2 -1 5 -1h6h12h12h6h6h5h6h6t6 1h6h6h4h4h2t2 1h2h2h7.5h7.5h4t4 1h4h4v-26l-31 -2q-8 -2 -15.5 -7t-13.5 -13q-6 -9 -11 -18t-10 -19q-1 -1 -2 -2.5t-2 -3.5q-1 -1 -1.5 -2.5
t-0.5 -3.5v2v0z" />
    <glyph glyph-name="w" unicode="w" horiz-adv-x="834" 
d="M290 185l123 284h23q3 -13 6.5 -23.5t7.5 -20.5t7.5 -19.5t7.5 -19.5l115 -288q2 4 4 8.5t4 9.5t4 10.5t4 10.5l4 10t4 11l4 10l4 10q5 11 8.5 21.5t7.5 20.5l50 142q1 1 1.5 3t1.5 5q1 2 1.5 4t0.5 4q1 5 1.5 8.5t0.5 7.5q0 8 -2.5 14t-7.5 10q-4 4 -11.5 6t-17.5 3
l-34 4v28q4 -2 8 -2.5t8 -0.5h4h5h4h4h2h2q1 -1 2 -1h2h4h4h6h6q3 -1 6 -1h6h6h7h6h6h12h12h6t7 1h6h6h4h4h2t2 1h2h2h8h8h4t5 1h4h4v-26l-26 -2q-4 -2 -8 -3.5t-7 -3.5q-1 -1 -3 -2.5t-3 -2.5l-3.5 -3.5l-3.5 -3.5l-4 -6t-4 -7q-3 -4 -5 -7.5t-4 -8.5q-4 -9 -9 -19t-10 -22
l-68 -154q-3 -8 -6.5 -16t-6.5 -15q-3 -8 -5.5 -15.5t-5.5 -15.5l-10 -30l-10 -30q-1 -1 -1.5 -2t-0.5 -2v-1.5v-0.5q-1 -1 -1 -1.5v-0.5q-1 -4 -2.5 -8.5t-2.5 -8.5q-2 -4 -3 -8t-3 -8q-1 -4 -2.5 -8t-2.5 -8q-2 -4 -3 -7t-3 -7h-46l-136 342q-1 -4 -2.5 -7t-2.5 -6
q-2 -3 -3 -6t-3 -6q-3 -6 -5.5 -11.5t-4.5 -10.5q-1 -1 -1.5 -2.5t-1.5 -3.5q0 -1 -0.5 -1.5l-0.5 -0.5q-1 -1 -1 -1.5v-1.5q-4 -7 -7.5 -14t-6.5 -14l-6 -14l-6 -14l-98 -228h-47l-102 336q-5 15 -9.5 27.5t-9.5 22.5q-4 10 -8 17.5t-8 13.5q-4 5 -7.5 8t-7.5 4
q-4 2 -7.5 3t-8.5 2l-28 4v28q5 -2 10 -2.5t10 -0.5h10h10h2h3q1 -1 2.5 -1h2.5h4.5h5.5h6.5h7.5q4 -1 7.5 -1h7.5h15.5h14.5h15.5h14.5h7.5t7.5 1h7.5h7.5h4h5h2t3 1h2.5h2.5h10h10h4.5t5.5 1h4.5h5.5v-26l-40 -2q-10 -2 -17 -4t-12 -5q-4 -3 -6.5 -8t-2.5 -12v-4.5t1 -5.5
q0 -3 1 -6l2 -6l84 -274q3 5 6 11.5t6 13.5t6 13.5t6 13.5q1 2 1.5 3.5t1.5 3.5q1 1 1.5 3t1.5 3q2 3 3.5 6.5t2.5 7.5v2v0z" />
    <glyph glyph-name="x" unicode="x" horiz-adv-x="516" 
d="M288 254l148 -200q3 -5 7 -9.5t8 -7.5q5 -4 9.5 -6t10.5 -3l25 -1v-30h-2.5h-2.5q-2 1 -3 1h-2h-5.5h-4.5h-1.5h-1.5q-1 1 -1.5 1h-1.5h-2h-2h-4h-4q-2 1 -4 1h-4h-7.5h-7.5h-10.5h-10.5t-10.5 -0.5t-10.5 -1.5h-5.5h-4.5h-2.5t-2.5 -1h-3h-2l-6 4t-6 6q-3 3 -5.5 7
t-4.5 8q-1 0 -1.5 1t-0.5 2l-1.5 1.5t-0.5 1.5l-107 164l-74 -98q-5 -8 -10 -15.5t-10 -15.5q-2 -4 -4.5 -7.5t-4.5 -6.5q-2 -4 -4.5 -7.5t-4.5 -7.5l-1.5 -1.5l-0.5 -0.5v-1.5v-0.5q-3 -4 -5.5 -8t-4.5 -8q-3 -4 -5.5 -8t-4.5 -6h-86v27h17l1.5 -1.5t1.5 -0.5h0.5h1.5h1.5
t1.5 1l0.5 0.5t1.5 0.5q2 0 3 0.5l3 1.5q1 1 2.5 1.5t2.5 1.5q2 2 4.5 4t4.5 4l149 178l-120 174q-4 4 -9 8.5t-12 8.5q-4 2 -7.5 4t-6.5 3q-4 1 -7.5 2t-7.5 1l-21 4l-5 26l116 20q8 -10 16.5 -18.5t15.5 -16.5q8 -9 15 -18t13 -18l76 -114l124 175h82v-28h-14
q-5 -2 -9.5 -2.5t-9.5 -1.5q-4 -1 -8 -3.5t-7 -5.5l-142 -164v0v0z" />
    <glyph glyph-name="y" unicode="y" horiz-adv-x="556" 
d="M297 86l119 292q1 1 1.5 2.5t0.5 3.5q1 1 1.5 3t0.5 3q1 3 1.5 5.5t0.5 4.5q0 7 -3 12t-8 8q-6 3 -13.5 4.5t-17.5 2.5l-26 4v28q4 -2 8 -2.5t8 -0.5h8h8h2h2q1 -1 2 -1h2h4h4h5.5h5.5q3 -1 6 -1h6h12h12h12h12h6t6 1h6h6h3.5h3.5h2t2 1h2h2h8h8h4t4 1h4h4v-26l-28 -2
q-1 -2 -2 -2.5t-2 -0.5h-1.5h-0.5q-1 -1 -1.5 -1h-0.5q-8 -3 -16.5 -11t-17.5 -22q-9 -13 -19.5 -35t-22.5 -51l-203 -466q-12 -27 -26 -49.5t-31 -39.5q-16 -17 -39.5 -25.5t-55.5 -8.5h-2h-2q-2 1 -3 1h-2h-2h-2q-1 1 -2 1h-2q-2 1 -4 1.5t-4 0.5q-2 1 -4 1.5t-4 1.5
q-4 1 -7 2.5t-6 3.5h-0.5h-0.5l-1 1v0h-0.5h-0.5l-1 1v0l24 75h13q2 -2 5 -4.5t7 -5.5q4 -2 8 -4.5t8 -3.5q2 0 3 -0.5l3 -1.5q1 0 2.5 -0.5t2.5 -0.5q2 0 3 -0.5t3 -0.5q1 -1 2.5 -1h2.5v0v0v0h1v0v0v0v0q15 1 28 8t23 19q11 13 20 26.5t16 27.5q3 7 6 13.5t6 12.5
q3 7 5.5 13t4.5 11l23 61q-1 4 -2.5 7.5t-2.5 6.5q-2 4 -3 7t-3 6q-1 3 -2.5 6.5t-2.5 7.5q-2 3 -3 6.5t-3 7.5q-1 3 -2.5 6t-2.5 7q-2 3 -3 6l-2 6t-2.5 6t-2.5 7q-2 3 -3 6l-2 6l-2 4t-1 5l-2 4l-2 4t-2 4.5t-1 4.5q-1 2 -2 4.5t-2 4.5l-109 264q-1 0 -1.5 1t-0.5 3
q-1 1 -1.5 2t-1.5 2q-1 2 -2 4.5t-2 4.5q-5 8 -10 14t-10 9t-11 4.5t-12 2.5l-18 4v28q2 -1 4.5 -1.5t5.5 -0.5q2 -1 4.5 -1h4.5h10h10h2h3q1 -1 2 -1h2h4.5h5.5h6.5h7.5q3 -1 6.5 -1h7.5h15.5h14.5h7.5h7.5h6.5h7.5h7.5t7.5 1h6.5h7.5h4.5h4.5h2t3 1h2.5h2.5h4.5h5.5h4.5
h4.5h4.5t5.5 1h4.5h5.5v-26l-38 -2q-7 -2 -13 -4t-11 -4q-5 -3 -7.5 -8t-1.5 -13q0 -4 0.5 -8t1.5 -9q2 -4 3.5 -9.5t3.5 -11.5l64 -166q5 -16 11 -30l12 -28q6 -13 13 -26.5t15 -27.5v2v0z" />
    <glyph glyph-name="z" unicode="z" horiz-adv-x="500" 
d="M455 432l-314 -397h135q27 -2 51 -1t45 3t32.5 7.5t13.5 13.5l18 81h30q-1 -8 -1.5 -14t-1.5 -12q0 -3 -0.5 -6t-0.5 -5q-1 -3 -1.5 -6t-0.5 -6q-1 -3 -1.5 -6t-0.5 -6q-1 -3 -1 -6v-6q-1 -9 -2.5 -18t-2.5 -18t-1 -17.5v-15.5h-13.5h-12.5q-7 1 -13.5 1h-12.5h-25.5
h-25.5h-6.5h-6.5q-4 1 -7 1h-6h-13.5h-12.5h-19.5h-19.5q-10 1 -19.5 1h-19.5h-19.5h-18.5h-19.5h-19.5h-14.5h-15.5h-7.5t-7.5 -1h-7.5h-6.5h-5.5h-4.5h-2.5t-2.5 -1h-3h-2h-10h-10h-5.5t-4.5 -1h-5.5h-4.5l-6 20q4 3 7.5 7t7.5 8q4 5 8 9.5t8 8.5q8 8 15.5 16.5t14.5 17.5
q4 5 7.5 9.5t7.5 8.5q3 5 6.5 9.5t7.5 8.5l170 214q3 2 6 5.5t6 7.5q2 4 5 7.5t6 7.5q5 8 10.5 15.5t11.5 14.5q2 3 4.5 7t5.5 8q2 4 4.5 7.5t5.5 7.5l-143 2q-27 -2 -45.5 -3.5t-28.5 -3.5t-15 -7.5t-7 -13.5l-12 -66h-30q2 13 2.5 23t1.5 16q0 6 0.5 11t1.5 9v1.5v1.5v0.5
v1.5v2.5v2.5v4t1 5v6v6q0 7 0.5 17t1.5 23h11.5h11.5q5 -1 11 -1h12h12h12h11h12h6h6q2 -1 5 -1h6h12h12h17.5h17.5q8 -1 17 -1h18h34.5h35.5h12.5h13.5h6.5t7.5 1h6.5h6.5h4h4h2t3 1h2.5h2.5h4h5h4h4h4.5t4.5 1h4.5h4.5v-28v0v0z" />
    <glyph glyph-name="braceleft" unicode="{" horiz-adv-x="333" 
d="M206 128v-173q0 -27 4.5 -49t13.5 -38q9 -17 25 -27.5t40 -15.5q-43 0 -73 7.5t-47 22.5q-18 15 -26.5 46.5t-8.5 81.5v168q0 25 -3.5 45.5t-9.5 33.5q-7 14 -22.5 24t-40.5 17q23 7 38.5 17.5t22.5 24.5q8 14 11.5 33t3.5 44v188q0 46 10 76t30 43q20 14 49 20.5t66 6.5
q-25 -7 -41.5 -18.5t-24.5 -27.5q-9 -16 -13 -37t-4 -48v-184q0 -29 -3.5 -51t-11.5 -39q-7 -16 -23.5 -28t-42.5 -19v0q27 -8 43.5 -21t23.5 -31t10.5 -41.5t3.5 -52.5v2v0z" />
    <glyph glyph-name="bar" unicode="|" horiz-adv-x="606" 
d="M275 0v726h56v-726h-56v0v0z" />
    <glyph glyph-name="braceright" unicode="}" horiz-adv-x="333" 
d="M127 -45v173q0 28 3 51t10 41t24 30.5t44 19.5v4q-26 5 -42.5 17t-24.5 28q-7 17 -10.5 38.5t-3.5 49.5v188q0 25 -4.5 46t-12.5 37q-9 16 -25.5 27.5t-40.5 18.5q38 0 66.5 -6.5t48.5 -20.5q20 -13 30 -43.5t10 -77.5v-184q0 -26 4 -45.5t11 -33.5q8 -14 23 -24.5
t38 -17.5q-25 -7 -40.5 -17t-22.5 -24q-7 -13 -10 -33.5t-3 -47.5v-166q0 -50 -9 -81.5t-26 -46.5q-18 -15 -48 -22.5t-72 -7.5q23 5 39.5 15.5t25.5 27.5q9 16 13.5 38t4.5 49v0v0z" />
    <glyph glyph-name="asciitilde" unicode="~" horiz-adv-x="606" 
d="M520 347l35 -40q-1 -2 -1.5 -3.5t-0.5 -2.5q-1 -1 -1.5 -2t-0.5 -2q-11 -19 -25.5 -36.5t-31.5 -33.5t-37 -23.5t-43 -7.5q-7 0 -14.5 1t-16.5 3q-4 1 -8.5 2.5t-8.5 2.5q-5 2 -9 3.5t-9 3.5q-1 0 -3 0.5t-3 1.5q-2 0 -3.5 0.5t-3.5 1.5q-3 2 -6 3.5t-6 2.5q-6 2 -12 4.5
t-12 4.5t-10.5 4.5t-9.5 4.5q-2 1 -4.5 1.5t-4.5 1.5l-4 2l-4 2q-4 2 -8.5 3.5t-8.5 3.5q-5 1 -9 3t-9 3q-4 2 -8.5 3t-8.5 2q-5 0 -9 0.5t-9 0.5q-17 0 -31 -6t-25 -17t-20.5 -23t-17.5 -25q-1 -3 -2.5 -6t-3.5 -5q-1 -3 -2.5 -5.5t-3.5 -4.5l-35 42q1 1 2 2.5t2 2.5
q1 2 2.5 4t2.5 4q11 19 24 36t29 33t36 24t44 8q10 0 20.5 -2t22.5 -5l12 -4l12 -4q5 -2 11 -4.5t12 -4.5q2 -1 4.5 -2t5.5 -2l3 -1.5t3 -0.5q1 -1 2.5 -1.5t2.5 -0.5q0 -1 0.5 -1.5t1.5 -0.5h0.5h1.5q0 -1 0.5 -1h1.5q2 -1 3.5 -1.5t2.5 -1.5q1 0 1.5 -0.5t1.5 -0.5
q0 -1 0.5 -1h1.5q14 -6 26.5 -11.5t24.5 -10.5q12 -4 23 -6.5t20 -2.5q14 0 27.5 5t25.5 15q12 11 22 22t18 24l2 2t2 3q0 1 1 2.5t2 2.5t1.5 2l1.5 3q0 1 0.5 2.5t1.5 2.5v2v0z" />
    <glyph glyph-name="exclamdown" unicode="&#xa1;" horiz-adv-x="278" 
d="M115 -225h-34v25v18t1 18l2 18t2 17v6v6t0.5 6t1.5 6q0 6 0.5 12t1.5 12t1.5 12t1.5 12l24 278v25l28 23l10 -5v-12v-10t0.5 -10t1.5 -10l26 -303q0 -6 0.5 -12.5t1.5 -13.5q0 -7 0.5 -13.5t1.5 -13.5v-6t1 -7v-6.5v-6.5q0 -7 0.5 -13.5t1.5 -13.5l-75 -38v0v0zM138 353
q-12 -2 -22 2.5t-18 13.5q-9 9 -13 19t-4 21t4 21t13 19t19 13.5t21 4.5t21.5 -4.5t19.5 -13.5t13.5 -19t4.5 -21t-4.5 -21t-13.5 -19t-19 -13.5t-22 -4.5v2v0z" />
    <glyph glyph-name="cent" unicode="&#xa2;" horiz-adv-x="500" 
d="M347 411l-106 -353q2 -3 5 -4.5t6 -3.5l3 -1.5t3 -0.5q1 -1 2.5 -1.5t2.5 -1.5q8 -3 16.5 -5t16.5 -4q8 -1 15 -1.5t14 -0.5q13 0 25 1t24 4q6 2 12 3.5t12 3.5q5 2 11 4l12 4l4 2l4 2t4.5 2t5.5 2l9 -9l-20 -33q-10 -7 -21 -11.5t-23 -8.5l-12 -2t-11 -3q-6 -1 -12 -2.5
t-12 -2.5t-12 -1.5t-12 -1.5h-6t-5 -1h-6h-6h-8.5h-8.5q-5 1 -9 1h-9q-9 1 -17.5 1.5t-16.5 2.5l-28 -92h-41l32 104q-31 13 -54.5 34.5t-38.5 49.5q-15 29 -22.5 59.5t-7.5 64.5q0 36 5.5 67t16.5 56q11 26 31.5 46t48.5 34l80 42q3 0 6.5 1t7.5 2q2 1 4 1.5t4 1.5
q2 0 4 0.5t4 1.5q4 1 7.5 1.5t7.5 0.5q3 1 6.5 1h7.5h6.5t6.5 1h5.5h4.5l27 94h40l-27 -92q3 -2 7 -2.5t8 -0.5q4 -1 8 -1.5t8 -2.5q6 -1 12.5 -3.5t13.5 -5.5l12 -6t11 -6q-1 -10 -2.5 -19t-3.5 -18q-1 -9 -2 -17.5t-1 -16.5q-1 -6 -1.5 -12t-0.5 -12v-6v-5v-6v-6v-2.5
v-3.5v-2.5v-3.5l-28 2l-9 66q-5 4 -11 8l-12 8q-7 4 -13.5 7t-13.5 6v2v0zM208 84l101 335q-5 -1 -10 -0.5t-10 1.5q-2 0 -4.5 0.5t-4.5 0.5q-3 1 -5.5 1h-4.5q-26 -1 -47.5 -11.5t-38.5 -30.5q-17 -21 -25.5 -53t-8.5 -76v-7.5v-6.5v-3v-3q0 -2 0.5 -3.5t0.5 -3.5
q2 -21 5.5 -40.5t10.5 -39.5q6 -19 16.5 -34.5t24.5 -27.5v2v0z" />
    <glyph glyph-name="sterling" unicode="&#xa3;" horiz-adv-x="500" 
d="M374 360l-4 -48q-22 -1 -44.5 -0.5t-45.5 1.5h-22.5t-22.5 1q-12 0 -23.5 0.5t-22.5 0.5q-1 -34 -8 -66.5t-21 -64.5q-13 -31 -29 -60.5t-36 -56.5q13 2 25.5 3t25.5 2t26 1.5t26 0.5h12.5h13.5q6 -1 12.5 -1h12.5h12.5h13.5q6 -1 12.5 -1h13.5q8 -1 15.5 -1.5t14.5 -0.5
h8h8q4 -1 8 -1h8q5 -1 10 -1.5t10 -0.5h10.5h10.5v0h1v0v0h0.5h1.5q8 0 13.5 2.5t8.5 7.5t5 11.5t3 15.5l7 54h26v-148q-5 -6 -10 -9l-10 -6q-5 -2 -10 -3.5t-10 -1.5q-25 0 -50 1t-49 3t-46.5 5t-43.5 8q-2 0 -4.5 0.5t-4.5 1.5q-3 0 -5.5 0.5t-4.5 1.5q-4 1 -8.5 2t-9.5 2
q-16 3 -32 5.5t-32 3.5q-16 2 -31.5 3.5t-29.5 2.5l-45 -43h-22v49q2 1 3.5 2t3.5 3q2 1 4 2.5t4 2.5q2 2 4 3t4 3q2 1 4.5 2.5t4.5 2.5q1 1 2 1.5t2 1.5q1 0 2 0.5t2 1.5l4 2l4 2t4 4t5 7q3 5 6 11t6 13q5 14 9.5 32t8.5 41q5 23 7 50.5t2 59.5v32q-8 -2 -16 -2.5t-16 -0.5
h-8h-8q-4 -1 -8 -1h-8h-4h-4q-2 -1 -4 -1h-4h-8h-8l8 47q5 -2 10.5 -2.5t11.5 -0.5h10.5h11.5h2h2q0 -1 1 -1h2h4h4h3.5h3.5q1 -1 3 -1h4h7.5h7.5v108q0 10 1 20t4 20l6 18t7 17q3 8 7.5 16.5t10.5 15.5q5 8 12 15.5t15 14.5t17.5 14.5t19.5 14.5q11 8 23.5 16t26.5 16
t28 14t29 10q15 5 30.5 7t31.5 2h2h2h1h2h4h4q11 -1 22.5 -3t22.5 -5t21 -7.5t20 -10.5q-2 -9 -3.5 -19.5t-3.5 -21.5q-1 -11 -2 -22.5t-1 -22.5v-5.5v-4.5v-5.5v-4.5v-7.5v-7.5v-7.5t1 -7.5l-33 2q0 23 -3 41.5t-9 31.5t-18 22t-32 14q-3 0 -5.5 0.5t-4.5 1.5h-2.5t-2.5 1
h-3h-2h-2.5t-2.5 1h-3h-3h-3h-3h-3.5h-3.5q-34 0 -58.5 -12t-39.5 -35q-15 -24 -24 -49.5t-13 -54.5q-1 -7 -1.5 -13.5t-0.5 -13.5q-1 -7 -1 -13.5v-12.5v-87q11 -1 22.5 -1h22.5t22.5 0.5t23.5 1.5h11.5t11.5 1h11h12q11 0 22.5 0.5t22.5 1.5v2v0z" />
    <glyph glyph-name="currency" unicode="&#xa4;" horiz-adv-x="500" 
d="M77 531l48 -48q10 7 22.5 13.5t27.5 12.5q15 5 30.5 8.5t31.5 4.5h3.5h2.5h2h2h1h2h3.5h2.5h2h2h1h2q16 -1 31.5 -4.5t30.5 -8.5q15 -6 27.5 -13t22.5 -15l48 50l47 -47l-49 -49q11 -13 19 -26.5t13 -30.5q5 -16 7.5 -33.5t2.5 -34.5q0 -18 -3 -34.5t-8 -32.5
t-12.5 -29.5t-18.5 -25.5l49 -47l-45 -45l-48 48q-12 -12 -25.5 -20.5t-30.5 -13.5q-16 -5 -34 -7.5t-37 -2.5t-36.5 2.5t-34.5 7.5q-16 5 -30.5 13.5t-25.5 18.5l-48 -46l-45 45l49 49q-10 10 -18.5 23.5t-13.5 29.5t-7.5 32.5t-2.5 34.5q0 17 2.5 34.5t7.5 33.5
q5 17 13 30.5t19 24.5l-49 51l47 47v0v0zM250 465q-31 -2 -58.5 -13t-50.5 -34q-22 -22 -33.5 -49t-11.5 -59q0 -31 11.5 -57.5t33.5 -49.5q23 -22 50.5 -33t58.5 -11q32 0 59 11t49 33q23 23 34.5 49.5t11.5 57.5q0 32 -11.5 59t-34.5 49q-22 23 -49 34t-59 11v2v0z" />
    <glyph glyph-name="yen" unicode="&#xa5;" horiz-adv-x="500" 
d="M334 382h122v-39h-139l-1.5 -3t-0.5 -2v-1.5v-1.5q-3 -6 -6 -13t-5 -15l-2 -8t-1 -7q-1 -4 -1 -8v-8v-30h156v-39h-156v-87q0 -16 0.5 -28t1.5 -22t2.5 -16.5t3.5 -10.5t5 -6.5t7 -4.5l10 -2.5t14 -1.5l41 -1v-30q-17 1 -33.5 1.5t-31.5 0.5q-15 1 -30 1h-30h-31.5
t-30.5 -1q-15 0 -29 -0.5t-27 -1.5v30l41 3q8 -1 14 0t10 2q4 2 7 4.5t5 6.5t3.5 10.5t2.5 16.5t1.5 22t0.5 26v89h-156v39h156v16v0v1q-1 1 -1 2v2v4.5v5.5q0 1 -0.5 2t-0.5 2q-1 0 -1 1v2t-0.5 2t-0.5 2q-1 0 -1.5 1t-0.5 2l-21 52h-129v39h111l-75 160q-2 3 -4.5 7.5
t-4.5 8.5q-2 5 -4.5 10t-4.5 10q-7 14 -15 26t-17 23t-20 16.5t-24 5.5h-1.5h-0.5h-1.5h-0.5q-1 -1 -1.5 -1h-0.5h-1.5h-0.5v31l92 21q0 -2 0.5 -2h1.5h0.5t1.5 1h0.5h0.5h0.5h1.5h1.5h1.5q8 0 14 -2.5t12 -7.5q5 -5 9.5 -11t7.5 -13q2 -4 4 -9t5 -12q2 -7 4.5 -13.5
t5.5 -13.5q0 -2 0.5 -4.5t1.5 -4.5l2 -4l2 -4l104 -259l70 163q5 10 10.5 21.5t9.5 23.5l10 24l10 24q2 6 4.5 12t5.5 12q2 5 4.5 11t4.5 12q5 12 9.5 24t8.5 24l70 2v-15q-5 -8 -10 -15.5t-10 -15.5q-3 -4 -5.5 -8t-4.5 -7q-3 -4 -5.5 -8t-4.5 -8q-7 -13 -14.5 -25.5
t-15.5 -26.5q-4 -7 -7.5 -13.5t-7.5 -12.5q-4 -7 -7.5 -13.5t-6.5 -13.5l-8 -16l-8 -16l-8 -16t-7 -16l-32 -66v0v0z" />
    <glyph glyph-name="brokenbar" unicode="&#xa6;" 
 />
    <glyph glyph-name="section" unicode="&#xa7;" horiz-adv-x="500" 
d="M403 521h-31l-5 87q-14 11 -28.5 20t-28.5 15q-15 6 -31.5 9t-34.5 3q-28 0 -51.5 -8t-43.5 -24t-30 -39t-10 -52q0 -24 11 -42t33 -30t47.5 -22.5t54.5 -19.5q2 -1 4 -1.5t4 -0.5q2 -1 4 -1.5t4 -1.5t4 -1.5t4 -0.5q2 -1 4 -1.5t4 -1.5q33 -10 63.5 -23.5t58.5 -30.5
q28 -16 42 -42t14 -61q0 -22 -6 -42t-17 -38t-24.5 -33.5t-30.5 -28.5q17 -8 28 -19t18 -25t10.5 -30t3.5 -33v-1.5v-2.5q-1 -1 -1 -2.5v-2.5v-3.5v-2.5q-1 -2 -1 -3.5v-2.5q-6 -38 -26.5 -72t-56.5 -65q-36 -32 -75.5 -47.5t-82.5 -15.5h-5.5h-4.5q-3 1 -5.5 1h-4.5h-4.5
t-4.5 1q-3 0 -5.5 0.5t-4.5 0.5q-17 2 -33.5 6t-32.5 9q-16 6 -29.5 12t-25.5 14q1 7 1.5 14.5t1.5 14.5q0 7 0.5 14t1.5 14t1.5 14t1.5 14q0 7 0.5 14t1.5 14v11.5t1 10.5v6t1 5v5.5v5.5h32l5 -90q14 -16 29.5 -27t31.5 -18q17 -7 38 -10.5t46 -3.5q28 0 53.5 7.5
t47.5 22.5q23 15 34 37.5t11 53.5q0 28 -12.5 48t-37.5 33q-25 14 -52.5 25.5t-58.5 21.5q-3 1 -5.5 1.5t-4.5 1.5t-4 1.5t-4 1.5h-1.5h-0.5v0v1h-1v0q-33 11 -63.5 23.5t-57.5 28.5q-28 15 -41.5 40.5t-13.5 61.5v1.5v1.5v1.5v1.5q1 20 7.5 38t18.5 36q12 17 26.5 31.5
t30.5 25.5q-13 8 -23.5 19.5t-18.5 24.5q-8 14 -12 28.5t-4 30.5q0 44 16.5 82.5t50.5 72.5q33 35 73.5 52t86.5 17h6h6q2 -1 5 -1h6h6t6 -1q2 0 5 -0.5t6 -0.5q11 -1 22.5 -4t23.5 -7t23.5 -9.5t22.5 -12.5l-2 -12t-1 -13q-1 -7 -2 -13.5t-2 -14.5q-1 -15 -2.5 -30
t-1.5 -30q-1 -5 -1.5 -10t-0.5 -10v-4.5v-4.5v-5.5v-4.5v2v0zM135 369q-6 -6 -10.5 -11t-8.5 -10q-5 -6 -8 -11l-6 -10q-5 -10 -7.5 -23t-2.5 -27q0 -17 8.5 -32t24.5 -27q17 -12 36 -22.5t41 -18.5l10 -4l10 -4q5 -1 10 -2.5t10 -3.5q17 -6 34.5 -11.5t33.5 -10.5
q17 -5 31 -10t24 -10q8 11 14 22.5t10 22.5q5 11 7.5 22t2.5 22q0 20 -6.5 35.5t-20.5 26.5q-13 11 -29.5 21t-36.5 18q-5 2 -10 3.5t-10 3.5q-5 1 -10 3t-10 3q-5 2 -10 3.5t-10 3.5q-6 1 -11 3t-10 3v0v0h-1v0v0v1h-1v0q-12 3 -23.5 6t-22.5 7q-11 3 -21.5 7.5t-20.5 8.5
v2v0z" />
    <glyph glyph-name="dieresis" unicode="&#xa8;" horiz-adv-x="333" 
d="M67 637q11 -2 20 -5.5t16 -10.5t10.5 -16t3.5 -20t-3.5 -20t-10.5 -16t-16 -10.5t-20 -3.5t-20 3.5t-16 10.5t-10.5 16t-3.5 20t3.5 20t10.5 16t16 10.5t20 3.5v2v0zM266 637q11 -2 20 -5.5t16 -10.5t10.5 -16t3.5 -20t-3.5 -20t-10.5 -16t-16 -10.5t-20 -3.5t-20 3.5
t-16 10.5t-10.5 16t-3.5 20t3.5 20t10.5 16t16 10.5t20 3.5v2v0z" />
    <glyph glyph-name="copyright" unicode="&#xa9;" horiz-adv-x="747" 
d="M371 706q75 -2 139.5 -28.5t118.5 -79.5q53 -52 80 -116.5t27 -139.5t-27 -139t-80 -117q-54 -52 -118 -78t-139 -26q-74 0 -138 26t-117 79t-79.5 116.5t-26.5 137.5t26.5 138t79.5 118q53 53 116.5 80t137.5 27v2v0zM371 662q-65 -2 -120.5 -25.5t-102.5 -70.5
q-46 -47 -69.5 -103.5t-23.5 -121.5t23.5 -121t69.5 -103q47 -46 103 -69.5t121 -23.5t121.5 23.5t103.5 69.5q47 47 71 103t24 122t-24 122.5t-71 102.5q-47 47 -103.5 70t-122.5 23v2v0zM527 522v-107h-26q-1 23 -7.5 42.5t-20.5 33.5q-13 14 -33.5 21.5t-46.5 7.5
q-37 0 -65 -13.5t-46 -39.5t-27 -56t-9 -64v-7.5v-6.5v-3t1 -3q0 -2 0.5 -3.5t0.5 -3.5q3 -29 13.5 -56t29.5 -51q18 -25 43.5 -37t58.5 -12q20 0 38.5 5t34.5 15q17 10 29 24t21 33l21 -7q-9 -23 -23.5 -41t-35.5 -30q-21 -13 -43 -20t-45 -9q-2 -1 -4 -1h-4h-4h-4
q-45 0 -80.5 14.5t-62.5 43.5t-40 66t-13 81q0 47 14.5 84.5t42.5 65.5q29 29 66.5 43.5t84.5 14.5h6h6q3 -1 6 -1h6q6 -1 12 -1.5t12 -0.5l12 -2t12 -3q5 -1 11 -2t12 -3q12 -3 23.5 -6t22.5 -7v2v0z" />
    <glyph glyph-name="ordfeminine" unicode="&#xaa;" horiz-adv-x="333" 
d="M150 590l64 10v-1v0v0.5v1.5q0 17 -5 30.5t-15 23.5t-25.5 15t-36.5 5q-10 0 -17.5 -0.5t-12.5 -1.5q-4 -1 -8 -3.5t-7 -6.5q-1 -1 -1.5 -2t-1.5 -2q0 -1 -0.5 -1.5l-0.5 -0.5q-1 -1 -1 -1.5v-1.5l-1.5 -1.5l-0.5 -0.5q-1 -1 -1 -1.5v-1.5q-1 -1 -1.5 -2.5t-1.5 -3.5
l-9 -17l-17 4v39l35 20q11 4 20.5 8t19.5 6q9 2 18 3t17 1q27 0 47.5 -6t33.5 -18q14 -12 20.5 -30t6.5 -41v-2.5v-3.5q-1 -1 -1 -2.5v-3.5v-2.5v-3.5q-1 -1 -1 -2.5v-3.5v-100v-3.5v-3.5v-2v-2v-8v-8t1 -6l2 -4t2.5 -3.5t4.5 -2.5t6.5 -2t7.5 -1l20 1v-17q-1 -1 -3 -1.5
t-3 -0.5h-3.5h-3.5h-2.5t-3.5 1h-2.5h-3.5h-6h-6h-2.5t-3.5 1h-2.5h-3.5h-3h-3q-2 -1 -3.5 -1h-3.5h-6h-6h-3h-3q-2 -1 -3.5 -1h-3.5h-6h-6l3 53l-81 -52q-1 -2 -4 -3.5t-7 -1.5h-7.5h-7.5h-1.5h-0.5h-1.5h-0.5q-16 0 -30.5 4t-25.5 13q-12 8 -17.5 21.5t-5.5 32.5
q0 23 8.5 39.5t25.5 26.5t36.5 17t40.5 11h2t2 1h1h2q2 0 4 0.5t4 1.5v2v0zM214 502v79q-6 -2 -12 -3l-12 -2l-12 -2t-11 -2q-6 -1 -12 -2.5t-12 -3.5q-6 -1 -12 -3.5t-12 -4.5q-7 -3 -13 -7.5t-11 -10.5t-8 -12.5t-5 -13.5q-1 -1 -1.5 -2.5t-0.5 -3.5v-2.5v-3.5
q0 -12 4 -21t12 -15t16.5 -9t18.5 -3q8 0 15.5 2t14.5 6q8 4 16 8.5t16 9.5q1 1 2 1.5t2 1.5q2 1 2.5 1.5l1.5 1.5q2 2 4.5 4t3.5 4l1.5 1.5l1.5 1.5q0 1 0.5 1.5l1.5 1.5v2v0z" />
    <glyph glyph-name="guillemotleft" unicode="&#xab;" horiz-adv-x="500" 
d="M130 248l119 -162l-23 -15q-7 7 -15.5 14.5t-16.5 15.5q-9 8 -17.5 16t-16.5 17l-110 108v12q4 2 8 6l8 8l4 4t5 4l4 4l4 4q8 8 16.5 16t16.5 16t16.5 16t16.5 16l77 80l23 -13q-2 -4 -4 -7t-4 -5q-2 -3 -4 -5.5t-4 -4.5q-1 -1 -2 -2.5t-1 -2.5q-1 -2 -2 -3l-2 -2
q-2 -3 -3.5 -5.5t-3.5 -4.5l-89 -125v0v0zM331 248l119 -162l-23 -15q-7 7 -15.5 14.5t-16.5 15.5q-9 8 -17.5 16t-16.5 17l-110 108v12q4 2 8 6l8 8l4 4t5 4l4 4l4 4q8 8 16.5 16t16.5 16t16.5 16t16.5 16l77 80l23 -13q-2 -4 -4 -7t-4 -5q-2 -3 -4 -5.5t-4 -4.5
q-1 -1 -2 -2.5t-1 -2.5q-1 -2 -2 -3l-2 -2q-2 -3 -3.5 -5.5t-3.5 -4.5l-89 -125v0v0z" />
    <glyph glyph-name="logicalnot" unicode="&#xac;" 
 />
    <glyph glyph-name="sfthyphen" unicode="&#xad;" horiz-adv-x="500" 
 />
    <glyph glyph-name="registered" unicode="&#xae;" horiz-adv-x="747" 
d="M371 706q75 -2 139.5 -28.5t118.5 -79.5q53 -52 80 -116.5t27 -139.5t-27 -139t-80 -117q-54 -52 -118 -78t-139 -26q-74 0 -138 26t-117 79t-79.5 116.5t-26.5 137.5t26.5 138t79.5 118q53 53 116.5 80t137.5 27v2v0zM371 662q-65 -2 -120.5 -25.5t-102.5 -70.5
q-46 -47 -69.5 -103.5t-23.5 -121.5t23.5 -121t69.5 -103q47 -46 103 -69.5t121 -23.5t121.5 23.5t103.5 69.5q47 47 71 103t24 122t-24 122.5t-71 102.5q-47 47 -103.5 70t-122.5 23v2v0zM205 554h156q2 -1 4 -1.5t5 -0.5h4h4h4.5h4.5q2 -1 4.5 -1h4.5q23 -1 43 -7t39 -16
t28.5 -28.5t9.5 -46.5q0 -24 -8.5 -42.5t-25.5 -31.5t-36.5 -20.5t-40.5 -9.5v0q12 -3 22 -9t19 -16q8 -10 15.5 -20.5t13.5 -21.5q2 -5 4.5 -10t4.5 -10t4.5 -9.5t3.5 -8.5q1 -3 2.5 -6t2.5 -6q2 -4 3.5 -7.5t3.5 -7.5t3.5 -7.5t3.5 -6.5q2 -4 4 -7l4 -6q0 -1 0.5 -2
t1.5 -2l1.5 -1.5t1.5 -0.5q4 -4 8.5 -6t8.5 -4l10 -2t12 -1v-14h-27q-1 -2 -2 -2h-2h-1.5h-1.5h-4.5h-4.5h-5h-4q-5 0 -10 1l-10 2q-4 2 -8.5 4t-8.5 5t-8 7t-7 10l-6 12l-6 12q-1 2 -2.5 4.5t-2.5 5.5q-1 2 -2 4.5t-2 4.5q-1 5 -2.5 8.5t-3.5 7.5q-1 2 -2 3.5t-1 3.5
q-1 3 -2 5t-2 5l-4 10l-4 10q-1 3 -3 6t-3 7q-2 3 -3.5 6t-3.5 6q-1 3 -3 5.5t-3 5.5q-2 2 -3.5 4t-3.5 4q-5 5 -10.5 8t-11.5 4q-3 0 -6 0.5t-6 0.5q-4 1 -7 1h-6h-4.5h-4.5h-4h-4l-18 2v-129q0 -11 1 -18t3 -12q2 -4 8 -6.5t16 -2.5l21 1v-16h-152v16h16q9 -2 15.5 -1
t9.5 4t5 9.5t2 16.5v305q0 8 -2 14t-7 8q-4 2 -10 3t-13 2l-17 3v17v0v0zM309 492v-132h27q23 -2 44.5 2t40.5 12q20 8 29.5 27t9.5 47q0 22 -6.5 38t-19.5 26q-13 11 -30 16t-38 5l-29 2q-10 -2 -16.5 -5t-8.5 -8q-1 -6 -2 -13t-1 -15v-1.5v-0.5v-1.5v-0.5v2v0z" />
    <glyph glyph-name="overstore" unicode="&#xaf;" 
 />
    <glyph glyph-name="glyph113" unicode="&#xb0;" 
 />
    <glyph glyph-name="plusminus" unicode="&#xb1;" horiz-adv-x="606" 
d="M555 0h-504v56h504v-56v0v0zM275 339v173h56v-173h224v-56h-224v-170h-56v170h-224v56h224v0v0z" />
    <glyph glyph-name="twosuperior" unicode="&#xb2;" 
 />
    <glyph glyph-name="threesuperior" unicode="&#xb3;" 
 />
    <glyph glyph-name="acute" unicode="&#xb4;" horiz-adv-x="333" 
d="M78 506l138 138q1 -1 1.5 -0.5l1.5 1.5l2 2l2 2q2 2 4.5 4t5.5 4q2 1 3 2l3 3q1 1 2.5 2t2.5 2q2 1 3.5 1.5t3.5 1.5q1 1 3 1.5t3 1.5q3 2 6 2.5t6 0.5q8 0 14 -2.5t10 -7.5q5 -5 7 -11t2 -14q0 -7 -2 -12.5t-7 -10.5q-4 -4 -9.5 -8.5t-10.5 -7.5q-1 -1 -2.5 -2t-3.5 -2
q-1 0 -1.5 -0.5l-0.5 -0.5l-1.5 -1.5t-1.5 -0.5l-144 -88h-40v0v0z" />
    <glyph glyph-name="mu" unicode="&#xb5;" horiz-adv-x="603" 
d="M99 -236v563q0 10 -0.5 20t-1.5 18t-2 13.5t-3 8.5t-5 5t-8 3q-4 2 -10 2.5t-14 0.5l-37 2v28q1 -2 2 -2h2h0.5t1.5 1h0.5h0.5q17 2 34 5t33 7q17 5 31.5 9.5t27.5 9.5l6 2l6 2l3 1.5l3 1.5q1 0 2.5 0.5t2.5 1.5l9 -2v-295q0 -31 5 -54t15 -38q10 -16 32.5 -23.5
t56.5 -7.5q19 0 37 6t34 19q17 13 29 27t19 29q1 2 1.5 4t1.5 5q1 2 1.5 4t1.5 4q0 2 0.5 4t0.5 5q1 2 1 4v4v165q0 10 -0.5 20t-1.5 18t-2 13.5t-3 8.5t-5 5t-8 3q-4 2 -10 2.5t-14 0.5l-37 2v28q1 -2 2 -2h2h0.5t1.5 1h0.5h0.5q17 2 34 5t33 7q17 5 31.5 9.5t27.5 9.5l6 2
l6 2l3 1.5l3 1.5q1 0 2.5 0.5t2.5 1.5l9 -2v-363v-20t1 -17q0 -7 1.5 -13l2.5 -10q2 -4 4.5 -6t6.5 -4q4 -1 9 -2.5t12 -1.5l41 -1v-30h-3h-3q-2 1 -3.5 1h-3.5h-3h-3h-3.5h-3.5q-5 1 -10 1.5t-10 0.5h-4.5h-4.5h-5.5h-4.5h-4.5h-4.5h-4h-4h-7.5h-6.5h-7.5h-7.5
q-7 0 -14 -0.5t-14 -1.5h-7.5h-6.5h-3t-3 -1h-3.5h-3.5v2v1v1t1 2q0 9 0.5 19t1.5 20v10t1 11v12v12l-67 -60q-10 -11 -22.5 -18.5t-26.5 -10.5q-13 -5 -29 -7.5t-34 -2.5q-13 0 -24.5 1.5t-22.5 3.5t-21.5 5t-21.5 8l20 -198q0 -2 -1 -4t-3 -4t-5 -4.5t-6 -5.5
q-1 -1 -2.5 -2t-2.5 -2q-2 -1 -3 -2t-3 -2q-1 -1 -3 -2t-3 -2q-2 0 -3.5 -1t-3.5 -2q-4 -2 -8.5 -4.5t-9.5 -3.5q-4 -2 -7.5 -2.5t-6.5 -0.5v0v0z" />
    <glyph glyph-name="paragraph" unicode="&#xb6;" horiz-adv-x="628" 
d="M589 694v-30l-32 -3q-18 -4 -30.5 -8.5t-19.5 -12.5q-7 -7 -10 -24t-3 -44v-599q0 -13 0.5 -24.5t1.5 -21.5q2 -10 3.5 -16.5t4.5 -10.5q2 -4 6 -7t8 -5q5 -2 12 -3t17 -2l42 -3v-30h-6h-7q-3 1 -6.5 1h-6.5h-13.5h-14.5q-16 1 -33 1.5t-35 0.5h-38h-42h-43h-40
t-35.5 -0.5t-31.5 -1.5h-14.5h-13.5h-6.5t-6.5 -1h-5.5h-5.5v30l42 3q9 1 16.5 2t11.5 3q5 2 8.5 5t6.5 7q2 4 4 10.5t3 16.5q2 10 2.5 21.5t0.5 24.5v372q-9 -2 -18.5 -1t-19.5 2q-10 2 -19.5 4t-19.5 5q-31 9 -59 25.5t-54 39.5q-25 23 -38 53t-13 67q0 30 11.5 56.5
t33.5 49.5q23 23 58 34.5t82 11.5h4h4h4.5h4.5q22 -1 43.5 -2t43.5 -2t44 -1h44h43.5t43.5 1t43.5 2t42.5 2v2v0zM421 655h-68v-775h68v775v0v0zM280 382v273q-1 -1 -2 -1h-1h-2h-2h-2h-1h-2h-2h-4h-3q-2 -1 -4 -1h-4q-4 -1 -8 -1.5t-7 -1.5q-16 -4 -31 -14.5t-29 -25.5
q-13 -16 -19.5 -38.5t-6.5 -51.5q0 -28 10 -51t29 -42q20 -19 42.5 -30.5t48.5 -16.5v2v0z" />
    <glyph glyph-name="middot" unicode="&#xb7;" 
 />
    <glyph glyph-name="cedilla" unicode="&#xb8;" horiz-adv-x="333" 
d="M141 -108l42 98h34l-25 -65q3 1 6.5 2t7.5 1q4 1 7.5 1h7.5q17 0 31 -4t27 -13q12 -9 18.5 -22t6.5 -31q0 -20 -7.5 -34.5t-21.5 -23.5t-29.5 -15t-32.5 -9h-4t-4 -1h-4h-4h-4t-4 -1h-3.5h-3.5h-6.5h-6.5q-3 1 -5.5 1h-5.5q-5 1 -9.5 1.5t-9.5 1.5q-2 1 -4.5 1.5
t-4.5 0.5q-3 1 -5.5 1.5t-4.5 1.5q-3 1 -5.5 2t-5.5 1q-3 1 -6.5 2t-6.5 2l14 31h0.5t1.5 -1h0.5h1.5h0.5t1.5 -1h0.5h1.5q3 -1 6 -1.5t6 -1.5q2 0 3.5 -0.5t3.5 -1.5q1 0 3 -0.5t3 -0.5q3 0 6.5 -0.5t7.5 -1.5h4t3 -1h4h3q13 0 23.5 2t18.5 7q8 4 12 13.5t4 23.5q0 8 -3 14
t-8 11q-6 4 -12 7t-12 4h-1.5h-1.5h-1.5h-0.5h-7t-6 -1q-3 0 -6 -0.5t-6 -1.5q-2 0 -4 -0.5t-4 -1.5q-2 0 -4 -0.5t-4 -1.5l-7 6v0v0z" />
    <glyph glyph-name="onesuperior" unicode="&#xb9;" 
 />
    <glyph glyph-name="ordmasculine" unicode="&#xba;" horiz-adv-x="333" 
d="M176 709q31 -2 57 -12t47 -30q21 -19 32 -43.5t11 -53.5q0 -34 -12 -62.5t-36 -50.5t-54.5 -32.5t-67.5 -10.5q-31 0 -56.5 10t-45.5 29q-21 20 -31 45t-10 56q0 34 10.5 61.5t32.5 48.5t52.5 32t70.5 11v2v0zM161 689q-26 -2 -44 -10t-28 -25q-10 -16 -14.5 -34.5
t-4.5 -39.5v-4.5v-4.5v-5.5v-4.5v-4.5t1 -4.5q0 -3 0.5 -5.5t1.5 -4.5q3 -21 10.5 -39.5t19.5 -35.5q11 -16 29 -24.5t42 -8.5q22 0 38.5 8.5t27.5 25.5t17 36t6 40q0 29 -7 54t-21 46q-13 21 -32 32t-42 11v2v0z" />
    <glyph glyph-name="guillemotright" unicode="&#xbb;" horiz-adv-x="500" 
d="M50 86l119 162l-89 127q-1 0 -2 1t-1 2q-1 1 -2 2.5t-2 2.5l-2 2t-1 3q-1 1 -2 2.5t-2 2.5q-2 2 -4 4.5t-4 5.5q-2 2 -4 4.5t-4 5.5l23 15l77 -78q8 -10 16.5 -18t16.5 -16t16.5 -16t16.5 -16l8 -8l8 -8l4 -4t5 -4l4 -4l4 -4v-10l-110 -106q-9 -10 -17.5 -18.5
l-16.5 -16.5q-9 -8 -16.5 -16t-15.5 -16l-23 17v0v0zM251 86l119 162l-89 127q-1 0 -2 1t-1 2q-1 1 -2 2.5t-2 2.5l-2 2t-1 3q-1 1 -2 2.5t-2 2.5q-2 2 -4 4.5t-4 5.5q-2 2 -4 4.5t-4 5.5l23 15l77 -78q8 -10 16.5 -18t16.5 -16t16.5 -16t16.5 -16l8 -8l8 -8l4 -4t5 -4l4 -4
l4 -4v-10l-110 -106q-9 -10 -17.5 -18.5l-16.5 -16.5q-9 -8 -16.5 -16t-15.5 -16l-23 17v0v0z" />
    <glyph glyph-name="onequarter" unicode="&#xbc;" 
 />
    <glyph glyph-name="onehalf" unicode="&#xbd;" horiz-adv-x="750" 
d="M634 162l-115 -109h122q2 -2 4.5 -2h5.5h3h3h2.5h2.5q10 0 19.5 0.5t19.5 1.5q9 0 18 1t16 2q-1 -5 -1.5 -9.5t-0.5 -8.5v-8t1 -8v-5.5v-4.5v-4v-4v-2v-2v0l1 -1v-0.5v-1.5h-7.5h-6.5q-4 1 -7.5 1h-6.5h-13.5h-12.5q-10 1 -19.5 1.5t-18.5 0.5h-18h-18h-7.5h-6.5h-3h-3
h-3.5h-3.5h-9h-9h-9.5h-9.5h-8.5t-9.5 -1h-8.5h-9.5h-6h-6h-2.5t-3.5 -1h-2.5h-3.5h-6h-6h-7h-6h-6t-6 -1h-6h-6v20l108 104q30 28 50 51t30 39q9 17 14 32.5t6 29.5v1.5v1.5v2v2q0 18 -5 33t-16 26q-10 11 -26 17t-36 6q-14 0 -25.5 -3t-20.5 -8t-15.5 -14t-11.5 -22
l-13 -33h-24q1 3 1.5 7t0.5 8q1 3 1.5 7t0.5 8t0.5 7.5t1.5 7.5q0 3 0.5 6.5t1.5 7.5q0 4 0.5 7.5t1.5 6.5q0 3 0.5 6.5t1.5 7.5q11 11 23 19.5t27 12.5q14 5 29 7.5t31 2.5q35 0 61.5 -8.5t43.5 -25.5t25.5 -36.5t8.5 -41.5q0 -10 -1.5 -20.5t-4.5 -20.5t-7.5 -19.5
t-10.5 -18.5q-3 -4 -5.5 -7.5t-5.5 -6.5q-3 -4 -6 -7.5t-6 -7.5t-6.5 -8t-7.5 -7q-4 -4 -7.5 -8t-7.5 -8v2v0zM174 0h-52l451 689h52l-451 -689v0v0zM114 379v238v-1v1v0.5v1.5v3v3q-1 1 -1 2.5v2.5l-1.5 3t-2.5 1v0v0h-1v0v0v0v0v0h-1v0v0v0l-81 -32h-7l-4 32q14 4 29.5 9
t31.5 11t32.5 12t33.5 12q4 2 8 3.5t8 2.5q5 2 9.5 3.5t8.5 2.5l10 -1q-1 -5 -1.5 -11t-0.5 -14q-1 -7 -1.5 -16t-0.5 -19q-1 -15 -1.5 -32t-1.5 -36t-1 -38.5v-39.5v-104q0 -27 1.5 -43.5t5.5 -24.5q4 -7 13 -10.5t22 -3.5l33 2v-26q-7 -2 -13.5 -2h-12.5h-6t-6 1h-5.5
h-4.5h-10t-9 1h-9h-8h-7.5t-6.5 1h-7.5h-6.5h-6.5h-7.5q-3 -1 -6.5 -1h-7.5h-8h-8q-5 -1 -9 -1h-9h-4.5h-5.5q-2 -1 -4.5 -1h-5.5h-12h-12v28h36q14 -2 22.5 1.5t12.5 10.5q4 8 6 24.5t2 41.5v2v0z" />
    <glyph glyph-name="threequarters" unicode="&#xbe;" 
 />
    <glyph glyph-name="questiondown" unicode="&#xbf;" horiz-adv-x="444" 
d="M395 -83l-38 -113q-11 -5 -23 -10.5t-25 -9.5q-13 -5 -25.5 -8.5t-25.5 -4.5h-4t-3 -1h-3.5h-3.5h-2.5t-3.5 -1h-2.5h-3.5q-37 0 -69.5 10t-61.5 30q-29 19 -43.5 48.5t-14.5 67.5q0 25 8 47.5t24 40.5q16 20 33.5 38.5t36.5 35.5q11 11 22.5 20.5t21.5 19.5
q11 9 20.5 18.5t16.5 19.5q5 6 8.5 12.5t6.5 13.5q3 6 4.5 12.5t1.5 13.5t-1.5 13t-4.5 11t-6 10.5t-6 9.5q-1 0 -1.5 0.5t-0.5 1.5l-1.5 1.5t-0.5 1.5l21 16q10 -7 18 -15t14 -18t9 -20.5t3 -21.5q0 -13 -4 -26.5t-12 -26.5t-17.5 -25.5t-20.5 -24.5l-2.5 -2.5l-2.5 -2.5
l-3 -3t-2 -3l-2.5 -2.5l-2.5 -2.5l-3 -3t-2 -3l-1.5 -1.5l-0.5 -0.5v0v0l-1 -1v0l-14 -16l-14 -16q-7 -9 -13 -17l-12 -16q-12 -16 -18 -33t-6 -36q0 -23 8.5 -42.5t24.5 -35.5q17 -16 38.5 -24t47.5 -8q16 0 30 2.5t26 7.5q12 4 21 12.5t14 19.5l20 48l29 -8v0v0zM241 353
q-12 -2 -22 2.5t-18 13.5q-9 9 -13 19t-4 21t4 21t13 19t19 13.5t21 4.5t21.5 -4.5t19.5 -13.5t13.5 -19t4.5 -21t-4.5 -21t-13.5 -19t-19 -13.5t-22 -4.5v2v0z" />
    <glyph glyph-name="Agrave" unicode="&#xc0;" horiz-adv-x="778" 
d="M408 700l242 -568q1 -3 2 -5.5t2 -4.5q1 -3 2 -5.5t2 -4.5q2 -4 4 -8.5t4 -9.5q2 -4 4 -8.5t4 -8.5l4 -8t4 -7q4 -7 8.5 -12.5t8.5 -10.5q5 -4 10.5 -7t12.5 -4l34 -1v-30h-6h-5q-3 1 -5.5 1h-5.5h-11.5h-10.5q-11 1 -22 1.5t-22 0.5h-22.5h-22.5h-18h-20
q-10 0 -21.5 -0.5t-22.5 -1.5h-6h-6h-7h-6h-6t-7 -1h-6.5h-6.5v30l47 3q8 -1 15 0t13 4q6 2 9.5 6t3.5 8q0 5 -1.5 10.5t-3.5 12.5q-3 8 -6 15.5t-6 15.5v0v1q-1 0 -1 0.5v0.5v0.5v1.5q-1 0 -1.5 1t-0.5 2v0.5v1.5q-1 0 -1 0.5v0.5l-46 117h-288l-28 -67q-1 -3 -2 -5t-1 -4
q-1 -2 -2 -4.5t-2 -5.5l-2 -6t-2 -5q-2 -3 -3 -6l-2 -6q-1 -1 -1.5 -2.5t-0.5 -3.5q0 -1 -0.5 -1.5l-0.5 -0.5q-1 -1 -1 -1.5v-1.5l-6 -16t-5 -16q-2 -7 -3 -12.5t-1 -8.5q0 -8 3 -13.5t9 -7.5q6 -3 15 -4.5t21 -2.5l37 -1v-30h-6h-6q-3 1 -5.5 1h-5.5h-11.5h-10.5
q-10 1 -19.5 1.5t-18.5 0.5h-16.5h-15.5h-19.5h-19.5t-19.5 -0.5t-18.5 -1.5h-4.5h-4.5h-5.5h-4.5h-4.5t-4.5 -1h-5.5h-4.5v30l37 3q9 -1 17 3t15 11t12.5 15t9.5 18l178 407q3 7 6.5 14.5t7.5 15.5q3 8 6.5 16t7.5 16q5 10 9.5 20t8.5 20l4 10t5 10l4 10l4 10q4 9 7.5 18
t7.5 18q3 9 6.5 18t7.5 18l32 2v0v0zM240 269h253l-126 298l-127 -298v0v0zM430 737l-144 90q-1 -1 -2.5 -0.5t-3.5 1.5q-1 0 -1.5 0.5t-0.5 1.5q-1 0 -1.5 0.5l-1.5 1.5q-6 3 -10.5 7.5t-9.5 8.5q-4 5 -6.5 10.5t-2.5 12.5q0 8 2 14t6 11q5 5 11 7.5t14 2.5q3 0 6 -0.5
t6 -2.5q3 -1 6 -2.5l7 -3.5l4.5 -4.5t5.5 -4.5q2 -1 3 -2t3 -2q1 -1 2.5 -2t2.5 -2t1.5 -2t1.5 -2t2 -1.5t2 -1.5l138 -136h-40v0v0z" />
    <glyph glyph-name="Aacute" unicode="&#xc1;" horiz-adv-x="778" 
d="M408 700l242 -568q1 -3 2 -5.5t2 -4.5q1 -3 2 -5.5t2 -4.5q2 -4 4 -8.5t4 -9.5q2 -4 4 -8.5t4 -8.5l4 -8t4 -7q4 -7 8.5 -12.5t8.5 -10.5q5 -4 10.5 -7t12.5 -4l34 -1v-30h-6h-5q-3 1 -5.5 1h-5.5h-11.5h-10.5q-11 1 -22 1.5t-22 0.5h-22.5h-22.5h-18h-20
q-10 0 -21.5 -0.5t-22.5 -1.5h-6h-6h-7h-6h-6t-7 -1h-6.5h-6.5v30l47 3q8 -1 15 0t13 4q6 2 9.5 6t3.5 8q0 5 -1.5 10.5t-3.5 12.5q-3 8 -6 15.5t-6 15.5v0v1q-1 0 -1 0.5v0.5v0.5v1.5q-1 0 -1.5 1t-0.5 2v0.5v1.5q-1 0 -1 0.5v0.5l-46 117h-288l-28 -67q-1 -3 -2 -5t-1 -4
q-1 -2 -2 -4.5t-2 -5.5l-2 -6t-2 -5q-2 -3 -3 -6l-2 -6q-1 -1 -1.5 -2.5t-0.5 -3.5q0 -1 -0.5 -1.5l-0.5 -0.5q-1 -1 -1 -1.5v-1.5l-6 -16t-5 -16q-2 -7 -3 -12.5t-1 -8.5q0 -8 3 -13.5t9 -7.5q6 -3 15 -4.5t21 -2.5l37 -1v-30h-6h-6q-3 1 -5.5 1h-5.5h-11.5h-10.5
q-10 1 -19.5 1.5t-18.5 0.5h-16.5h-15.5h-19.5h-19.5t-19.5 -0.5t-18.5 -1.5h-4.5h-4.5h-5.5h-4.5h-4.5t-4.5 -1h-5.5h-4.5v30l37 3q9 -1 17 3t15 11t12.5 15t9.5 18l178 407q3 7 6.5 14.5t7.5 15.5q3 8 6.5 16t7.5 16q5 10 9.5 20t8.5 20l4 10t5 10l4 10l4 10q4 9 7.5 18
t7.5 18q3 9 6.5 18t7.5 18l32 2v0v0zM240 269h253l-126 298l-127 -298v0v0zM307 737l138 138q1 -1 1.5 -0.5l1.5 1.5l2 2l2 2q2 2 4.5 4t5.5 4q2 1 3 2l3 3q1 1 2.5 2t2.5 2q2 1 3.5 1.5t3.5 1.5q1 1 3 1.5t3 1.5q3 2 6 2.5t6 0.5q8 0 14 -2.5t10 -7.5q5 -5 7 -11t2 -14
q0 -7 -2 -12.5t-7 -10.5q-4 -4 -9.5 -8.5t-10.5 -7.5q-1 -1 -2.5 -2t-3.5 -2q-1 0 -1.5 -0.5l-0.5 -0.5l-1.5 -1.5t-1.5 -0.5l-144 -88h-40v0v0z" />
    <glyph glyph-name="Acircumflex" unicode="&#xc2;" horiz-adv-x="778" 
d="M408 700l242 -568q1 -3 2 -5.5t2 -4.5q1 -3 2 -5.5t2 -4.5q2 -4 4 -8.5t4 -9.5q2 -4 4 -8.5t4 -8.5l4 -8t4 -7q4 -7 8.5 -12.5t8.5 -10.5q5 -4 10.5 -7t12.5 -4l34 -1v-30h-6h-5q-3 1 -5.5 1h-5.5h-11.5h-10.5q-11 1 -22 1.5t-22 0.5h-22.5h-22.5h-18h-20
q-10 0 -21.5 -0.5t-22.5 -1.5h-6h-6h-7h-6h-6t-7 -1h-6.5h-6.5v30l47 3q8 -1 15 0t13 4q6 2 9.5 6t3.5 8q0 5 -1.5 10.5t-3.5 12.5q-3 8 -6 15.5t-6 15.5v0v1q-1 0 -1 0.5v0.5v0.5v1.5q-1 0 -1.5 1t-0.5 2v0.5v1.5q-1 0 -1 0.5v0.5l-46 117h-288l-28 -67q-1 -3 -2 -5t-1 -4
q-1 -2 -2 -4.5t-2 -5.5l-2 -6t-2 -5q-2 -3 -3 -6l-2 -6q-1 -1 -1.5 -2.5t-0.5 -3.5q0 -1 -0.5 -1.5l-0.5 -0.5q-1 -1 -1 -1.5v-1.5l-6 -16t-5 -16q-2 -7 -3 -12.5t-1 -8.5q0 -8 3 -13.5t9 -7.5q6 -3 15 -4.5t21 -2.5l37 -1v-30h-6h-6q-3 1 -5.5 1h-5.5h-11.5h-10.5
q-10 1 -19.5 1.5t-18.5 0.5h-16.5h-15.5h-19.5h-19.5t-19.5 -0.5t-18.5 -1.5h-4.5h-4.5h-5.5h-4.5h-4.5t-4.5 -1h-5.5h-4.5v30l37 3q9 -1 17 3t15 11t12.5 15t9.5 18l178 407q3 7 6.5 14.5t7.5 15.5q3 8 6.5 16t7.5 16q5 10 9.5 20t8.5 20l4 10t5 10l4 10l4 10q4 9 7.5 18
t7.5 18q3 9 6.5 18t7.5 18l32 2v0v0zM240 269h253l-126 298l-127 -298v0v0zM359 908h62l125 -167h-35l-121 103l-121 -103h-35l125 167v0v0z" />
    <glyph glyph-name="Atilde" unicode="&#xc3;" horiz-adv-x="778" 
d="M408 700l242 -568q1 -3 2 -5.5t2 -4.5q1 -3 2 -5.5t2 -4.5q2 -4 4 -8.5t4 -9.5q2 -4 4 -8.5t4 -8.5l4 -8t4 -7q4 -7 8.5 -12.5t8.5 -10.5q5 -4 10.5 -7t12.5 -4l34 -1v-30h-6h-5q-3 1 -5.5 1h-5.5h-11.5h-10.5q-11 1 -22 1.5t-22 0.5h-22.5h-22.5h-18h-20
q-10 0 -21.5 -0.5t-22.5 -1.5h-6h-6h-7h-6h-6t-7 -1h-6.5h-6.5v30l47 3q8 -1 15 0t13 4q6 2 9.5 6t3.5 8q0 5 -1.5 10.5t-3.5 12.5q-3 8 -6 15.5t-6 15.5v0v1q-1 0 -1 0.5v0.5v0.5v1.5q-1 0 -1.5 1t-0.5 2v0.5v1.5q-1 0 -1 0.5v0.5l-46 117h-288l-28 -67q-1 -3 -2 -5t-1 -4
q-1 -2 -2 -4.5t-2 -5.5l-2 -6t-2 -5q-2 -3 -3 -6l-2 -6q-1 -1 -1.5 -2.5t-0.5 -3.5q0 -1 -0.5 -1.5l-0.5 -0.5q-1 -1 -1 -1.5v-1.5l-6 -16t-5 -16q-2 -7 -3 -12.5t-1 -8.5q0 -8 3 -13.5t9 -7.5q6 -3 15 -4.5t21 -2.5l37 -1v-30h-6h-6q-3 1 -5.5 1h-5.5h-11.5h-10.5
q-10 1 -19.5 1.5t-18.5 0.5h-16.5h-15.5h-19.5h-19.5t-19.5 -0.5t-18.5 -1.5h-4.5h-4.5h-5.5h-4.5h-4.5t-4.5 -1h-5.5h-4.5v30l37 3q9 -1 17 3t15 11t12.5 15t9.5 18l178 407q3 7 6.5 14.5t7.5 15.5q3 8 6.5 16t7.5 16q5 10 9.5 20t8.5 20l4 10t5 10l4 10l4 10q4 9 7.5 18
t7.5 18q3 9 6.5 18t7.5 18l32 2v0v0zM240 269h253l-126 298l-127 -298v0v0zM526 871h29q0 -6 -1 -12t-3 -12q-2 -7 -5 -13.5t-7 -13.5q-1 -1 -1.5 -2t-0.5 -2q-1 -1 -1.5 -2t-1.5 -2t-1.5 -2l-0.5 -1q-1 -1 -1.5 -2t-1.5 -2q-7 -8 -15 -15.5t-18 -13.5t-21.5 -9t-25.5 -3
q-9 0 -16.5 1t-13.5 2q-6 2 -12 3.5t-11 4.5q-2 1 -4.5 2t-4.5 2q-3 1 -5.5 2.5t-4.5 2.5q-4 2 -9.5 4.5t-11.5 5.5h-1.5t-0.5 1q-1 0 -1.5 0.5t-1.5 0.5q-1 1 -2.5 1.5t-3.5 1.5t-4.5 2t-4.5 2q-3 1 -5.5 1.5t-4.5 1.5q-3 0 -5.5 0.5t-4.5 1.5h-2.5t-2.5 1h-2h-2
q-10 0 -18.5 -3.5t-14.5 -10.5q-7 -7 -12 -14.5t-8 -16.5l-29 2q4 20 13 38t22 32q14 14 32.5 21t41.5 7q8 0 16.5 -1.5t16.5 -4.5q4 -1 8 -3t8 -3q3 -2 7 -3.5t8 -3.5q2 -1 3.5 -2t2.5 -2q2 -1 3.5 -1.5t2.5 -0.5q2 -1 3.5 -1.5t2.5 -1.5t2 -1.5t2 -0.5q0 -1 1 -1h2
q2 -1 4.5 -2.5t5.5 -2.5q2 -1 4.5 -2t5.5 -2l6 -2l6 -2q2 0 3 -0.5t3 -0.5h2.5h2.5h1.5h0.5h0.5h1.5q12 2 20.5 5t13.5 8t10 12.5t9 17.5v0.5t1 1.5v0.5v0.5q0 1 0.5 2t1.5 2v2v0z" />
    <glyph glyph-name="Adieresis" unicode="&#xc4;" horiz-adv-x="778" 
d="M408 700l242 -568q1 -3 2 -5.5t2 -4.5q1 -3 2 -5.5t2 -4.5q2 -4 4 -8.5t4 -9.5q2 -4 4 -8.5t4 -8.5l4 -8t4 -7q4 -7 8.5 -12.5t8.5 -10.5q5 -4 10.5 -7t12.5 -4l34 -1v-30h-6h-5q-3 1 -5.5 1h-5.5h-11.5h-10.5q-11 1 -22 1.5t-22 0.5h-22.5h-22.5h-18h-20
q-10 0 -21.5 -0.5t-22.5 -1.5h-6h-6h-7h-6h-6t-7 -1h-6.5h-6.5v30l47 3q8 -1 15 0t13 4q6 2 9.5 6t3.5 8q0 5 -1.5 10.5t-3.5 12.5q-3 8 -6 15.5t-6 15.5v0v1q-1 0 -1 0.5v0.5v0.5v1.5q-1 0 -1.5 1t-0.5 2v0.5v1.5q-1 0 -1 0.5v0.5l-46 117h-288l-28 -67q-1 -3 -2 -5t-1 -4
q-1 -2 -2 -4.5t-2 -5.5l-2 -6t-2 -5q-2 -3 -3 -6l-2 -6q-1 -1 -1.5 -2.5t-0.5 -3.5q0 -1 -0.5 -1.5l-0.5 -0.5q-1 -1 -1 -1.5v-1.5l-6 -16t-5 -16q-2 -7 -3 -12.5t-1 -8.5q0 -8 3 -13.5t9 -7.5q6 -3 15 -4.5t21 -2.5l37 -1v-30h-6h-6q-3 1 -5.5 1h-5.5h-11.5h-10.5
q-10 1 -19.5 1.5t-18.5 0.5h-16.5h-15.5h-19.5h-19.5t-19.5 -0.5t-18.5 -1.5h-4.5h-4.5h-5.5h-4.5h-4.5t-4.5 -1h-5.5h-4.5v30l37 3q9 -1 17 3t15 11t12.5 15t9.5 18l178 407q3 7 6.5 14.5t7.5 15.5q3 8 6.5 16t7.5 16q5 10 9.5 20t8.5 20l4 10t5 10l4 10l4 10q4 9 7.5 18
t7.5 18q3 9 6.5 18t7.5 18l32 2v0v0zM240 269h253l-126 298l-127 -298v0v0zM290 868q11 -2 20 -5.5t16 -10.5t10.5 -16t3.5 -20t-3.5 -20t-10.5 -16t-16 -10.5t-20 -3.5t-20 3.5t-16 10.5t-10.5 16t-3.5 20t3.5 20t10.5 16t16 10.5t20 3.5v2v0zM489 868q11 -2 20 -5.5
t16 -10.5t10.5 -16t3.5 -20t-3.5 -20t-10.5 -16t-16 -10.5t-20 -3.5t-20 3.5t-16 10.5t-10.5 16t-3.5 20t3.5 20t10.5 16t16 10.5t20 3.5v2v0z" />
    <glyph glyph-name="Aring" unicode="&#xc5;" horiz-adv-x="778" 
d="M408 700l242 -568q1 -3 2 -5.5t2 -4.5q1 -3 2 -5.5t2 -4.5q2 -4 4 -8.5t4 -9.5q2 -4 4 -8.5t4 -8.5l4 -8t4 -7q4 -7 8.5 -12.5t8.5 -10.5q5 -4 10.5 -7t12.5 -4l34 -1v-30h-6h-5q-3 1 -5.5 1h-5.5h-11.5h-10.5q-11 1 -22 1.5t-22 0.5h-22.5h-22.5h-18h-20
q-10 0 -21.5 -0.5t-22.5 -1.5h-6h-6h-7h-6h-6t-7 -1h-6.5h-6.5v30l47 3q8 -1 15 0t13 4q6 2 9.5 6t3.5 8q0 5 -1.5 10.5t-3.5 12.5q-3 8 -6 15.5t-6 15.5v0v1q-1 0 -1 0.5v0.5v0.5v1.5q-1 0 -1.5 1t-0.5 2v0.5v1.5q-1 0 -1 0.5v0.5l-46 117h-288l-28 -67q-1 -3 -2 -5t-1 -4
q-1 -2 -2 -4.5t-2 -5.5l-2 -6t-2 -5q-2 -3 -3 -6l-2 -6q-1 -1 -1.5 -2.5t-0.5 -3.5q0 -1 -0.5 -1.5l-0.5 -0.5q-1 -1 -1 -1.5v-1.5l-6 -16t-5 -16q-2 -7 -3 -12.5t-1 -8.5q0 -8 3 -13.5t9 -7.5q6 -3 15 -4.5t21 -2.5l37 -1v-30h-6h-6q-3 1 -5.5 1h-5.5h-11.5h-10.5
q-10 1 -19.5 1.5t-18.5 0.5h-16.5h-15.5h-19.5h-19.5t-19.5 -0.5t-18.5 -1.5h-4.5h-4.5h-5.5h-4.5h-4.5t-4.5 -1h-5.5h-4.5v30l37 3q9 -1 17 3t15 11t12.5 15t9.5 18l178 407q3 7 6.5 14.5t7.5 15.5q3 8 6.5 16t7.5 16q5 10 9.5 20t8.5 20l4 10t5 10l4 10l4 10q4 9 7.5 18
t7.5 18q3 9 6.5 18t7.5 18l32 2v0v0zM240 269h253l-126 298l-127 -298v0v0zM390 927q20 -2 37.5 -9.5t32.5 -21.5q15 -15 22.5 -32.5t7.5 -37.5v0v0v0v0v-1v0v0v0q0 -21 -7 -38.5t-22 -32.5t-33 -22t-38 -7q-21 0 -38.5 7t-32.5 22q-15 14 -22 31.5t-7 38.5v0v0v0v1v0v0v0v0
q-1 20 6.5 37.5t22.5 32.5t32.5 22.5t38.5 7.5v2v0zM390 891q-14 -2 -25.5 -6.5t-19.5 -13.5q-9 -9 -13 -20.5t-4 -25.5q0 -15 4 -26.5t13 -20.5q8 -9 19.5 -13t25.5 -4t25 4t20 13q8 9 12.5 20.5t4.5 26.5q0 14 -4.5 25.5t-12.5 20.5q-9 9 -20 13.5t-25 4.5v2v0z" />
    <glyph glyph-name="AE" unicode="&#xc6;" horiz-adv-x="944" 
d="M76 87l289 512q0 -1 0.5 0t1.5 2q1 2 1.5 3.5t1.5 2.5q0 1 0.5 2t1.5 2l0.5 1t1.5 2l2 4l2 4l2 6l2 6t1.5 6t0.5 6q0 2 -4.5 4t-12.5 3q-8 2 -17 2.5t-20 1.5l-44 5v30q17 -2 32.5 -2.5t29.5 -0.5h26.5h24.5q23 -1 42 -1.5t34 -0.5h28h24h8h8h4h5h4h4h24h24t24 0.5
t24 1.5h30h28h13.5t12.5 1h12h11h16.5h17.5q8 -1 16.5 -1h16.5q17 0 32 -0.5t30 -1.5q-3 -12 -5.5 -24t-4.5 -25q-1 -7 -1.5 -13.5t-1.5 -12.5q0 -7 -0.5 -13.5t-0.5 -13.5q-1 -7 -1.5 -13.5t-0.5 -12.5v-12v-12l-35 2v65q0 4 -0.5 7.5t-1.5 7.5t-2.5 6.5t-4.5 3.5
q-13 5 -27 8.5t-30 5.5q-8 1 -16 1.5t-16 1.5q-9 1 -17 1.5t-16 1.5h-10t-9 1h-9.5h-9.5h-18h-18h-6.5h-7.5q-3 -1 -6.5 -1h-7.5q-7 0 -14 -0.5t-14 -1.5q-4 -1 -7.5 -1.5t-6.5 -0.5q-4 -1 -7.5 -1.5t-6.5 -1.5v-265q12 -2 25 -3t27 -1q14 -1 30 -1h34q23 0 41 1t31 2
q13 2 21.5 3.5t12.5 4.5q2 2 3 4t2 5t1.5 7.5t1.5 9.5l5 54h30v-7v-5q-1 -3 -1 -5.5v-4.5v-10v-10q-1 -10 -1.5 -20t-0.5 -19v-9v-9v-9.5v-9.5v-4.5v-4.5v-5.5v-4.5v-8.5t1 -9.5v-9.5v-9.5v-8.5t1 -9.5v-9.5v-9.5v-4.5t1 -4.5v-4.5v-4.5l-30 2l-5 59q-1 4 -1.5 7.5t-1.5 6.5
t-2 5.5t-3 3.5q-4 3 -12.5 5.5t-21.5 3.5q-13 2 -31 2.5t-41 0.5h-17.5h-16.5q-9 -1 -16.5 -1h-14.5q-14 0 -27 -0.5t-24 -1.5v-278q3 -2 6.5 -3.5t7.5 -1.5q3 -1 6.5 -1.5t7.5 -0.5l14 -2t14 -1h14.5h13.5h12h12h12h13q26 0 50.5 1.5t46.5 2.5q23 2 36.5 4t19.5 5
q5 3 10.5 12t9.5 24q5 15 8.5 34.5t6.5 41.5l35 2q-3 -13 -5 -25.5t-4 -26.5q-1 -7 -1.5 -13.5t-1.5 -12.5q-1 -7 -1.5 -13.5t-0.5 -13.5q0 -4 -0.5 -8t-0.5 -7q-1 -4 -1 -8v-8v-14.5v-13.5h-12h-13h-6.5t-7.5 -1h-7.5h-7.5h-13.5t-13.5 -1h-14h-15h-14.5t-14.5 -1h-15h-15
h-7.5h-6.5h-7.5h-6.5h-4.5h-4.5h-5.5h-4.5h-8.5h-9.5q-5 1 -10 1h-10h-8.5h-9.5h-4.5h-4.5h-4.5h-4.5q-16 1 -32.5 1.5t-32.5 0.5h-31h-29h-6h-5h-6h-6h-6t-5 -1q-3 0 -6 -0.5t-6 -0.5h-6h-6h-2.5t-2.5 -1h-3h-3v23l28 16q8 4 13.5 11t7.5 17t3.5 23.5t1.5 30.5v124
q-5 -2 -10.5 -2h-10.5h-5.5t-4.5 1h-5.5h-4.5h-5.5h-4.5h-2.5t-2.5 1h-3h-2h-8h-7h-8h-8h-7.5t-7.5 1h-7.5h-7.5h-8h-7q-4 -1 -8 -1h-8h-14.5h-15.5h-2.5h-2.5q-2 -1 -3 -1h-2h-5.5h-4.5h-5.5h-4.5q-3 -1 -5.5 -1h-5.5h-10h-10l-64 -112q-5 -10 -9.5 -18t-7.5 -14t-5 -12
t-4 -11q-1 -2 -1.5 -4t-0.5 -4v-4.5v-4.5q0 -6 4 -11t11 -8q8 -4 17.5 -6t20.5 -3l36 -1v-30h-3h-4q-1 1 -3 1h-4h-7.5h-7.5q-7 1 -16 1.5t-18 0.5h-9h-9h-9.5h-9.5h-4h-4h-4.5h-4.5h-8h-7h-8h-8h-8t-7 -1q-4 0 -8 -0.5t-8 -0.5h-6h-5h-6h-6h-5.5t-5.5 -1h-4.5h-5.5l-2 30
l34 5l1.5 -1.5t1.5 -0.5l0.5 0.5t1.5 0.5t1.5 0.5l1.5 1.5l0.5 0.5t1.5 0.5q5 2 8.5 6t7.5 8q4 5 7.5 9.5t7.5 9.5q2 2 3.5 4.5t2.5 4.5q1 1 1.5 2l1.5 3q0 1 0.5 2t1.5 2v2v0zM450 655l-208 -372h220v372h-12v0v0z" />
    <glyph glyph-name="Ccedilla" unicode="&#xc7;" horiz-adv-x="709" 
d="M329 -108l42 98h34l-25 -65q3 1 6.5 2t7.5 1q4 1 7.5 1h7.5q17 0 31 -4t27 -13q12 -9 18.5 -22t6.5 -31q0 -20 -7.5 -34.5t-21.5 -23.5t-29.5 -15t-32.5 -9h-4t-4 -1h-4h-4h-4t-4 -1h-3.5h-3.5h-6.5h-6.5q-3 1 -5.5 1h-5.5q-5 1 -9.5 1.5t-9.5 1.5q-2 1 -4.5 1.5
t-4.5 0.5q-3 1 -5.5 1.5t-4.5 1.5q-3 1 -5.5 2t-5.5 1q-3 1 -6.5 2t-6.5 2l14 31h0.5t1.5 -1h0.5h1.5h0.5t1.5 -1h0.5h1.5q3 -1 6 -1.5t6 -1.5q2 0 3.5 -0.5t3.5 -1.5q1 0 3 -0.5t3 -0.5q3 0 6.5 -0.5t7.5 -1.5h4t3 -1h4h3q13 0 23.5 2t18.5 7q8 4 12 13.5t4 23.5q0 8 -3 14
t-8 11q-6 4 -12 7t-12 4h-1.5h-1.5h-1.5h-0.5h-7t-6 -1q-3 0 -6 -0.5t-6 -1.5q-2 0 -4 -0.5t-4 -1.5q-2 0 -4 -0.5t-4 -1.5l-7 6v0v0zM670 84l-28 -50q-12 -8 -25 -14.5t-28 -11.5q-7 -2 -14.5 -4t-14.5 -4q-8 -1 -15 -3t-15 -4q-15 -3 -29 -5.5t-28 -3.5q-13 -2 -25.5 -3
t-23.5 -1q-90 0 -162.5 23.5t-128.5 71.5q-55 48 -83 115t-28 152q0 43 8 81.5t24 72.5t38.5 62.5t51.5 52.5q28 23 60.5 41t69.5 30q38 12 77.5 18.5t81.5 6.5q27 0 53 -2t51 -7q26 -4 48 -9.5t41 -10.5q5 -1 10.5 -2.5t9.5 -3.5q5 -1 9.5 -2.5t8.5 -3.5q-3 -15 -6 -30.5
t-6 -32.5q-1 -8 -2.5 -16.5t-1.5 -16.5q-1 -9 -1.5 -17.5t-0.5 -16.5q0 -1 -0.5 -2.5t-0.5 -2.5v-3v-3v-2.5v-2.5v-3v-3l-31 2v72q0 9 -6.5 17.5t-19.5 15.5t-28 13.5t-32 13.5q-8 2 -16.5 4.5t-17.5 4.5q-4 1 -9 1.5t-9 1.5q-5 1 -9.5 1.5t-9.5 1.5h-6t-5 1h-5.5h-4.5h-5.5
t-4.5 1h-5.5h-4.5q-70 0 -124 -22.5t-90 -67.5q-37 -45 -55 -99t-18 -118q0 -74 22.5 -133.5t67.5 -103.5q45 -45 105 -67t134 -22h14t14 1q7 0 14 1.5t14 2.5q21 3 41.5 8.5t39.5 12.5q20 8 36.5 16t29.5 18l9 -8v0v0z" />
    <glyph glyph-name="Egrave" unicode="&#xc8;" horiz-adv-x="611" 
d="M121 120v449q0 13 -0.5 24.5t-1.5 21.5q-1 9 -3 16t-4 11t-5.5 7t-8.5 4q-5 2 -12 2.5t-16 1.5l-48 5v30q7 -2 14 -2.5t14 -0.5h14h14q14 -1 28 -1.5t28 -0.5h28.5h28.5h8h8h4h5h4h4h24h24t24 0.5t24 1.5h30h28h13.5t12.5 1h12h11h16.5h17.5q8 -1 16.5 -1h16.5
q17 0 32 -0.5t30 -1.5q-3 -12 -5.5 -24t-4.5 -25q-1 -7 -1.5 -13.5t-1.5 -12.5q0 -7 -0.5 -13.5t-0.5 -13.5q-1 -7 -1.5 -13.5t-0.5 -12.5v-12v-12l-35 2v65q0 4 -0.5 7.5t-1.5 7.5t-2.5 6.5t-4.5 3.5q-13 5 -27 8.5t-30 5.5q-8 1 -16 1.5t-16 1.5q-9 1 -17 1.5t-16 1.5h-10
t-9 1h-9.5h-9.5h-18h-18h-6.5h-7.5q-3 -1 -6.5 -1h-7.5q-7 0 -14 -0.5t-14 -1.5q-4 -1 -7.5 -1.5t-6.5 -0.5q-4 -1 -7.5 -1.5t-6.5 -1.5v-265q12 -2 25 -3t27 -1q14 -1 30 -1h34q23 0 41 1t31 2q13 2 21.5 3.5t12.5 4.5q2 2 3 4t2 5t1.5 7.5t1.5 9.5l5 54h30v-7v-5
q-1 -3 -1 -5.5v-4.5v-10v-10q-1 -10 -1.5 -20t-0.5 -19v-9v-9v-9.5v-9.5v-4.5v-4.5v-5.5v-4.5v-8.5t1 -9.5v-9.5v-9.5v-8.5t1 -9.5v-9.5v-9.5v-4.5t1 -4.5v-4.5v-4.5l-30 2l-5 59q-1 4 -1.5 7.5t-1.5 6.5t-2 5.5t-3 3.5q-4 3 -12.5 5.5t-21.5 3.5q-13 2 -31 2.5t-41 0.5
h-17.5h-16.5q-9 -1 -16.5 -1h-14.5q-14 0 -27 -0.5t-24 -1.5v-278q3 -2 6.5 -3.5t7.5 -1.5q3 -1 6.5 -1.5t7.5 -0.5l14 -2t14 -1h14.5h13.5h12h12h12h13q26 0 50.5 1.5t46.5 2.5q23 2 36.5 4t19.5 5q5 3 10.5 12t9.5 24q5 15 8.5 34.5t6.5 41.5l35 2q-3 -13 -5 -25.5
t-4 -26.5q-1 -7 -1.5 -13.5t-1.5 -12.5q-1 -7 -1.5 -13.5t-0.5 -13.5q0 -4 -0.5 -8t-0.5 -7q-1 -4 -1 -8v-8v-14.5v-13.5h-12h-13h-6.5t-7.5 -1h-7.5h-7.5h-13.5t-13.5 -1h-14h-15h-14.5t-14.5 -1h-15h-15h-7.5h-6.5h-7.5h-6.5h-4.5h-4.5h-5.5h-4.5h-8.5h-9.5q-5 1 -10 1
h-10h-8.5h-9.5h-4.5h-4.5h-4.5h-4.5q-16 1 -32.5 1.5t-32.5 0.5h-31h-29h-18h-17t-16 -0.5t-16 -1.5h-1.5h-1.5h-1.5h-0.5h-4h-4h-5h-4h-4.5t-4.5 -1h-4.5h-4.5v30l36 3q9 -1 16 0.5t12 2.5q5 2 8.5 4t5.5 6t4 10.5t3 16.5t1.5 22t0.5 26v2v0zM354 737l-144 90
q-1 -1 -2.5 -0.5t-3.5 1.5q-1 0 -1.5 0.5t-0.5 1.5q-1 0 -1.5 0.5l-1.5 1.5q-6 3 -10.5 7.5t-9.5 8.5q-4 5 -6.5 10.5t-2.5 12.5q0 8 2 14t6 11q5 5 11 7.5t14 2.5q3 0 6 -0.5t6 -2.5q3 -1 6 -2.5l7 -3.5l4.5 -4.5t5.5 -4.5q2 -1 3 -2t3 -2q1 -1 2.5 -2t2.5 -2t1.5 -2
t1.5 -2t2 -1.5t2 -1.5l138 -136h-40v0v0z" />
    <glyph glyph-name="Eacute" unicode="&#xc9;" horiz-adv-x="611" 
d="M121 120v449q0 13 -0.5 24.5t-1.5 21.5q-1 9 -3 16t-4 11t-5.5 7t-8.5 4q-5 2 -12 2.5t-16 1.5l-48 5v30q7 -2 14 -2.5t14 -0.5h14h14q14 -1 28 -1.5t28 -0.5h28.5h28.5h8h8h4h5h4h4h24h24t24 0.5t24 1.5h30h28h13.5t12.5 1h12h11h16.5h17.5q8 -1 16.5 -1h16.5
q17 0 32 -0.5t30 -1.5q-3 -12 -5.5 -24t-4.5 -25q-1 -7 -1.5 -13.5t-1.5 -12.5q0 -7 -0.5 -13.5t-0.5 -13.5q-1 -7 -1.5 -13.5t-0.5 -12.5v-12v-12l-35 2v65q0 4 -0.5 7.5t-1.5 7.5t-2.5 6.5t-4.5 3.5q-13 5 -27 8.5t-30 5.5q-8 1 -16 1.5t-16 1.5q-9 1 -17 1.5t-16 1.5h-10
t-9 1h-9.5h-9.5h-18h-18h-6.5h-7.5q-3 -1 -6.5 -1h-7.5q-7 0 -14 -0.5t-14 -1.5q-4 -1 -7.5 -1.5t-6.5 -0.5q-4 -1 -7.5 -1.5t-6.5 -1.5v-265q12 -2 25 -3t27 -1q14 -1 30 -1h34q23 0 41 1t31 2q13 2 21.5 3.5t12.5 4.5q2 2 3 4t2 5t1.5 7.5t1.5 9.5l5 54h30v-7v-5
q-1 -3 -1 -5.5v-4.5v-10v-10q-1 -10 -1.5 -20t-0.5 -19v-9v-9v-9.5v-9.5v-4.5v-4.5v-5.5v-4.5v-8.5t1 -9.5v-9.5v-9.5v-8.5t1 -9.5v-9.5v-9.5v-4.5t1 -4.5v-4.5v-4.5l-30 2l-5 59q-1 4 -1.5 7.5t-1.5 6.5t-2 5.5t-3 3.5q-4 3 -12.5 5.5t-21.5 3.5q-13 2 -31 2.5t-41 0.5
h-17.5h-16.5q-9 -1 -16.5 -1h-14.5q-14 0 -27 -0.5t-24 -1.5v-278q3 -2 6.5 -3.5t7.5 -1.5q3 -1 6.5 -1.5t7.5 -0.5l14 -2t14 -1h14.5h13.5h12h12h12h13q26 0 50.5 1.5t46.5 2.5q23 2 36.5 4t19.5 5q5 3 10.5 12t9.5 24q5 15 8.5 34.5t6.5 41.5l35 2q-3 -13 -5 -25.5
t-4 -26.5q-1 -7 -1.5 -13.5t-1.5 -12.5q-1 -7 -1.5 -13.5t-0.5 -13.5q0 -4 -0.5 -8t-0.5 -7q-1 -4 -1 -8v-8v-14.5v-13.5h-12h-13h-6.5t-7.5 -1h-7.5h-7.5h-13.5t-13.5 -1h-14h-15h-14.5t-14.5 -1h-15h-15h-7.5h-6.5h-7.5h-6.5h-4.5h-4.5h-5.5h-4.5h-8.5h-9.5q-5 1 -10 1
h-10h-8.5h-9.5h-4.5h-4.5h-4.5h-4.5q-16 1 -32.5 1.5t-32.5 0.5h-31h-29h-18h-17t-16 -0.5t-16 -1.5h-1.5h-1.5h-1.5h-0.5h-4h-4h-5h-4h-4.5t-4.5 -1h-4.5h-4.5v30l36 3q9 -1 16 0.5t12 2.5q5 2 8.5 4t5.5 6t4 10.5t3 16.5t1.5 22t0.5 26v2v0zM217 737l138 138
q1 -1 1.5 -0.5l1.5 1.5l2 2l2 2q2 2 4.5 4t5.5 4q2 1 3 2l3 3q1 1 2.5 2t2.5 2q2 1 3.5 1.5t3.5 1.5q1 1 3 1.5t3 1.5q3 2 6 2.5t6 0.5q8 0 14 -2.5t10 -7.5q5 -5 7 -11t2 -14q0 -7 -2 -12.5t-7 -10.5q-4 -4 -9.5 -8.5t-10.5 -7.5q-1 -1 -2.5 -2t-3.5 -2q-1 0 -1.5 -0.5
l-0.5 -0.5l-1.5 -1.5t-1.5 -0.5l-144 -88h-40v0v0z" />
    <glyph glyph-name="Ecircumflex" unicode="&#xca;" horiz-adv-x="611" 
d="M121 120v449q0 13 -0.5 24.5t-1.5 21.5q-1 9 -3 16t-4 11t-5.5 7t-8.5 4q-5 2 -12 2.5t-16 1.5l-48 5v30q7 -2 14 -2.5t14 -0.5h14h14q14 -1 28 -1.5t28 -0.5h28.5h28.5h8h8h4h5h4h4h24h24t24 0.5t24 1.5h30h28h13.5t12.5 1h12h11h16.5h17.5q8 -1 16.5 -1h16.5
q17 0 32 -0.5t30 -1.5q-3 -12 -5.5 -24t-4.5 -25q-1 -7 -1.5 -13.5t-1.5 -12.5q0 -7 -0.5 -13.5t-0.5 -13.5q-1 -7 -1.5 -13.5t-0.5 -12.5v-12v-12l-35 2v65q0 4 -0.5 7.5t-1.5 7.5t-2.5 6.5t-4.5 3.5q-13 5 -27 8.5t-30 5.5q-8 1 -16 1.5t-16 1.5q-9 1 -17 1.5t-16 1.5h-10
t-9 1h-9.5h-9.5h-18h-18h-6.5h-7.5q-3 -1 -6.5 -1h-7.5q-7 0 -14 -0.5t-14 -1.5q-4 -1 -7.5 -1.5t-6.5 -0.5q-4 -1 -7.5 -1.5t-6.5 -1.5v-265q12 -2 25 -3t27 -1q14 -1 30 -1h34q23 0 41 1t31 2q13 2 21.5 3.5t12.5 4.5q2 2 3 4t2 5t1.5 7.5t1.5 9.5l5 54h30v-7v-5
q-1 -3 -1 -5.5v-4.5v-10v-10q-1 -10 -1.5 -20t-0.5 -19v-9v-9v-9.5v-9.5v-4.5v-4.5v-5.5v-4.5v-8.5t1 -9.5v-9.5v-9.5v-8.5t1 -9.5v-9.5v-9.5v-4.5t1 -4.5v-4.5v-4.5l-30 2l-5 59q-1 4 -1.5 7.5t-1.5 6.5t-2 5.5t-3 3.5q-4 3 -12.5 5.5t-21.5 3.5q-13 2 -31 2.5t-41 0.5
h-17.5h-16.5q-9 -1 -16.5 -1h-14.5q-14 0 -27 -0.5t-24 -1.5v-278q3 -2 6.5 -3.5t7.5 -1.5q3 -1 6.5 -1.5t7.5 -0.5l14 -2t14 -1h14.5h13.5h12h12h12h13q26 0 50.5 1.5t46.5 2.5q23 2 36.5 4t19.5 5q5 3 10.5 12t9.5 24q5 15 8.5 34.5t6.5 41.5l35 2q-3 -13 -5 -25.5
t-4 -26.5q-1 -7 -1.5 -13.5t-1.5 -12.5q-1 -7 -1.5 -13.5t-0.5 -13.5q0 -4 -0.5 -8t-0.5 -7q-1 -4 -1 -8v-8v-14.5v-13.5h-12h-13h-6.5t-7.5 -1h-7.5h-7.5h-13.5t-13.5 -1h-14h-15h-14.5t-14.5 -1h-15h-15h-7.5h-6.5h-7.5h-6.5h-4.5h-4.5h-5.5h-4.5h-8.5h-9.5q-5 1 -10 1
h-10h-8.5h-9.5h-4.5h-4.5h-4.5h-4.5q-16 1 -32.5 1.5t-32.5 0.5h-31h-29h-18h-17t-16 -0.5t-16 -1.5h-1.5h-1.5h-1.5h-0.5h-4h-4h-5h-4h-4.5t-4.5 -1h-4.5h-4.5v30l36 3q9 -1 16 0.5t12 2.5q5 2 8.5 4t5.5 6t4 10.5t3 16.5t1.5 22t0.5 26v2v0zM275 908h62l125 -167h-35
l-121 103l-121 -103h-35l125 167v0v0z" />
    <glyph glyph-name="Edieresis" unicode="&#xcb;" horiz-adv-x="611" 
d="M121 120v449q0 13 -0.5 24.5t-1.5 21.5q-1 9 -3 16t-4 11t-5.5 7t-8.5 4q-5 2 -12 2.5t-16 1.5l-48 5v30q7 -2 14 -2.5t14 -0.5h14h14q14 -1 28 -1.5t28 -0.5h28.5h28.5h8h8h4h5h4h4h24h24t24 0.5t24 1.5h30h28h13.5t12.5 1h12h11h16.5h17.5q8 -1 16.5 -1h16.5
q17 0 32 -0.5t30 -1.5q-3 -12 -5.5 -24t-4.5 -25q-1 -7 -1.5 -13.5t-1.5 -12.5q0 -7 -0.5 -13.5t-0.5 -13.5q-1 -7 -1.5 -13.5t-0.5 -12.5v-12v-12l-35 2v65q0 4 -0.5 7.5t-1.5 7.5t-2.5 6.5t-4.5 3.5q-13 5 -27 8.5t-30 5.5q-8 1 -16 1.5t-16 1.5q-9 1 -17 1.5t-16 1.5h-10
t-9 1h-9.5h-9.5h-18h-18h-6.5h-7.5q-3 -1 -6.5 -1h-7.5q-7 0 -14 -0.5t-14 -1.5q-4 -1 -7.5 -1.5t-6.5 -0.5q-4 -1 -7.5 -1.5t-6.5 -1.5v-265q12 -2 25 -3t27 -1q14 -1 30 -1h34q23 0 41 1t31 2q13 2 21.5 3.5t12.5 4.5q2 2 3 4t2 5t1.5 7.5t1.5 9.5l5 54h30v-7v-5
q-1 -3 -1 -5.5v-4.5v-10v-10q-1 -10 -1.5 -20t-0.5 -19v-9v-9v-9.5v-9.5v-4.5v-4.5v-5.5v-4.5v-8.5t1 -9.5v-9.5v-9.5v-8.5t1 -9.5v-9.5v-9.5v-4.5t1 -4.5v-4.5v-4.5l-30 2l-5 59q-1 4 -1.5 7.5t-1.5 6.5t-2 5.5t-3 3.5q-4 3 -12.5 5.5t-21.5 3.5q-13 2 -31 2.5t-41 0.5
h-17.5h-16.5q-9 -1 -16.5 -1h-14.5q-14 0 -27 -0.5t-24 -1.5v-278q3 -2 6.5 -3.5t7.5 -1.5q3 -1 6.5 -1.5t7.5 -0.5l14 -2t14 -1h14.5h13.5h12h12h12h13q26 0 50.5 1.5t46.5 2.5q23 2 36.5 4t19.5 5q5 3 10.5 12t9.5 24q5 15 8.5 34.5t6.5 41.5l35 2q-3 -13 -5 -25.5
t-4 -26.5q-1 -7 -1.5 -13.5t-1.5 -12.5q-1 -7 -1.5 -13.5t-0.5 -13.5q0 -4 -0.5 -8t-0.5 -7q-1 -4 -1 -8v-8v-14.5v-13.5h-12h-13h-6.5t-7.5 -1h-7.5h-7.5h-13.5t-13.5 -1h-14h-15h-14.5t-14.5 -1h-15h-15h-7.5h-6.5h-7.5h-6.5h-4.5h-4.5h-5.5h-4.5h-8.5h-9.5q-5 1 -10 1
h-10h-8.5h-9.5h-4.5h-4.5h-4.5h-4.5q-16 1 -32.5 1.5t-32.5 0.5h-31h-29h-18h-17t-16 -0.5t-16 -1.5h-1.5h-1.5h-1.5h-0.5h-4h-4h-5h-4h-4.5t-4.5 -1h-4.5h-4.5v30l36 3q9 -1 16 0.5t12 2.5q5 2 8.5 4t5.5 6t4 10.5t3 16.5t1.5 22t0.5 26v2v0zM206 868q11 -2 20 -5.5
t16 -10.5t10.5 -16t3.5 -20t-3.5 -20t-10.5 -16t-16 -10.5t-20 -3.5t-20 3.5t-16 10.5t-10.5 16t-3.5 20t3.5 20t10.5 16t16 10.5t20 3.5v2v0zM405 868q11 -2 20 -5.5t16 -10.5t10.5 -16t3.5 -20t-3.5 -20t-10.5 -16t-16 -10.5t-20 -3.5t-20 3.5t-16 10.5t-10.5 16t-3.5 20
t3.5 20t10.5 16t16 10.5t20 3.5v2v0z" />
    <glyph glyph-name="Igrave" unicode="&#xcc;" horiz-adv-x="337" 
d="M216 569v-449q0 -16 0.5 -28t1.5 -22t2.5 -16.5t4.5 -10.5q2 -4 6 -6.5t8 -4.5q5 -1 12 -2.5t16 -1.5l48 -1v-30q-19 1 -38 1.5t-37 0.5q-18 1 -35.5 1h-34.5h-10.5h-10.5h-10.5h-10.5h-13.5t-12.5 -1h-13.5h-12.5q-13 0 -26.5 -0.5t-27.5 -1.5v30l48 3q9 -1 16 0t12 2
q5 2 8.5 4.5t5.5 6.5t4 10.5t3 16.5t1.5 22t0.5 26v451q0 13 -0.5 24.5t-1.5 21.5q-1 9 -3 16t-4 11t-5.5 7t-8.5 4q-5 2 -12 2.5t-16 1.5l-48 5v30q14 -2 27.5 -3t26.5 -1h12.5h13.5q6 -1 12.5 -1h13.5h10.5h10.5h10.5h10.5h34.5t35.5 1q18 0 37 0.5t38 1.5v-28l-48 -3
q-4 -2 -8.5 -2.5t-7.5 -0.5q-4 -1 -7 -1.5t-5 -1.5q-4 -1 -8 -4t-6 -7q-3 -4 -4.5 -11t-2.5 -16q-1 -10 -1.5 -22t-0.5 -26v2v0zM217 737l-144 90q-1 -1 -2.5 -0.5t-3.5 1.5q-1 0 -1.5 0.5t-0.5 1.5q-1 0 -1.5 0.5l-1.5 1.5q-6 3 -10.5 7.5t-9.5 8.5q-4 5 -6.5 10.5
t-2.5 12.5q0 8 2 14t6 11q5 5 11 7.5t14 2.5q3 0 6 -0.5t6 -2.5q3 -1 6 -2.5l7 -3.5l4.5 -4.5t5.5 -4.5q2 -1 3 -2t3 -2q1 -1 2.5 -2t2.5 -2t1.5 -2t1.5 -2t2 -1.5t2 -1.5l138 -136h-40v0v0z" />
    <glyph glyph-name="Iacute" unicode="&#xcd;" horiz-adv-x="337" 
d="M216 569v-449q0 -16 0.5 -28t1.5 -22t2.5 -16.5t4.5 -10.5q2 -4 6 -6.5t8 -4.5q5 -1 12 -2.5t16 -1.5l48 -1v-30q-19 1 -38 1.5t-37 0.5q-18 1 -35.5 1h-34.5h-10.5h-10.5h-10.5h-10.5h-13.5t-12.5 -1h-13.5h-12.5q-13 0 -26.5 -0.5t-27.5 -1.5v30l48 3q9 -1 16 0t12 2
q5 2 8.5 4.5t5.5 6.5t4 10.5t3 16.5t1.5 22t0.5 26v451q0 13 -0.5 24.5t-1.5 21.5q-1 9 -3 16t-4 11t-5.5 7t-8.5 4q-5 2 -12 2.5t-16 1.5l-48 5v30q14 -2 27.5 -3t26.5 -1h12.5h13.5q6 -1 12.5 -1h13.5h10.5h10.5h10.5h10.5h34.5t35.5 1q18 0 37 0.5t38 1.5v-28l-48 -3
q-4 -2 -8.5 -2.5t-7.5 -0.5q-4 -1 -7 -1.5t-5 -1.5q-4 -1 -8 -4t-6 -7q-3 -4 -4.5 -11t-2.5 -16q-1 -10 -1.5 -22t-0.5 -26v2v0zM80 737l138 138q1 -1 1.5 -0.5l1.5 1.5l2 2l2 2q2 2 4.5 4t5.5 4q2 1 3 2l3 3q1 1 2.5 2t2.5 2q2 1 3.5 1.5t3.5 1.5q1 1 3 1.5t3 1.5
q3 2 6 2.5t6 0.5q8 0 14 -2.5t10 -7.5q5 -5 7 -11t2 -14q0 -7 -2 -12.5t-7 -10.5q-4 -4 -9.5 -8.5t-10.5 -7.5q-1 -1 -2.5 -2t-3.5 -2q-1 0 -1.5 -0.5l-0.5 -0.5l-1.5 -1.5t-1.5 -0.5l-144 -88h-40v0v0z" />
    <glyph glyph-name="Icircumflex" unicode="&#xce;" horiz-adv-x="337" 
d="M216 569v-449q0 -16 0.5 -28t1.5 -22t2.5 -16.5t4.5 -10.5q2 -4 6 -6.5t8 -4.5q5 -1 12 -2.5t16 -1.5l48 -1v-30q-19 1 -38 1.5t-37 0.5q-18 1 -35.5 1h-34.5h-10.5h-10.5h-10.5h-10.5h-13.5t-12.5 -1h-13.5h-12.5q-13 0 -26.5 -0.5t-27.5 -1.5v30l48 3q9 -1 16 0t12 2
q5 2 8.5 4.5t5.5 6.5t4 10.5t3 16.5t1.5 22t0.5 26v451q0 13 -0.5 24.5t-1.5 21.5q-1 9 -3 16t-4 11t-5.5 7t-8.5 4q-5 2 -12 2.5t-16 1.5l-48 5v30q14 -2 27.5 -3t26.5 -1h12.5h13.5q6 -1 12.5 -1h13.5h10.5h10.5h10.5h10.5h34.5t35.5 1q18 0 37 0.5t38 1.5v-28l-48 -3
q-4 -2 -8.5 -2.5t-7.5 -0.5q-4 -1 -7 -1.5t-5 -1.5q-4 -1 -8 -4t-6 -7q-3 -4 -4.5 -11t-2.5 -16q-1 -10 -1.5 -22t-0.5 -26v2v0zM138 908h62l125 -167h-35l-121 103l-121 -103h-35l125 167v0v0z" />
    <glyph glyph-name="Idieresis" unicode="&#xcf;" horiz-adv-x="337" 
d="M216 569v-449q0 -16 0.5 -28t1.5 -22t2.5 -16.5t4.5 -10.5q2 -4 6 -6.5t8 -4.5q5 -1 12 -2.5t16 -1.5l48 -1v-30q-19 1 -38 1.5t-37 0.5q-18 1 -35.5 1h-34.5h-10.5h-10.5h-10.5h-10.5h-13.5t-12.5 -1h-13.5h-12.5q-13 0 -26.5 -0.5t-27.5 -1.5v30l48 3q9 -1 16 0t12 2
q5 2 8.5 4.5t5.5 6.5t4 10.5t3 16.5t1.5 22t0.5 26v451q0 13 -0.5 24.5t-1.5 21.5q-1 9 -3 16t-4 11t-5.5 7t-8.5 4q-5 2 -12 2.5t-16 1.5l-48 5v30q14 -2 27.5 -3t26.5 -1h12.5h13.5q6 -1 12.5 -1h13.5h10.5h10.5h10.5h10.5h34.5t35.5 1q18 0 37 0.5t38 1.5v-28l-48 -3
q-4 -2 -8.5 -2.5t-7.5 -0.5q-4 -1 -7 -1.5t-5 -1.5q-4 -1 -8 -4t-6 -7q-3 -4 -4.5 -11t-2.5 -16q-1 -10 -1.5 -22t-0.5 -26v2v0zM69 868q11 -2 20 -5.5t16 -10.5t10.5 -16t3.5 -20t-3.5 -20t-10.5 -16t-16 -10.5t-20 -3.5t-20 3.5t-16 10.5t-10.5 16t-3.5 20t3.5 20t10.5 16
t16 10.5t20 3.5v2v0zM268 868q11 -2 20 -5.5t16 -10.5t10.5 -16t3.5 -20t-3.5 -20t-10.5 -16t-16 -10.5t-20 -3.5t-20 3.5t-16 10.5t-10.5 16t-3.5 20t3.5 20t10.5 16t16 10.5t20 3.5v2v0z" />
    <glyph glyph-name="Eth" unicode="&#xd0;" horiz-adv-x="774" 
d="M113 95v251h-99v36h99v187q0 13 -0.5 24.5t-1.5 21.5q-1 9 -3 16t-4 11t-5.5 7t-8.5 4q-5 2 -12 2.5t-16 1.5l-40 5v30q8 -2 16.5 -2.5t16.5 -0.5h16.5h16.5h6h7q3 -1 6.5 -1h6.5h12.5h13.5q10 -1 19.5 -1h19.5h20h20h32.5h31.5t31 0.5t29 1.5h13.5h12.5h6t6 1h6h6h1.5
h1.5h2h2h1.5h1.5h2h2q74 0 135.5 -20t110.5 -61q49 -40 73.5 -96.5t24.5 -127.5v-2.5v-3.5v-2.5v-3.5q-2 -56 -18 -108.5t-46 -102.5q-30 -49 -67.5 -82t-83.5 -50q-4 -1 -7.5 -2.5t-7.5 -3.5q-2 -1 -4 -1.5t-4 -0.5q-3 -1 -5 -1.5t-4 -1.5q-13 -4 -29 -8.5t-34 -7.5
t-40.5 -4.5t-48.5 -1.5h-2.5h-3.5h-2.5h-3.5h-7.5h-6.5q-4 1 -7.5 1h-6.5h-13.5h-12.5q-12 1 -22.5 1.5t-21.5 0.5h-20h-20h-1.5h-0.5h-1.5h-1.5h-2h-2h-4h-4h-5h-4h-4h-4h-5h-4h-7.5t-6.5 -1h-7.5h-6.5h-14t-14 -1h-6h-5h-6h-6h-6t-5 -1h-6h-6v23l31 16q6 2 11 7.5t8 13.5
t4.5 17t1.5 19v2v0zM208 644v-262h184v-36h-184v-297q6 -3 13 -4.5t16 -2.5q8 -1 17 -1.5t18 -0.5q6 -1 12.5 -1h13.5h12h12h16h16t16.5 1t17.5 2q11 1 22.5 2.5t23.5 4.5q11 2 22 6t21 9q44 20 76.5 49.5t51.5 66.5q20 38 29.5 82t9.5 95q0 93 -23.5 152.5t-70.5 86.5
q-46 27 -103 40.5t-125 13.5h-12h-12h-6.5h-6.5q-4 -1 -7 -1h-6q-9 -1 -18 -1.5t-17 -1.5q-9 -1 -16 -1.5t-13 -2.5v2v0z" />
    <glyph glyph-name="Ntilde" unicode="&#xd1;" horiz-adv-x="831" 
d="M112 120v449q0 13 -0.5 24.5t-1.5 21.5q-1 9 -3 16t-4 11t-5.5 7t-8.5 4q-5 2 -12 2.5t-16 1.5l-44 5v30q5 -2 10.5 -2.5t10.5 -0.5h10.5h11.5q10 -1 19.5 -1.5t19.5 -0.5h19.5h18.5h9.5h8.5q5 0 9.5 0.5t8.5 1.5h4.5h4.5h2t3 1h2h2l478 -588h3v467q0 13 -0.5 24.5
t-1.5 21.5q-1 9 -3 16t-4 11t-5.5 7t-8.5 4q-5 2 -12 2.5t-16 1.5l-44 5v30q5 -2 10 -2.5t10 -0.5h10h10q10 -1 19.5 -1.5t19.5 -0.5h9.5h9.5h9h9h4.5h5.5h4.5h4.5h10t10 1h4.5h5.5h4.5h4.5h10t10 1h10h10h5.5t5.5 1h5h6v-28l-44 -3q-4 -2 -8.5 -2.5t-7.5 -0.5
q-4 -1 -7 -1.5t-5 -1.5q-4 -1 -8 -4t-6 -7q-3 -4 -4.5 -11t-2.5 -16q-1 -10 -1.5 -22t-0.5 -26v-550v-6.5v-4.5v-2.5t1 -2.5v-1.5v-1.5v-0.5v-1.5v-0.5t1 -1.5v-0.5v-1.5v-3.5v-2.5v-1.5t1 -1.5v-1.5v-1.5l-90 16l-471 585h-2v-461q0 -16 0.5 -28t1.5 -22t2.5 -16.5
t4.5 -10.5q2 -4 6 -6l8 -4q5 -1 12 -2.5t16 -2.5l44 -1v-30h-6h-5q-3 1 -5.5 1h-5.5h-10h-10q-5 1 -10 1h-10h-4.5h-4.5h-5.5h-4.5q-5 1 -10 1h-10h-4.5h-4.5h-5.5h-4.5h-9h-9h-9.5h-9.5q-10 0 -19.5 -0.5t-19.5 -1.5h-10h-10h-5.5t-4.5 -1h-5.5h-4.5v30l44 3q9 -1 16 0.5
t12 2.5q5 2 8.5 4t5.5 6t4 10.5t3 16.5t1.5 22t0.5 26v2v0zM552 871h29q0 -6 -1 -12t-3 -12q-2 -7 -5 -13.5t-7 -13.5q-1 -1 -1.5 -2t-0.5 -2q-1 -1 -1.5 -2t-1.5 -2t-1.5 -2l-0.5 -1q-1 -1 -1.5 -2t-1.5 -2q-7 -8 -15 -15.5t-18 -13.5t-21.5 -9t-25.5 -3q-9 0 -16.5 1
t-13.5 2q-6 2 -12 3.5t-11 4.5q-2 1 -4.5 2t-4.5 2q-3 1 -5.5 2.5t-4.5 2.5q-4 2 -9.5 4.5t-11.5 5.5h-1.5t-0.5 1q-1 0 -1.5 0.5t-1.5 0.5q-1 1 -2.5 1.5t-3.5 1.5t-4.5 2t-4.5 2q-3 1 -5.5 1.5t-4.5 1.5q-3 0 -5.5 0.5t-4.5 1.5h-2.5t-2.5 1h-2h-2q-10 0 -18.5 -3.5
t-14.5 -10.5q-7 -7 -12 -14.5t-8 -16.5l-29 2q4 20 13 38t22 32q14 14 32.5 21t41.5 7q8 0 16.5 -1.5t16.5 -4.5q4 -1 8 -3t8 -3q3 -2 7 -3.5t8 -3.5q2 -1 3.5 -2t2.5 -2q2 -1 3.5 -1.5t2.5 -0.5q2 -1 3.5 -1.5t2.5 -1.5t2 -1.5t2 -0.5q0 -1 1 -1h2q2 -1 4.5 -2.5t5.5 -2.5
q2 -1 4.5 -2t5.5 -2l6 -2l6 -2q2 0 3 -0.5t3 -0.5h2.5h2.5h1.5h0.5h0.5h1.5q12 2 20.5 5t13.5 8t10 12.5t9 17.5v0.5t1 1.5v0.5v0.5q0 1 0.5 2t1.5 2v2v0z" />
    <glyph glyph-name="Ograve" unicode="&#xd2;" 
 />
    <glyph glyph-name="Oacute" unicode="&#xd3;" horiz-adv-x="786" 
d="M377 -20q-76 0 -139.5 23.5t-114.5 72.5t-76 115.5t-25 150.5q0 77 25 142.5t76 117.5q50 53 119 79t156 26q80 0 146 -22t117 -66q51 -43 77 -107t26 -147q0 -81 -28 -149.5t-84 -124.5q-55 -56 -124 -83.5t-151 -27.5v0v0zM382 667q-65 -2 -113 -22.5t-79 -61.5
q-31 -40 -46 -91t-15 -113v-6v-6v-3v-3q0 -2 0.5 -3.5t0.5 -3.5q2 -63 20 -120t51 -110q33 -52 85 -78t123 -26q62 0 108.5 22t77.5 66t46.5 100.5t15.5 125.5q0 74 -17 134t-51 106q-34 45 -85.5 68t-121.5 23v2v0zM305 737l138 138q1 -1 1.5 -0.5l1.5 1.5l2 2l2 2
q2 2 4.5 4t5.5 4q2 1 3 2l3 3q1 1 2.5 2t2.5 2q2 1 3.5 1.5t3.5 1.5q1 1 3 1.5t3 1.5q3 2 6 2.5t6 0.5q8 0 14 -2.5t10 -7.5q5 -5 7 -11t2 -14q0 -7 -2 -12.5t-7 -10.5q-4 -4 -9.5 -8.5t-10.5 -7.5q-1 -1 -2.5 -2t-3.5 -2q-1 0 -1.5 -0.5l-0.5 -0.5l-1.5 -1.5t-1.5 -0.5
l-144 -88h-40v0v0z" />
    <glyph glyph-name="Ocircumflex" unicode="&#xd4;" horiz-adv-x="786" 
d="M377 -20q-76 0 -139.5 23.5t-114.5 72.5t-76 115.5t-25 150.5q0 77 25 142.5t76 117.5q50 53 119 79t156 26q80 0 146 -22t117 -66q51 -43 77 -107t26 -147q0 -81 -28 -149.5t-84 -124.5q-55 -56 -124 -83.5t-151 -27.5v0v0zM382 667q-65 -2 -113 -22.5t-79 -61.5
q-31 -40 -46 -91t-15 -113v-6v-6v-3v-3q0 -2 0.5 -3.5t0.5 -3.5q2 -63 20 -120t51 -110q33 -52 85 -78t123 -26q62 0 108.5 22t77.5 66t46.5 100.5t15.5 125.5q0 74 -17 134t-51 106q-34 45 -85.5 68t-121.5 23v2v0zM363 908h62l125 -167h-35l-121 103l-121 -103h-35
l125 167v0v0z" />
    <glyph glyph-name="Otilde" unicode="&#xd5;" horiz-adv-x="786" 
d="M377 -20q-76 0 -139.5 23.5t-114.5 72.5t-76 115.5t-25 150.5q0 77 25 142.5t76 117.5q50 53 119 79t156 26q80 0 146 -22t117 -66q51 -43 77 -107t26 -147q0 -81 -28 -149.5t-84 -124.5q-55 -56 -124 -83.5t-151 -27.5v0v0zM382 667q-65 -2 -113 -22.5t-79 -61.5
q-31 -40 -46 -91t-15 -113v-6v-6v-3v-3q0 -2 0.5 -3.5t0.5 -3.5q2 -63 20 -120t51 -110q33 -52 85 -78t123 -26q62 0 108.5 22t77.5 66t46.5 100.5t15.5 125.5q0 74 -17 134t-51 106q-34 45 -85.5 68t-121.5 23v2v0zM530 883h29q0 -6 -1 -12t-3 -12q-2 -7 -5 -13.5t-7 -13.5
q-1 -1 -1.5 -2t-0.5 -2q-1 -1 -1.5 -2t-1.5 -2t-1.5 -2l-0.5 -1q-1 -1 -1.5 -2t-1.5 -2q-7 -8 -15 -15.5t-18 -13.5t-21.5 -9t-25.5 -3q-9 0 -16.5 1t-13.5 2q-6 2 -12 3.5t-11 4.5q-2 1 -4.5 2t-4.5 2q-3 1 -5.5 2.5t-4.5 2.5q-4 2 -9.5 4.5t-11.5 5.5h-1.5t-0.5 1
q-1 0 -1.5 0.5t-1.5 0.5q-1 1 -2.5 1.5t-3.5 1.5t-4.5 2t-4.5 2q-3 1 -5.5 1.5t-4.5 1.5q-3 0 -5.5 0.5t-4.5 1.5h-2.5t-2.5 1h-2h-2q-10 0 -18.5 -3.5t-14.5 -10.5q-7 -7 -12 -14.5t-8 -16.5l-29 2q4 20 13 38t22 32q14 14 32.5 21t41.5 7q8 0 16.5 -1.5t16.5 -4.5
q4 -1 8 -3t8 -3q3 -2 7 -3.5t8 -3.5q2 -1 3.5 -2t2.5 -2q2 -1 3.5 -1.5t2.5 -0.5q2 -1 3.5 -1.5t2.5 -1.5t2 -1.5t2 -0.5q0 -1 1 -1h2q2 -1 4.5 -2.5t5.5 -2.5q2 -1 4.5 -2t5.5 -2l6 -2l6 -2q2 0 3 -0.5t3 -0.5h2.5h2.5h1.5h0.5h0.5h1.5q12 2 20.5 5t13.5 8t10 12.5t9 17.5
v0.5t1 1.5v0.5v0.5q0 1 0.5 2t1.5 2v2v0z" />
    <glyph glyph-name="Odieresis" unicode="&#xd6;" horiz-adv-x="786" 
d="M377 -20q-76 0 -139.5 23.5t-114.5 72.5t-76 115.5t-25 150.5q0 77 25 142.5t76 117.5q50 53 119 79t156 26q80 0 146 -22t117 -66q51 -43 77 -107t26 -147q0 -81 -28 -149.5t-84 -124.5q-55 -56 -124 -83.5t-151 -27.5v0v0zM382 667q-65 -2 -113 -22.5t-79 -61.5
q-31 -40 -46 -91t-15 -113v-6v-6v-3v-3q0 -2 0.5 -3.5t0.5 -3.5q2 -63 20 -120t51 -110q33 -52 85 -78t123 -26q62 0 108.5 22t77.5 66t46.5 100.5t15.5 125.5q0 74 -17 134t-51 106q-34 45 -85.5 68t-121.5 23v2v0zM294 868q11 -2 20 -5.5t16 -10.5t10.5 -16t3.5 -20
t-3.5 -20t-10.5 -16t-16 -10.5t-20 -3.5t-20 3.5t-16 10.5t-10.5 16t-3.5 20t3.5 20t10.5 16t16 10.5t20 3.5v2v0zM493 868q11 -2 20 -5.5t16 -10.5t10.5 -16t3.5 -20t-3.5 -20t-10.5 -16t-16 -10.5t-20 -3.5t-20 3.5t-16 10.5t-10.5 16t-3.5 20t3.5 20t10.5 16t16 10.5
t20 3.5v2v0z" />
    <glyph glyph-name="multiply" unicode="&#xd7;" 
 />
    <glyph glyph-name="Oslash" unicode="&#xd8;" horiz-adv-x="833" 
d="M154 67l-91 -85l-33 29l94 88q-20 22 -35 49.5t-25 58.5q-10 32 -14.5 66.5t-4.5 72.5q0 77 25 141t76 116q50 52 119 78t156 26q39 0 74.5 -5t68.5 -16q33 -10 61.5 -26t53.5 -36l86 85l32 -30l-88 -83q19 -23 33.5 -48.5t24.5 -54.5q10 -28 15 -60.5t5 -67.5
q0 -81 -28 -149.5t-84 -124.5q-55 -56 -124 -83.5t-151 -27.5h-4.5h-4.5q-3 1 -5.5 1h-4.5h-8.5h-9.5q-28 3 -55.5 9t-54.5 14q-27 9 -51.5 24.5t-47.5 36.5v2v0zM641 531l-422 -400q17 -26 39 -46t48 -35t57.5 -22.5t68.5 -7.5q62 0 108.5 22t77.5 66t46.5 100.5
t15.5 125.5v9.5v8.5q-1 5 -1 9.5v9.5q-1 9 -1.5 18.5t-1.5 19.5q-2 16 -5 31.5t-8 30.5q-4 15 -9.5 30t-12.5 28v2v0zM196 167l420 403q-16 20 -37 36.5t-46 28.5t-51 19t-52 10h-3h-3h-3.5h-3.5h-2.5t-3.5 1h-2.5h-3.5q-65 0 -113 -20.5t-79 -61.5q-31 -40 -46 -91
t-15 -113q0 -28 2.5 -56.5t6.5 -55.5q5 -28 13.5 -53.5t21.5 -48.5v2v0z" />
    <glyph glyph-name="Ugrave" unicode="&#xd9;" horiz-adv-x="778" 
d="M111 214v355q0 13 -0.5 24.5t-1.5 21.5q-1 9 -3 16t-4 11t-5.5 7t-8.5 4q-5 2 -12 2.5t-16 1.5l-48 5v30q14 -2 27.5 -3t26.5 -1h12.5h13.5q6 -1 12.5 -1h13.5h10.5h10.5h10.5h10.5h34.5t35.5 1q18 0 37 0.5t38 1.5v-28l-48 -3q-4 -2 -8.5 -2.5t-7.5 -0.5q-4 -1 -7 -1.5
t-5 -1.5q-4 -1 -8 -4t-6 -7q-3 -4 -4.5 -11t-2.5 -16q-1 -10 -1.5 -22t-0.5 -26v-342q0 -55 13 -91t40 -56q27 -19 65.5 -28.5t87.5 -9.5q41 0 76.5 10t66.5 31q32 21 47.5 62.5t15.5 103.5v322q0 13 -0.5 24.5t-1.5 21.5q-1 9 -3 16t-4 11t-5.5 7t-8.5 4q-5 2 -12 2.5
t-16 1.5l-44 5v30q5 -2 10 -2.5t10 -0.5h10h10q10 -1 19.5 -1.5t19.5 -0.5h9.5h9.5h9h9h4.5h5.5h4.5h4.5h10t10 1h4.5h5.5h4.5h4.5h10t10 1h10h10h5.5t5.5 1h5h6v-28l-44 -3q-4 -2 -8.5 -2.5t-7.5 -0.5q-4 -1 -7 -1.5t-5 -1.5q-4 -1 -8 -4t-6 -7q-3 -4 -4.5 -11t-2.5 -16
q-1 -10 -1.5 -22t-0.5 -26v-287q0 -82 -16.5 -139.5t-49.5 -92.5q-33 -34 -87 -51t-130 -17q-64 0 -113.5 11.5t-85.5 35.5t-53.5 70t-17.5 115v2v0zM438 737l-144 90q-1 -1 -2.5 -0.5t-3.5 1.5q-1 0 -1.5 0.5t-0.5 1.5q-1 0 -1.5 0.5l-1.5 1.5q-6 3 -10.5 7.5t-9.5 8.5
q-4 5 -6.5 10.5t-2.5 12.5q0 8 2 14t6 11q5 5 11 7.5t14 2.5q3 0 6 -0.5t6 -2.5q3 -1 6 -2.5l7 -3.5l4.5 -4.5t5.5 -4.5q2 -1 3 -2t3 -2q1 -1 2.5 -2t2.5 -2t1.5 -2t1.5 -2t2 -1.5t2 -1.5l138 -136h-40v0v0z" />
    <glyph glyph-name="Uacute" unicode="&#xda;" horiz-adv-x="778" 
d="M111 214v355q0 13 -0.5 24.5t-1.5 21.5q-1 9 -3 16t-4 11t-5.5 7t-8.5 4q-5 2 -12 2.5t-16 1.5l-48 5v30q14 -2 27.5 -3t26.5 -1h12.5h13.5q6 -1 12.5 -1h13.5h10.5h10.5h10.5h10.5h34.5t35.5 1q18 0 37 0.5t38 1.5v-28l-48 -3q-4 -2 -8.5 -2.5t-7.5 -0.5q-4 -1 -7 -1.5
t-5 -1.5q-4 -1 -8 -4t-6 -7q-3 -4 -4.5 -11t-2.5 -16q-1 -10 -1.5 -22t-0.5 -26v-342q0 -55 13 -91t40 -56q27 -19 65.5 -28.5t87.5 -9.5q41 0 76.5 10t66.5 31q32 21 47.5 62.5t15.5 103.5v322q0 13 -0.5 24.5t-1.5 21.5q-1 9 -3 16t-4 11t-5.5 7t-8.5 4q-5 2 -12 2.5
t-16 1.5l-44 5v30q5 -2 10 -2.5t10 -0.5h10h10q10 -1 19.5 -1.5t19.5 -0.5h9.5h9.5h9h9h4.5h5.5h4.5h4.5h10t10 1h4.5h5.5h4.5h4.5h10t10 1h10h10h5.5t5.5 1h5h6v-28l-44 -3q-4 -2 -8.5 -2.5t-7.5 -0.5q-4 -1 -7 -1.5t-5 -1.5q-4 -1 -8 -4t-6 -7q-3 -4 -4.5 -11t-2.5 -16
q-1 -10 -1.5 -22t-0.5 -26v-287q0 -82 -16.5 -139.5t-49.5 -92.5q-33 -34 -87 -51t-130 -17q-64 0 -113.5 11.5t-85.5 35.5t-53.5 70t-17.5 115v2v0zM333 737l138 138q1 -1 1.5 -0.5l1.5 1.5l2 2l2 2q2 2 4.5 4t5.5 4q2 1 3 2l3 3q1 1 2.5 2t2.5 2q2 1 3.5 1.5t3.5 1.5
q1 1 3 1.5t3 1.5q3 2 6 2.5t6 0.5q8 0 14 -2.5t10 -7.5q5 -5 7 -11t2 -14q0 -7 -2 -12.5t-7 -10.5q-4 -4 -9.5 -8.5t-10.5 -7.5q-1 -1 -2.5 -2t-3.5 -2q-1 0 -1.5 -0.5l-0.5 -0.5l-1.5 -1.5t-1.5 -0.5l-144 -88h-40v0v0z" />
    <glyph glyph-name="Ucircumflex" unicode="&#xdb;" horiz-adv-x="778" 
d="M111 214v355q0 13 -0.5 24.5t-1.5 21.5q-1 9 -3 16t-4 11t-5.5 7t-8.5 4q-5 2 -12 2.5t-16 1.5l-48 5v30q14 -2 27.5 -3t26.5 -1h12.5h13.5q6 -1 12.5 -1h13.5h10.5h10.5h10.5h10.5h34.5t35.5 1q18 0 37 0.5t38 1.5v-28l-48 -3q-4 -2 -8.5 -2.5t-7.5 -0.5q-4 -1 -7 -1.5
t-5 -1.5q-4 -1 -8 -4t-6 -7q-3 -4 -4.5 -11t-2.5 -16q-1 -10 -1.5 -22t-0.5 -26v-342q0 -55 13 -91t40 -56q27 -19 65.5 -28.5t87.5 -9.5q41 0 76.5 10t66.5 31q32 21 47.5 62.5t15.5 103.5v322q0 13 -0.5 24.5t-1.5 21.5q-1 9 -3 16t-4 11t-5.5 7t-8.5 4q-5 2 -12 2.5
t-16 1.5l-44 5v30q5 -2 10 -2.5t10 -0.5h10h10q10 -1 19.5 -1.5t19.5 -0.5h9.5h9.5h9h9h4.5h5.5h4.5h4.5h10t10 1h4.5h5.5h4.5h4.5h10t10 1h10h10h5.5t5.5 1h5h6v-28l-44 -3q-4 -2 -8.5 -2.5t-7.5 -0.5q-4 -1 -7 -1.5t-5 -1.5q-4 -1 -8 -4t-6 -7q-3 -4 -4.5 -11t-2.5 -16
q-1 -10 -1.5 -22t-0.5 -26v-287q0 -82 -16.5 -139.5t-49.5 -92.5q-33 -34 -87 -51t-130 -17q-64 0 -113.5 11.5t-85.5 35.5t-53.5 70t-17.5 115v2v0zM383 908h62l125 -167h-35l-121 103l-121 -103h-35l125 167v0v0z" />
    <glyph glyph-name="Udieresis" unicode="&#xdc;" horiz-adv-x="778" 
d="M111 214v355q0 13 -0.5 24.5t-1.5 21.5q-1 9 -3 16t-4 11t-5.5 7t-8.5 4q-5 2 -12 2.5t-16 1.5l-48 5v30q14 -2 27.5 -3t26.5 -1h12.5h13.5q6 -1 12.5 -1h13.5h10.5h10.5h10.5h10.5h34.5t35.5 1q18 0 37 0.5t38 1.5v-28l-48 -3q-4 -2 -8.5 -2.5t-7.5 -0.5q-4 -1 -7 -1.5
t-5 -1.5q-4 -1 -8 -4t-6 -7q-3 -4 -4.5 -11t-2.5 -16q-1 -10 -1.5 -22t-0.5 -26v-342q0 -55 13 -91t40 -56q27 -19 65.5 -28.5t87.5 -9.5q41 0 76.5 10t66.5 31q32 21 47.5 62.5t15.5 103.5v322q0 13 -0.5 24.5t-1.5 21.5q-1 9 -3 16t-4 11t-5.5 7t-8.5 4q-5 2 -12 2.5
t-16 1.5l-44 5v30q5 -2 10 -2.5t10 -0.5h10h10q10 -1 19.5 -1.5t19.5 -0.5h9.5h9.5h9h9h4.5h5.5h4.5h4.5h10t10 1h4.5h5.5h4.5h4.5h10t10 1h10h10h5.5t5.5 1h5h6v-28l-44 -3q-4 -2 -8.5 -2.5t-7.5 -0.5q-4 -1 -7 -1.5t-5 -1.5q-4 -1 -8 -4t-6 -7q-3 -4 -4.5 -11t-2.5 -16
q-1 -10 -1.5 -22t-0.5 -26v-287q0 -82 -16.5 -139.5t-49.5 -92.5q-33 -34 -87 -51t-130 -17q-64 0 -113.5 11.5t-85.5 35.5t-53.5 70t-17.5 115v2v0zM290 868q11 -2 20 -5.5t16 -10.5t10.5 -16t3.5 -20t-3.5 -20t-10.5 -16t-16 -10.5t-20 -3.5t-20 3.5t-16 10.5t-10.5 16
t-3.5 20t3.5 20t10.5 16t16 10.5t20 3.5v2v0zM489 868q11 -2 20 -5.5t16 -10.5t10.5 -16t3.5 -20t-3.5 -20t-10.5 -16t-16 -10.5t-20 -3.5t-20 3.5t-16 10.5t-10.5 16t-3.5 20t3.5 20t10.5 16t16 10.5t20 3.5v2v0z" />
    <glyph glyph-name="Yacute" unicode="&#xdd;" 
 />
    <glyph glyph-name="Thorn" unicode="&#xde;" horiz-adv-x="604" 
d="M226 491v-371q0 -16 0.5 -28t1.5 -22t2.5 -16.5t4.5 -10.5q2 -4 6 -6.5t8 -4.5q5 -1 12 -2.5t16 -1.5l48 -1v-30q-19 1 -38 1.5t-37 0.5q-18 1 -35.5 1h-34.5h-10.5h-10.5h-10.5h-10.5h-13.5t-12.5 -1h-13.5h-12.5q-13 0 -26.5 -0.5t-27.5 -1.5v30l48 3q9 -1 16 0t12 2
q5 2 8.5 4.5t5.5 6.5t4 10.5t3 16.5t1.5 22t0.5 26v451q0 13 -0.5 24.5t-1.5 21.5q-1 9 -3 16t-4 11t-5.5 7t-8.5 4q-5 2 -12 2.5t-16 1.5l-48 5v30q14 -2 27.5 -3t26.5 -1h12.5h13.5q6 -1 12.5 -1h13.5h10.5h10.5h10.5h10.5h34.5t35.5 1q18 0 37 0.5t38 1.5v-28l-48 -3
q-4 -2 -8.5 -2.5t-7.5 -0.5q-4 -1 -7 -1.5t-5 -1.5q-4 -1 -8 -4t-6 -7q-3 -4 -4.5 -11t-2.5 -16q-1 -10 -1.5 -22t-0.5 -26v-25q5 -2 10.5 -3t12.5 -1h14.5h16.5h19.5h21.5h22.5t23.5 1h0.5h1.5h0.5h1.5v0h1h0.5h1.5h4.5h5.5h2.5h2.5q2 -1 3.5 -1h2.5q33 -2 64 -12t59 -28
t42 -46t14 -66q0 -46 -16 -83.5t-48 -66.5t-67 -44.5t-73 -17.5h-2.5h-2.5h-2h-2h-19.5t-17.5 1q-9 1 -16 2.5t-12 2.5l-11 39q1 -2 2 -2.5t2 -0.5q1 -1 2 -1h2q5 -1 11.5 -2.5t13.5 -2.5q8 -1 15.5 -1.5t15.5 -0.5v0h1v0v0h0.5h1.5q23 0 44 10.5t40 30.5t28.5 46t9.5 57
q0 39 -11 67t-33 44q-22 17 -52 25.5t-68 8.5h-6.5h-7.5q-3 -1 -6.5 -1h-7.5q-7 0 -14 -0.5t-14 -1.5q-4 -1 -7.5 -1.5t-6.5 -0.5q-4 -1 -7.5 -1.5t-6.5 -1.5v2v0z" />
    <glyph glyph-name="germandbls" unicode="&#xdf;" horiz-adv-x="556" 
d="M96 102v283h-69v14l69 35v66q0 14 2.5 27t6.5 25q5 11 10 21.5t11 19.5l4 6l4 6q1 2 2 3t2 3q1 1 2 2.5t2 2.5q8 11 16 21t18 19q9 8 18.5 15.5t19.5 14.5q3 2 6.5 4t6.5 5l8 4l8 4q8 4 17 7.5t18 6.5q8 2 16 4.5t16 3.5q8 2 15.5 3t13.5 1q37 0 65.5 -10t49.5 -30
t31.5 -48.5t10.5 -64.5q0 -11 -1.5 -23.5t-3.5 -26.5q-2 -13 -5 -27.5t-7 -28.5q-3 -10 -6 -20.5t-6 -21.5q-4 -10 -7.5 -20t-7.5 -19q-4 2 -8 4.5t-8 4.5t-7.5 3.5t-6.5 2.5q-5 2 -10.5 3.5t-10.5 2.5t-11 1.5t-13 0.5q-11 0 -20 -3t-15 -9t-9.5 -12t-4.5 -13v-1.5v-1.5
v-1.5v-0.5q0 -12 4.5 -22t14.5 -18q10 -9 21 -16.5t23 -13.5l6 -4t7 -3q3 -2 6 -3.5t6 -3.5l12 -6l10 -5q16 -10 30 -21t26 -25q12 -13 18.5 -30.5t6.5 -39.5q0 -4 -0.5 -10t-1.5 -12q0 -3 -0.5 -6t-1.5 -6q-1 -4 -1.5 -7t-1.5 -6q-3 -7 -6 -14.5t-6 -15.5q-4 -7 -8.5 -12.5
t-9.5 -9.5l-58 -42q-10 -8 -19.5 -13t-19.5 -8t-19 -4.5t-17 -1.5q-6 0 -12 0.5t-11 0.5q-6 1 -12 1.5t-12 1.5q-12 2 -24.5 5t-25.5 9l-1 -12h-4.5h-4.5q-3 1 -5.5 1h-4.5h-4.5h-4.5h-5.5h-4.5q-10 1 -19.5 1.5t-18.5 0.5h-18.5h-19.5h-19.5h-18.5q-10 0 -19.5 -0.5
t-18.5 -1.5h-9.5h-9.5h-4.5t-4.5 -1h-5.5h-4.5v30l36 3q6 -1 11.5 0t9.5 2q4 2 7 4t4 6q2 4 2.5 10t1.5 13v8t1 8v9v10v2v0zM180 466v-359q0 -26 3 -42.5t9 -24.5q6 -7 14.5 -11t19.5 -4l28 2l21 85h27v-46l3 -4.5t3 -3.5q1 -1 2.5 -2t2.5 -2q2 -1 3 -2t3 -2q1 -1 2.5 -2
t2.5 -2q6 -4 12 -6.5t12 -4.5q6 -1 13.5 -2t16.5 -1q14 0 27 5.5t25 15.5q12 11 18 23.5t6 27.5q0 24 -7.5 42.5t-21.5 30.5q-15 12 -31 23t-33 20h-1.5h-0.5v0v1h-1v0q-17 9 -32.5 19t-29.5 20q-14 11 -21 26.5t-7 36.5v2v2v1v2v4t1 4q0 3 0.5 6t0.5 6q1 2 2 5l2 6
q2 5 5.5 10.5t7.5 9.5l39 45q5 4 10.5 8t12.5 8q7 3 13.5 6t13.5 4q4 1 7.5 1.5t7.5 1.5q3 1 6.5 1.5t7.5 0.5q7 1 13 1.5t11 0.5v1.5t1 1.5v0.5v1.5v1.5t1 1.5v1.5v1.5q2 8 3.5 16.5t2.5 17.5q1 5 1.5 9t0.5 9q1 4 1 8.5v8.5q0 30 -8 56t-24 47t-40.5 31.5t-57.5 10.5
q-30 0 -54 -10.5t-41 -31.5q-18 -21 -26.5 -65.5t-8.5 -112.5v2v0z" />
    <glyph glyph-name="agrave" unicode="&#xe0;" horiz-adv-x="500" 
d="M225 270l99 18q0 28 -7.5 51t-22.5 40t-39 26t-57 9q-16 0 -27.5 -1t-18.5 -3t-13 -6.5t-11 -10.5q-1 -1 -1.5 -2l-0.5 -1q-1 -1 -1.5 -2t-0.5 -2q-1 -1 -2 -3.5t-2 -4.5t-2.5 -4.5t-2.5 -4.5t-2 -4.5t-2 -4.5l-13 -29l-26 7v65l53 32q16 8 31.5 14.5t30.5 10.5
q15 3 28.5 5t25.5 2q47 0 79 -11.5t49 -34.5q17 -22 26 -60.5t9 -92.5v-181v-14t1 -12q0 -6 0.5 -10.5t1.5 -8.5t3 -6.5t5 -4.5l7.5 -2.5t9.5 -1.5h39v-30h-3h-3q-2 1 -3.5 1h-3.5h-6h-6t-6 0.5t-6 0.5q-4 1 -7 1h-6h-6h-6h-7h-6h-10h-10h-4.5t-4.5 -1h-4.5h-4.5h-3.5h-3.5
h-1.5t-1.5 -1h-1.5h-1.5h-7h-6h-3t-3 -1h-3.5h-3.5l5 85l-124 -86q-3 -2 -7 -3t-9 -2t-10.5 -1.5t-11.5 -1.5h-2h-2h-2h-2q-25 0 -47 7t-40 21q-18 15 -26.5 37.5t-8.5 53.5q0 39 13 67t40 44q26 16 55.5 27.5t61.5 18.5h3t3 1q1 0 2.5 0.5t2.5 0.5q3 0 6 0.5t6 1.5v2v0z
M324 124v132q-9 -2 -17.5 -3.5t-16.5 -3.5q-8 -1 -16 -2.5t-16 -3.5q-10 -2 -20 -4.5t-20 -5.5t-19.5 -6.5t-20.5 -7.5t-20.5 -11.5t-17.5 -18.5q-7 -10 -12.5 -21.5t-7.5 -23.5q-1 -3 -1.5 -5.5t-0.5 -4.5v-4.5v-4.5q0 -19 6 -34t18 -26t25.5 -16.5t28.5 -5.5q11 0 23 3
t24 10t24 15t25 18q2 1 3.5 2t2.5 2l1.5 1.5l1.5 1.5l0.5 0.5l1.5 1.5q4 4 7 7.5t6 6.5t5 6t3 4v2v0zM275 526l-144 90q-1 -1 -2.5 -0.5t-3.5 1.5q-1 0 -1.5 0.5t-0.5 1.5q-1 0 -1.5 0.5l-1.5 1.5q-6 3 -10.5 7.5t-9.5 8.5q-4 5 -6.5 10.5t-2.5 12.5q0 8 2 14t6 11
q5 5 11 7.5t14 2.5q3 0 6 -0.5t6 -2.5q3 -1 6 -2.5l7 -3.5l4.5 -4.5t5.5 -4.5q2 -1 3 -2t3 -2q1 -1 2.5 -2t2.5 -2t1.5 -2t1.5 -2t2 -1.5t2 -1.5l138 -136h-40v0v0z" />
    <glyph glyph-name="aacute" unicode="&#xe1;" horiz-adv-x="500" 
d="M225 270l99 18q0 28 -7.5 51t-22.5 40t-39 26t-57 9q-16 0 -27.5 -1t-18.5 -3t-13 -6.5t-11 -10.5q-1 -1 -1.5 -2l-0.5 -1q-1 -1 -1.5 -2t-0.5 -2q-1 -1 -2 -3.5t-2 -4.5t-2.5 -4.5t-2.5 -4.5t-2 -4.5t-2 -4.5l-13 -29l-26 7v65l53 32q16 8 31.5 14.5t30.5 10.5
q15 3 28.5 5t25.5 2q47 0 79 -11.5t49 -34.5q17 -22 26 -60.5t9 -92.5v-181v-14t1 -12q0 -6 0.5 -10.5t1.5 -8.5t3 -6.5t5 -4.5l7.5 -2.5t9.5 -1.5h39v-30h-3h-3q-2 1 -3.5 1h-3.5h-6h-6t-6 0.5t-6 0.5q-4 1 -7 1h-6h-6h-6h-7h-6h-10h-10h-4.5t-4.5 -1h-4.5h-4.5h-3.5h-3.5
h-1.5t-1.5 -1h-1.5h-1.5h-7h-6h-3t-3 -1h-3.5h-3.5l5 85l-124 -86q-3 -2 -7 -3t-9 -2t-10.5 -1.5t-11.5 -1.5h-2h-2h-2h-2q-25 0 -47 7t-40 21q-18 15 -26.5 37.5t-8.5 53.5q0 39 13 67t40 44q26 16 55.5 27.5t61.5 18.5h3t3 1q1 0 2.5 0.5t2.5 0.5q3 0 6 0.5t6 1.5v2v0z
M324 124v132q-9 -2 -17.5 -3.5t-16.5 -3.5q-8 -1 -16 -2.5t-16 -3.5q-10 -2 -20 -4.5t-20 -5.5t-19.5 -6.5t-20.5 -7.5t-20.5 -11.5t-17.5 -18.5q-7 -10 -12.5 -21.5t-7.5 -23.5q-1 -3 -1.5 -5.5t-0.5 -4.5v-4.5v-4.5q0 -19 6 -34t18 -26t25.5 -16.5t28.5 -5.5q11 0 23 3
t24 10t24 15t25 18q2 1 3.5 2t2.5 2l1.5 1.5l1.5 1.5l0.5 0.5l1.5 1.5q4 4 7 7.5t6 6.5t5 6t3 4v2v0zM162 526l138 138q1 -1 1.5 -0.5l1.5 1.5l2 2l2 2q2 2 4.5 4t5.5 4q2 1 3 2l3 3q1 1 2.5 2t2.5 2q2 1 3.5 1.5t3.5 1.5q1 1 3 1.5t3 1.5q3 2 6 2.5t6 0.5q8 0 14 -2.5
t10 -7.5q5 -5 7 -11t2 -14q0 -7 -2 -12.5t-7 -10.5q-4 -4 -9.5 -8.5t-10.5 -7.5q-1 -1 -2.5 -2t-3.5 -2q-1 0 -1.5 -0.5l-0.5 -0.5l-1.5 -1.5t-1.5 -0.5l-144 -88h-40v0v0z" />
    <glyph glyph-name="acircumflex" unicode="&#xe2;" horiz-adv-x="500" 
d="M225 270l99 18q0 28 -7.5 51t-22.5 40t-39 26t-57 9q-16 0 -27.5 -1t-18.5 -3t-13 -6.5t-11 -10.5q-1 -1 -1.5 -2l-0.5 -1q-1 -1 -1.5 -2t-0.5 -2q-1 -1 -2 -3.5t-2 -4.5t-2.5 -4.5t-2.5 -4.5t-2 -4.5t-2 -4.5l-13 -29l-26 7v65l53 32q16 8 31.5 14.5t30.5 10.5
q15 3 28.5 5t25.5 2q47 0 79 -11.5t49 -34.5q17 -22 26 -60.5t9 -92.5v-181v-14t1 -12q0 -6 0.5 -10.5t1.5 -8.5t3 -6.5t5 -4.5l7.5 -2.5t9.5 -1.5h39v-30h-3h-3q-2 1 -3.5 1h-3.5h-6h-6t-6 0.5t-6 0.5q-4 1 -7 1h-6h-6h-6h-7h-6h-10h-10h-4.5t-4.5 -1h-4.5h-4.5h-3.5h-3.5
h-1.5t-1.5 -1h-1.5h-1.5h-7h-6h-3t-3 -1h-3.5h-3.5l5 85l-124 -86q-3 -2 -7 -3t-9 -2t-10.5 -1.5t-11.5 -1.5h-2h-2h-2h-2q-25 0 -47 7t-40 21q-18 15 -26.5 37.5t-8.5 53.5q0 39 13 67t40 44q26 16 55.5 27.5t61.5 18.5h3t3 1q1 0 2.5 0.5t2.5 0.5q3 0 6 0.5t6 1.5v2v0z
M324 124v132q-9 -2 -17.5 -3.5t-16.5 -3.5q-8 -1 -16 -2.5t-16 -3.5q-10 -2 -20 -4.5t-20 -5.5t-19.5 -6.5t-20.5 -7.5t-20.5 -11.5t-17.5 -18.5q-7 -10 -12.5 -21.5t-7.5 -23.5q-1 -3 -1.5 -5.5t-0.5 -4.5v-4.5v-4.5q0 -19 6 -34t18 -26t25.5 -16.5t28.5 -5.5q11 0 23 3
t24 10t24 15t25 18q2 1 3.5 2t2.5 2l1.5 1.5l1.5 1.5l0.5 0.5l1.5 1.5q4 4 7 7.5t6 6.5t5 6t3 4v2v0zM208 697h62l125 -167h-35l-121 103l-121 -103h-35l125 167v0v0z" />
    <glyph glyph-name="atilde" unicode="&#xe3;" horiz-adv-x="500" 
d="M225 270l99 18q0 28 -7.5 51t-22.5 40t-39 26t-57 9q-16 0 -27.5 -1t-18.5 -3t-13 -6.5t-11 -10.5q-1 -1 -1.5 -2l-0.5 -1q-1 -1 -1.5 -2t-0.5 -2q-1 -1 -2 -3.5t-2 -4.5t-2.5 -4.5t-2.5 -4.5t-2 -4.5t-2 -4.5l-13 -29l-26 7v65l53 32q16 8 31.5 14.5t30.5 10.5
q15 3 28.5 5t25.5 2q47 0 79 -11.5t49 -34.5q17 -22 26 -60.5t9 -92.5v-181v-14t1 -12q0 -6 0.5 -10.5t1.5 -8.5t3 -6.5t5 -4.5l7.5 -2.5t9.5 -1.5h39v-30h-3h-3q-2 1 -3.5 1h-3.5h-6h-6t-6 0.5t-6 0.5q-4 1 -7 1h-6h-6h-6h-7h-6h-10h-10h-4.5t-4.5 -1h-4.5h-4.5h-3.5h-3.5
h-1.5t-1.5 -1h-1.5h-1.5h-7h-6h-3t-3 -1h-3.5h-3.5l5 85l-124 -86q-3 -2 -7 -3t-9 -2t-10.5 -1.5t-11.5 -1.5h-2h-2h-2h-2q-25 0 -47 7t-40 21q-18 15 -26.5 37.5t-8.5 53.5q0 39 13 67t40 44q26 16 55.5 27.5t61.5 18.5h3t3 1q1 0 2.5 0.5t2.5 0.5q3 0 6 0.5t6 1.5v2v0z
M324 124v132q-9 -2 -17.5 -3.5t-16.5 -3.5q-8 -1 -16 -2.5t-16 -3.5q-10 -2 -20 -4.5t-20 -5.5t-19.5 -6.5t-20.5 -7.5t-20.5 -11.5t-17.5 -18.5q-7 -10 -12.5 -21.5t-7.5 -23.5q-1 -3 -1.5 -5.5t-0.5 -4.5v-4.5v-4.5q0 -19 6 -34t18 -26t25.5 -16.5t28.5 -5.5q11 0 23 3
t24 10t24 15t25 18q2 1 3.5 2t2.5 2l1.5 1.5l1.5 1.5l0.5 0.5l1.5 1.5q4 4 7 7.5t6 6.5t5 6t3 4v2v0zM375 652h29q0 -6 -1 -12t-3 -12q-2 -7 -5 -13.5t-7 -13.5q-1 -1 -1.5 -2t-0.5 -2q-1 -1 -1.5 -2t-1.5 -2t-1.5 -2l-0.5 -1q-1 -1 -1.5 -2t-1.5 -2q-7 -8 -15 -15.5
t-18 -13.5t-21.5 -9t-25.5 -3q-9 0 -16.5 1t-13.5 2q-6 2 -12 3.5t-11 4.5q-2 1 -4.5 2t-4.5 2q-3 1 -5.5 2.5t-4.5 2.5q-4 2 -9.5 4.5t-11.5 5.5h-1.5t-0.5 1q-1 0 -1.5 0.5t-1.5 0.5q-1 1 -2.5 1.5t-3.5 1.5t-4.5 2t-4.5 2q-3 1 -5.5 1.5t-4.5 1.5q-3 0 -5.5 0.5t-4.5 1.5
h-2.5t-2.5 1h-2h-2q-10 0 -18.5 -3.5t-14.5 -10.5q-7 -7 -12 -14.5t-8 -16.5l-29 2q4 20 13 38t22 32q14 14 32.5 21t41.5 7q8 0 16.5 -1.5t16.5 -4.5q4 -1 8 -3t8 -3q3 -2 7 -3.5t8 -3.5q2 -1 3.5 -2t2.5 -2q2 -1 3.5 -1.5t2.5 -0.5q2 -1 3.5 -1.5t2.5 -1.5t2 -1.5t2 -0.5
q0 -1 1 -1h2q2 -1 4.5 -2.5t5.5 -2.5q2 -1 4.5 -2t5.5 -2l6 -2l6 -2q2 0 3 -0.5t3 -0.5h2.5h2.5h1.5h0.5h0.5h1.5q12 2 20.5 5t13.5 8t10 12.5t9 17.5v0.5t1 1.5v0.5v0.5q0 1 0.5 2t1.5 2v2v0z" />
    <glyph glyph-name="adieresis" unicode="&#xe4;" horiz-adv-x="500" 
d="M225 270l99 18q0 28 -7.5 51t-22.5 40t-39 26t-57 9q-16 0 -27.5 -1t-18.5 -3t-13 -6.5t-11 -10.5q-1 -1 -1.5 -2l-0.5 -1q-1 -1 -1.5 -2t-0.5 -2q-1 -1 -2 -3.5t-2 -4.5t-2.5 -4.5t-2.5 -4.5t-2 -4.5t-2 -4.5l-13 -29l-26 7v65l53 32q16 8 31.5 14.5t30.5 10.5
q15 3 28.5 5t25.5 2q47 0 79 -11.5t49 -34.5q17 -22 26 -60.5t9 -92.5v-181v-14t1 -12q0 -6 0.5 -10.5t1.5 -8.5t3 -6.5t5 -4.5l7.5 -2.5t9.5 -1.5h39v-30h-3h-3q-2 1 -3.5 1h-3.5h-6h-6t-6 0.5t-6 0.5q-4 1 -7 1h-6h-6h-6h-7h-6h-10h-10h-4.5t-4.5 -1h-4.5h-4.5h-3.5h-3.5
h-1.5t-1.5 -1h-1.5h-1.5h-7h-6h-3t-3 -1h-3.5h-3.5l5 85l-124 -86q-3 -2 -7 -3t-9 -2t-10.5 -1.5t-11.5 -1.5h-2h-2h-2h-2q-25 0 -47 7t-40 21q-18 15 -26.5 37.5t-8.5 53.5q0 39 13 67t40 44q26 16 55.5 27.5t61.5 18.5h3t3 1q1 0 2.5 0.5t2.5 0.5q3 0 6 0.5t6 1.5v2v0z
M324 124v132q-9 -2 -17.5 -3.5t-16.5 -3.5q-8 -1 -16 -2.5t-16 -3.5q-10 -2 -20 -4.5t-20 -5.5t-19.5 -6.5t-20.5 -7.5t-20.5 -11.5t-17.5 -18.5q-7 -10 -12.5 -21.5t-7.5 -23.5q-1 -3 -1.5 -5.5t-0.5 -4.5v-4.5v-4.5q0 -19 6 -34t18 -26t25.5 -16.5t28.5 -5.5q11 0 23 3
t24 10t24 15t25 18q2 1 3.5 2t2.5 2l1.5 1.5l1.5 1.5l0.5 0.5l1.5 1.5q4 4 7 7.5t6 6.5t5 6t3 4v2v0zM139 657q11 -2 20 -5.5t16 -10.5t10.5 -16t3.5 -20t-3.5 -20t-10.5 -16t-16 -10.5t-20 -3.5t-20 3.5t-16 10.5t-10.5 16t-3.5 20t3.5 20t10.5 16t16 10.5t20 3.5v2v0z
M338 657q11 -2 20 -5.5t16 -10.5t10.5 -16t3.5 -20t-3.5 -20t-10.5 -16t-16 -10.5t-20 -3.5t-20 3.5t-16 10.5t-10.5 16t-3.5 20t3.5 20t10.5 16t16 10.5t20 3.5v2v0z" />
    <glyph glyph-name="aring" unicode="&#xe5;" horiz-adv-x="500" 
d="M225 270l99 18q0 28 -7.5 51t-22.5 40t-39 26t-57 9q-16 0 -27.5 -1t-18.5 -3t-13 -6.5t-11 -10.5q-1 -1 -1.5 -2l-0.5 -1q-1 -1 -1.5 -2t-0.5 -2q-1 -1 -2 -3.5t-2 -4.5t-2.5 -4.5t-2.5 -4.5t-2 -4.5t-2 -4.5l-13 -29l-26 7v65l53 32q16 8 31.5 14.5t30.5 10.5
q15 3 28.5 5t25.5 2q47 0 79 -11.5t49 -34.5q17 -22 26 -60.5t9 -92.5v-181v-14t1 -12q0 -6 0.5 -10.5t1.5 -8.5t3 -6.5t5 -4.5l7.5 -2.5t9.5 -1.5h39v-30h-3h-3q-2 1 -3.5 1h-3.5h-6h-6t-6 0.5t-6 0.5q-4 1 -7 1h-6h-6h-6h-7h-6h-10h-10h-4.5t-4.5 -1h-4.5h-4.5h-3.5h-3.5
h-1.5t-1.5 -1h-1.5h-1.5h-7h-6h-3t-3 -1h-3.5h-3.5l5 85l-124 -86q-3 -2 -7 -3t-9 -2t-10.5 -1.5t-11.5 -1.5h-2h-2h-2h-2q-25 0 -47 7t-40 21q-18 15 -26.5 37.5t-8.5 53.5q0 39 13 67t40 44q26 16 55.5 27.5t61.5 18.5h3t3 1q1 0 2.5 0.5t2.5 0.5q3 0 6 0.5t6 1.5v2v0z
M324 124v132q-9 -2 -17.5 -3.5t-16.5 -3.5q-8 -1 -16 -2.5t-16 -3.5q-10 -2 -20 -4.5t-20 -5.5t-19.5 -6.5t-20.5 -7.5t-20.5 -11.5t-17.5 -18.5q-7 -10 -12.5 -21.5t-7.5 -23.5q-1 -3 -1.5 -5.5t-0.5 -4.5v-4.5v-4.5q0 -19 6 -34t18 -26t25.5 -16.5t28.5 -5.5q11 0 23 3
t24 10t24 15t25 18q2 1 3.5 2t2.5 2l1.5 1.5l1.5 1.5l0.5 0.5l1.5 1.5q4 4 7 7.5t6 6.5t5 6t3 4v2v0zM239 716q20 -2 37.5 -9.5t32.5 -21.5q15 -15 22.5 -32.5t7.5 -37.5v0v0v0v0v-1v0v0v0q0 -21 -7 -38.5t-22 -32.5t-33 -22t-38 -7q-21 0 -38.5 7t-32.5 22q-15 14 -22 31.5
t-7 38.5v0v0v0v1v0v0v0v0q-1 20 6.5 37.5t22.5 32.5t32.5 22.5t38.5 7.5v2v0zM239 680q-14 -2 -25.5 -6.5t-19.5 -13.5q-9 -9 -13 -20.5t-4 -25.5q0 -15 4 -26.5t13 -20.5q8 -9 19.5 -13t25.5 -4t25 4t20 13q8 9 12.5 20.5t4.5 26.5q0 14 -4.5 25.5t-12.5 20.5
q-9 9 -20 13.5t-25 4.5v2v0z" />
    <glyph glyph-name="ae" unicode="&#xe6;" horiz-adv-x="758" 
d="M69 399l98 53q1 -1 2 -1t2 1q2 1 3.5 1.5t2.5 1.5q5 2 11 4.5t13 3.5q8 2 17.5 3t21.5 1q22 0 42 -4.5t39 -12.5q19 -9 34.5 -22.5t28.5 -31.5q17 15 35 27.5t37 22.5q19 11 40.5 16t45.5 5q41 0 75 -12.5t61 -36.5q27 -25 40.5 -58.5t13.5 -75.5v-10.5v-10.5t-0.5 -10.5
t-1.5 -10.5q-11 -2 -22.5 -3.5t-22.5 -3.5q-12 -1 -23 -2l-22 -2q-12 -1 -23.5 -1.5t-22.5 -0.5q-11 -1 -22.5 -1h-22.5l-146 2q0 -46 11 -82t33 -63q23 -27 57 -40.5t80 -13.5q13 0 25 1.5t24 5.5q11 4 22.5 9t22.5 12l8 4t8 5q4 2 8 4.5t8 5.5l14 -8l-20 -34
q-1 -4 -4.5 -7t-9.5 -6q-6 -4 -13.5 -7.5t-15.5 -8.5q-4 -2 -9 -3.5t-10 -3.5q-5 -1 -10.5 -2.5t-10.5 -3.5l-22 -6t-22 -5q-4 0 -8.5 -0.5t-9.5 -1.5h-4.5t-4.5 -1h-4h-4q-32 0 -61 6.5t-55 18.5q-26 13 -46.5 33.5t-35.5 48.5l-123 -94q-3 -2 -7.5 -4.5t-9.5 -3.5
q-5 -2 -10.5 -2.5t-10.5 -1.5h-2.5t-3.5 -1h-2.5h-2.5h-5.5h-4.5q-25 0 -47.5 8t-43.5 21q-21 15 -31 37.5t-10 52.5q0 34 7 57t22 36q14 12 34.5 22.5t45.5 17.5q4 1 8.5 2.5t10.5 2.5q6 2 13 3.5t14 3.5q8 2 18 3.5t20 3.5q11 2 22 3.5t23 2.5l56 8q-1 29 -7.5 55.5
t-18.5 48.5q-12 23 -35 34t-58 11q-4 0 -8.5 -0.5t-9.5 -1.5q-3 0 -6 -0.5t-5 -1.5q-3 0 -6 -0.5t-6 -1.5q-7 -2 -14.5 -5t-14.5 -6t-11.5 -6.5t-6.5 -7.5q-1 -1 -1.5 -2t-0.5 -2l-1.5 -3t-1.5 -2q-1 -2 -2 -4.5t-2 -4.5l-2 -4l-2 -4q-1 -3 -1.5 -5t-1.5 -4t-1.5 -4.5
t-1.5 -4.5q-1 -3 -1.5 -5.5t-1.5 -4.5l-26 8v62v0v0zM324 117v116q-1 -2 -2 -2.5t-2 -0.5h-1.5h-1.5q-5 -1 -10 -1.5t-10 -0.5q-5 -1 -10 -1.5t-10 -0.5q-18 -3 -35.5 -6t-34.5 -8q-17 -4 -33.5 -10.5t-32.5 -14.5q-4 -4 -7 -8.5t-6 -9.5t-4.5 -10.5t-3.5 -11.5
q-1 -4 -2 -7.5t-1 -6.5q-1 -3 -1 -6v-6q0 -19 5.5 -33t15.5 -25q11 -10 28 -15t40 -5q17 0 33 5t31 15t28.5 23t26.5 29v2v0zM547 436q-34 -2 -60 -12.5t-45 -31.5t-28 -52t-9 -72q17 -2 33.5 -3.5t32.5 -1.5q8 0 16 -0.5t17 -0.5h16h16h28.5t28.5 1q14 0 28 0.5t28 1.5v1.5
v1.5v2v2v1v2v1.5v1.5q0 32 -8 60t-23 50q-16 23 -33.5 34.5t-37.5 11.5v2v0z" />
    <glyph glyph-name="ccedilla" unicode="&#xe7;" horiz-adv-x="444" 
d="M197 -108l42 98h34l-25 -65q3 1 6.5 2t7.5 1q4 1 7.5 1h7.5q17 0 31 -4t27 -13q12 -9 18.5 -22t6.5 -31q0 -20 -7.5 -34.5t-21.5 -23.5t-29.5 -15t-32.5 -9h-4t-4 -1h-4h-4h-4t-4 -1h-3.5h-3.5h-6.5h-6.5q-3 1 -5.5 1h-5.5q-5 1 -9.5 1.5t-9.5 1.5q-2 1 -4.5 1.5
t-4.5 0.5q-3 1 -5.5 1.5t-4.5 1.5q-3 1 -5.5 2t-5.5 1q-3 1 -6.5 2t-6.5 2l14 31h0.5t1.5 -1h0.5h1.5h0.5t1.5 -1h0.5h1.5q3 -1 6 -1.5t6 -1.5q2 0 3.5 -0.5t3.5 -1.5q1 0 3 -0.5t3 -0.5q3 0 6.5 -0.5t7.5 -1.5h4t3 -1h4h3q13 0 23.5 2t18.5 7q8 4 12 13.5t4 23.5q0 8 -3 14
t-8 11q-6 4 -12 7t-12 4h-1.5h-1.5h-1.5h-0.5h-7t-6 -1q-3 0 -6 -0.5t-6 -1.5q-2 0 -4 -0.5t-4 -1.5q-2 0 -4 -0.5t-4 -1.5l-7 6v0v0zM399 311h-28l-7 61v-1v0h-1v0v0.5v1.5l-4.5 4.5l-5.5 5.5q-3 2 -6.5 4.5t-8.5 4.5q-9 5 -18.5 9t-19.5 7q-3 1 -6 1.5t-5 1.5
q-3 0 -5.5 0.5t-4.5 1.5q-5 1 -9.5 1.5t-9.5 0.5h-5.5h-4.5h-2.5h-2.5q-2 -1 -3 -1h-2q-24 -2 -45.5 -12t-41.5 -27q-19 -17 -29 -48t-10 -75q0 -59 14.5 -101.5t42.5 -68.5q29 -26 61 -39t69 -13h10t10 1l10 2t11 2q8 2 16 4.5t16 5.5t15 6.5t14 7.5l10 -13l-21 -32
q-1 -3 -3.5 -5t-5.5 -4q-4 -2 -8.5 -3.5t-9.5 -2.5q-5 -2 -10.5 -3.5t-11.5 -3.5q-6 -1 -12.5 -3t-13.5 -3q-15 -3 -31 -4.5t-33 -1.5q-45 0 -84 14.5t-74 43.5q-34 29 -51.5 72t-17.5 99q0 32 5.5 59.5t17.5 49.5q12 23 25 40.5t28 29.5l2 2l2 2q2 1 3.5 2t2.5 2q2 2 4 3.5
t4 2.5q2 2 4 3.5t5 2.5q4 2 8.5 4.5t8.5 5.5q2 2 4.5 3t5.5 3q2 1 4.5 2.5t5.5 2.5l8 4l8 4l4 2l4 2q1 0 3 1l4 2q11 5 23 9t24 7t24 5t25 2q19 0 35 -2t29 -7q7 -2 13 -4.5t12 -4.5q5 -3 10.5 -5.5t9.5 -4.5l1.5 -1.5t1.5 -0.5q0 -1 0.5 -1.5t1.5 -0.5q2 -1 3.5 -1.5
t2.5 -1.5q-3 -9 -5 -20t-4 -23q-1 -13 -2.5 -25.5t-1.5 -26.5q-1 -4 -1 -7.5v-6.5v-7.5v-6.5v2v0z" />
    <glyph glyph-name="egrave" unicode="&#xe8;" horiz-adv-x="479" 
d="M258 469q41 -2 75 -14.5t61 -36.5q27 -25 40.5 -58.5t13.5 -75.5v-10.5v-10.5t-0.5 -10.5t-1.5 -10.5q-11 -2 -22.5 -3.5t-22.5 -3.5q-12 -1 -23 -2l-22 -2q-12 -1 -23.5 -1.5t-22.5 -0.5q-11 -1 -22.5 -1h-22.5l-146 2q0 -46 11 -82t33 -63q23 -27 57 -40.5t80 -13.5
q17 0 33 3.5t30 10.5t28.5 14.5t27.5 15.5h0.5t1.5 1h0.5h0.5l0.5 0.5l1.5 1.5l13 -8l-20 -34q-1 -4 -4.5 -7t-9.5 -6q-6 -4 -13.5 -7.5t-15.5 -8.5q-9 -4 -18 -6.5t-20 -5.5q-5 -2 -10 -3t-10 -3q-6 -1 -11 -2.5t-10 -2.5t-10 -1.5t-10 -1.5h-4.5t-4.5 -1h-4.5h-4.5
q-57 0 -100 15.5t-72 47.5q-30 32 -44.5 73.5t-14.5 92.5q0 36 4.5 66t14.5 52q9 23 22.5 41.5t30.5 31.5q7 5 14.5 10.5t15.5 11.5q8 5 16 9.5t16 8.5q7 3 13.5 6t13.5 6q7 2 13.5 4.5t13.5 4.5q5 2 10.5 2.5t10.5 1.5t11 1.5t12 0.5v2v0zM253 436q-28 -2 -51 -11.5
t-43 -29.5q-19 -19 -29 -48t-9 -67v-2.5v-3.5v-2.5v-3.5q17 -2 33.5 -3.5t32.5 -1.5q17 -1 32.5 -1h31.5h28.5t27.5 1q14 0 26.5 0.5t25.5 1.5q0 35 -6.5 64.5t-19.5 54.5t-33 37.5t-47 12.5v2v0zM288 526l-144 90q-1 -1 -2.5 -0.5t-3.5 1.5q-1 0 -1.5 0.5t-0.5 1.5
q-1 0 -1.5 0.5l-1.5 1.5q-6 3 -10.5 7.5t-9.5 8.5q-4 5 -6.5 10.5t-2.5 12.5q0 8 2 14t6 11q5 5 11 7.5t14 2.5q3 0 6 -0.5t6 -2.5q3 -1 6 -2.5l7 -3.5l4.5 -4.5t5.5 -4.5q2 -1 3 -2t3 -2q1 -1 2.5 -2t2.5 -2t1.5 -2t1.5 -2t2 -1.5t2 -1.5l138 -136h-40v0v0z" />
    <glyph glyph-name="eacute" unicode="&#xe9;" horiz-adv-x="479" 
d="M258 469q41 -2 75 -14.5t61 -36.5q27 -25 40.5 -58.5t13.5 -75.5v-10.5v-10.5t-0.5 -10.5t-1.5 -10.5q-11 -2 -22.5 -3.5t-22.5 -3.5q-12 -1 -23 -2l-22 -2q-12 -1 -23.5 -1.5t-22.5 -0.5q-11 -1 -22.5 -1h-22.5l-146 2q0 -46 11 -82t33 -63q23 -27 57 -40.5t80 -13.5
q17 0 33 3.5t30 10.5t28.5 14.5t27.5 15.5h0.5t1.5 1h0.5h0.5l0.5 0.5l1.5 1.5l13 -8l-20 -34q-1 -4 -4.5 -7t-9.5 -6q-6 -4 -13.5 -7.5t-15.5 -8.5q-9 -4 -18 -6.5t-20 -5.5q-5 -2 -10 -3t-10 -3q-6 -1 -11 -2.5t-10 -2.5t-10 -1.5t-10 -1.5h-4.5t-4.5 -1h-4.5h-4.5
q-57 0 -100 15.5t-72 47.5q-30 32 -44.5 73.5t-14.5 92.5q0 36 4.5 66t14.5 52q9 23 22.5 41.5t30.5 31.5q7 5 14.5 10.5t15.5 11.5q8 5 16 9.5t16 8.5q7 3 13.5 6t13.5 6q7 2 13.5 4.5t13.5 4.5q5 2 10.5 2.5t10.5 1.5t11 1.5t12 0.5v2v0zM253 436q-28 -2 -51 -11.5
t-43 -29.5q-19 -19 -29 -48t-9 -67v-2.5v-3.5v-2.5v-3.5q17 -2 33.5 -3.5t32.5 -1.5q17 -1 32.5 -1h31.5h28.5t27.5 1q14 0 26.5 0.5t25.5 1.5q0 35 -6.5 64.5t-19.5 54.5t-33 37.5t-47 12.5v2v0zM175 526l138 138q1 -1 1.5 -0.5l1.5 1.5l2 2l2 2q2 2 4.5 4t5.5 4q2 1 3 2
l3 3q1 1 2.5 2t2.5 2q2 1 3.5 1.5t3.5 1.5q1 1 3 1.5t3 1.5q3 2 6 2.5t6 0.5q8 0 14 -2.5t10 -7.5q5 -5 7 -11t2 -14q0 -7 -2 -12.5t-7 -10.5q-4 -4 -9.5 -8.5t-10.5 -7.5q-1 -1 -2.5 -2t-3.5 -2q-1 0 -1.5 -0.5l-0.5 -0.5l-1.5 -1.5t-1.5 -0.5l-144 -88h-40v0v0z" />
    <glyph glyph-name="ecircumflex" unicode="&#xea;" horiz-adv-x="479" 
d="M258 469q41 -2 75 -14.5t61 -36.5q27 -25 40.5 -58.5t13.5 -75.5v-10.5v-10.5t-0.5 -10.5t-1.5 -10.5q-11 -2 -22.5 -3.5t-22.5 -3.5q-12 -1 -23 -2l-22 -2q-12 -1 -23.5 -1.5t-22.5 -0.5q-11 -1 -22.5 -1h-22.5l-146 2q0 -46 11 -82t33 -63q23 -27 57 -40.5t80 -13.5
q17 0 33 3.5t30 10.5t28.5 14.5t27.5 15.5h0.5t1.5 1h0.5h0.5l0.5 0.5l1.5 1.5l13 -8l-20 -34q-1 -4 -4.5 -7t-9.5 -6q-6 -4 -13.5 -7.5t-15.5 -8.5q-9 -4 -18 -6.5t-20 -5.5q-5 -2 -10 -3t-10 -3q-6 -1 -11 -2.5t-10 -2.5t-10 -1.5t-10 -1.5h-4.5t-4.5 -1h-4.5h-4.5
q-57 0 -100 15.5t-72 47.5q-30 32 -44.5 73.5t-14.5 92.5q0 36 4.5 66t14.5 52q9 23 22.5 41.5t30.5 31.5q7 5 14.5 10.5t15.5 11.5q8 5 16 9.5t16 8.5q7 3 13.5 6t13.5 6q7 2 13.5 4.5t13.5 4.5q5 2 10.5 2.5t10.5 1.5t11 1.5t12 0.5v2v0zM253 436q-28 -2 -51 -11.5
t-43 -29.5q-19 -19 -29 -48t-9 -67v-2.5v-3.5v-2.5v-3.5q17 -2 33.5 -3.5t32.5 -1.5q17 -1 32.5 -1h31.5h28.5t27.5 1q14 0 26.5 0.5t25.5 1.5q0 35 -6.5 64.5t-19.5 54.5t-33 37.5t-47 12.5v2v0zM221 697h62l125 -167h-35l-121 103l-121 -103h-35l125 167v0v0z" />
    <glyph glyph-name="edieresis" unicode="&#xeb;" horiz-adv-x="479" 
d="M258 469q41 -2 75 -14.5t61 -36.5q27 -25 40.5 -58.5t13.5 -75.5v-10.5v-10.5t-0.5 -10.5t-1.5 -10.5q-11 -2 -22.5 -3.5t-22.5 -3.5q-12 -1 -23 -2l-22 -2q-12 -1 -23.5 -1.5t-22.5 -0.5q-11 -1 -22.5 -1h-22.5l-146 2q0 -46 11 -82t33 -63q23 -27 57 -40.5t80 -13.5
q17 0 33 3.5t30 10.5t28.5 14.5t27.5 15.5h0.5t1.5 1h0.5h0.5l0.5 0.5l1.5 1.5l13 -8l-20 -34q-1 -4 -4.5 -7t-9.5 -6q-6 -4 -13.5 -7.5t-15.5 -8.5q-9 -4 -18 -6.5t-20 -5.5q-5 -2 -10 -3t-10 -3q-6 -1 -11 -2.5t-10 -2.5t-10 -1.5t-10 -1.5h-4.5t-4.5 -1h-4.5h-4.5
q-57 0 -100 15.5t-72 47.5q-30 32 -44.5 73.5t-14.5 92.5q0 36 4.5 66t14.5 52q9 23 22.5 41.5t30.5 31.5q7 5 14.5 10.5t15.5 11.5q8 5 16 9.5t16 8.5q7 3 13.5 6t13.5 6q7 2 13.5 4.5t13.5 4.5q5 2 10.5 2.5t10.5 1.5t11 1.5t12 0.5v2v0zM253 436q-28 -2 -51 -11.5
t-43 -29.5q-19 -19 -29 -48t-9 -67v-2.5v-3.5v-2.5v-3.5q17 -2 33.5 -3.5t32.5 -1.5q17 -1 32.5 -1h31.5h28.5t27.5 1q14 0 26.5 0.5t25.5 1.5q0 35 -6.5 64.5t-19.5 54.5t-33 37.5t-47 12.5v2v0zM140 657q11 -2 20 -5.5t16 -10.5t10.5 -16t3.5 -20t-3.5 -20t-10.5 -16
t-16 -10.5t-20 -3.5t-20 3.5t-16 10.5t-10.5 16t-3.5 20t3.5 20t10.5 16t16 10.5t20 3.5v2v0zM339 657q11 -2 20 -5.5t16 -10.5t10.5 -16t3.5 -20t-3.5 -20t-10.5 -16t-16 -10.5t-20 -3.5t-20 3.5t-16 10.5t-10.5 16t-3.5 20t3.5 20t10.5 16t16 10.5t20 3.5v2v0z" />
    <glyph glyph-name="igrave" unicode="&#xec;" horiz-adv-x="287" 
d="M188 465v-363v-20t1 -17q0 -7 1.5 -13l2.5 -10q2 -4 4.5 -6t6.5 -4q4 -1 9 -2.5t12 -1.5l46 -1v-30h-4.5h-4.5q-3 1 -5.5 1h-4.5h-4.5h-4.5h-5.5h-4.5q-10 1 -20 1.5t-21 0.5h-22h-24h-23.5h-22.5t-21.5 -0.5t-19.5 -1.5h-10h-10h-4.5t-4.5 -1h-4.5h-4.5v30l46 3
q6 -1 11.5 0t9.5 2q4 2 7 4t4 6q2 4 2.5 10t1.5 13v8t1 8v9v10v227q0 10 -0.5 20t-1.5 18t-2 13.5t-3 8.5t-5 5t-8 3q-4 2 -10 2.5t-14 0.5l-37 2v28q1 -2 2 -2h2h0.5t1.5 1h0.5h0.5q17 2 34 5t33 7q17 5 31.5 9.5t27.5 9.5l6 2l6 2l3 1.5l3 1.5q1 0 2.5 0.5t2.5 1.5l9 -2v0
v0zM192 526l-144 90q-1 -1 -2.5 -0.5t-3.5 1.5q-1 0 -1.5 0.5t-0.5 1.5q-1 0 -1.5 0.5l-1.5 1.5q-6 3 -10.5 7.5t-9.5 8.5q-4 5 -6.5 10.5t-2.5 12.5q0 8 2 14t6 11q5 5 11 7.5t14 2.5q3 0 6 -0.5t6 -2.5q3 -1 6 -2.5l7 -3.5l4.5 -4.5t5.5 -4.5q2 -1 3 -2t3 -2q1 -1 2.5 -2
t2.5 -2t1.5 -2t1.5 -2t2 -1.5t2 -1.5l138 -136h-40v0v0z" />
    <glyph glyph-name="iacute" unicode="&#xed;" horiz-adv-x="287" 
d="M188 465v-363v-20t1 -17q0 -7 1.5 -13l2.5 -10q2 -4 4.5 -6t6.5 -4q4 -1 9 -2.5t12 -1.5l46 -1v-30h-4.5h-4.5q-3 1 -5.5 1h-4.5h-4.5h-4.5h-5.5h-4.5q-10 1 -20 1.5t-21 0.5h-22h-24h-23.5h-22.5t-21.5 -0.5t-19.5 -1.5h-10h-10h-4.5t-4.5 -1h-4.5h-4.5v30l46 3
q6 -1 11.5 0t9.5 2q4 2 7 4t4 6q2 4 2.5 10t1.5 13v8t1 8v9v10v227q0 10 -0.5 20t-1.5 18t-2 13.5t-3 8.5t-5 5t-8 3q-4 2 -10 2.5t-14 0.5l-37 2v28q1 -2 2 -2h2h0.5t1.5 1h0.5h0.5q17 2 34 5t33 7q17 5 31.5 9.5t27.5 9.5l6 2l6 2l3 1.5l3 1.5q1 0 2.5 0.5t2.5 1.5l9 -2v0
v0zM55 526l138 138q1 -1 1.5 -0.5l1.5 1.5l2 2l2 2q2 2 4.5 4t5.5 4q2 1 3 2l3 3q1 1 2.5 2t2.5 2q2 1 3.5 1.5t3.5 1.5q1 1 3 1.5t3 1.5q3 2 6 2.5t6 0.5q8 0 14 -2.5t10 -7.5q5 -5 7 -11t2 -14q0 -7 -2 -12.5t-7 -10.5q-4 -4 -9.5 -8.5t-10.5 -7.5q-1 -1 -2.5 -2t-3.5 -2
q-1 0 -1.5 -0.5l-0.5 -0.5l-1.5 -1.5t-1.5 -0.5l-144 -88h-40v0v0z" />
    <glyph glyph-name="icircumflex" unicode="&#xee;" horiz-adv-x="287" 
d="M188 465v-363v-20t1 -17q0 -7 1.5 -13l2.5 -10q2 -4 4.5 -6t6.5 -4q4 -1 9 -2.5t12 -1.5l46 -1v-30h-4.5h-4.5q-3 1 -5.5 1h-4.5h-4.5h-4.5h-5.5h-4.5q-10 1 -20 1.5t-21 0.5h-22h-24h-23.5h-22.5t-21.5 -0.5t-19.5 -1.5h-10h-10h-4.5t-4.5 -1h-4.5h-4.5v30l46 3
q6 -1 11.5 0t9.5 2q4 2 7 4t4 6q2 4 2.5 10t1.5 13v8t1 8v9v10v227q0 10 -0.5 20t-1.5 18t-2 13.5t-3 8.5t-5 5t-8 3q-4 2 -10 2.5t-14 0.5l-37 2v28q1 -2 2 -2h2h0.5t1.5 1h0.5h0.5q17 2 34 5t33 7q17 5 31.5 9.5t27.5 9.5l6 2l6 2l3 1.5l3 1.5q1 0 2.5 0.5t2.5 1.5l9 -2v0
v0zM113 697h62l125 -167h-35l-121 103l-121 -103h-35l125 167v0v0z" />
    <glyph glyph-name="idieresis" unicode="&#xef;" horiz-adv-x="287" 
d="M188 465v-363v-20t1 -17q0 -7 1.5 -13l2.5 -10q2 -4 4.5 -6t6.5 -4q4 -1 9 -2.5t12 -1.5l46 -1v-30h-4.5h-4.5q-3 1 -5.5 1h-4.5h-4.5h-4.5h-5.5h-4.5q-10 1 -20 1.5t-21 0.5h-22h-24h-23.5h-22.5t-21.5 -0.5t-19.5 -1.5h-10h-10h-4.5t-4.5 -1h-4.5h-4.5v30l46 3
q6 -1 11.5 0t9.5 2q4 2 7 4t4 6q2 4 2.5 10t1.5 13v8t1 8v9v10v227q0 10 -0.5 20t-1.5 18t-2 13.5t-3 8.5t-5 5t-8 3q-4 2 -10 2.5t-14 0.5l-37 2v28q1 -2 2 -2h2h0.5t1.5 1h0.5h0.5q17 2 34 5t33 7q17 5 31.5 9.5t27.5 9.5l6 2l6 2l3 1.5l3 1.5q1 0 2.5 0.5t2.5 1.5l9 -2v0
v0zM44 657q11 -2 20 -5.5t16 -10.5t10.5 -16t3.5 -20t-3.5 -20t-10.5 -16t-16 -10.5t-20 -3.5t-20 3.5t-16 10.5q-6 7 -9 16t-3 20t3 20t9 16q7 7 16 10.5t20 3.5v2v0zM243 657q11 -2 20 -5.5t16 -10.5t10.5 -16t3.5 -20t-3.5 -20t-10.5 -16t-16 -10.5t-20 -3.5t-20 3.5
t-16 10.5t-10.5 16t-3.5 20t3.5 20t10.5 16t16 10.5t20 3.5v2v0z" />
    <glyph glyph-name="eth" unicode="&#xf0;" horiz-adv-x="546" 
d="M124 550l136 66q-8 6 -17 13t-19 14t-20 13.5t-20 12.5q-3 2 -6 3.5t-6 3.5q-3 1 -6 3t-6 3q-6 3 -11.5 6t-10.5 6l34 34q19 -13 35.5 -23.5t30.5 -19.5t26.5 -18t23.5 -17q2 -2 4.5 -3.5t4.5 -3.5l2 -2t2 -1l2 -2l2 -2l143 72l18 -30l-131 -64q33 -33 62.5 -70.5
t54.5 -81.5q26 -43 39 -93.5t13 -106.5t-15.5 -105t-45.5 -91q-31 -42 -77.5 -63t-109.5 -23h-1.5h-0.5h-1.5h-0.5h-1.5h-0.5h-1.5h-0.5q-47 0 -86 16t-69 49q-31 33 -46 74.5t-15 92.5q0 56 16.5 102t49.5 82q33 35 77.5 53t101.5 18h4h4q2 -1 4 -1h4t4 -0.5t5 -0.5
q2 -1 4 -1h4q5 -1 9 -2t9 -2q4 -1 8.5 -2t8.5 -3q8 -3 15 -5.5t13 -4.5l1.5 -1.5t1.5 -0.5v0h1q0 -1 0.5 -1h0.5l2 4q-10 20 -21 40t-24 39q-7 9 -13.5 17.5t-12.5 16.5q-7 7 -13.5 14t-13.5 13l-140 -66l-18 30v0v0zM275 13q32 -2 57.5 14t44.5 48q20 32 29.5 76t9.5 99
q0 39 -8 69t-25 51q-16 21 -34 35t-38 21q-6 2 -12 3.5t-12 2.5t-12 1.5t-11 0.5q-40 0 -67 -14t-42 -42t-22.5 -59t-7.5 -66v-8v-7q0 -4 0.5 -8t0.5 -8v-8t1 -7q0 -4 0.5 -8t1.5 -8q5 -34 16 -64.5t28 -59.5q17 -28 42.5 -42t59.5 -14v2v0z" />
    <glyph glyph-name="ntilde" unicode="&#xf1;" horiz-adv-x="582" 
d="M172 314v-212v-20t1 -17q0 -7 1.5 -13l2.5 -10q2 -4 4.5 -6t6.5 -4q4 -1 9 -2.5t12 -1.5l45 -1v-30h-4.5h-4.5q-2 1 -4.5 1h-4.5h-4.5h-4.5h-5.5h-4.5q-10 1 -20 1.5t-21 0.5h-22h-24h-23.5h-22.5t-21.5 -0.5t-19.5 -1.5h-9.5h-9.5h-4.5t-4.5 -1h-4.5h-4.5v30l45 3
q6 -1 11.5 0t9.5 2q4 2 7 4t4 6q2 4 2.5 10t1.5 13v8t1 8v9v10v227q0 10 -0.5 20t-1.5 18t-2 13.5t-3 8.5t-5 5t-8 3q-4 2 -10 2.5t-14 0.5l-37 2v28q1 -2 2 -2h2h0.5t1.5 1h0.5h0.5q17 2 34 5t33 7q17 5 31.5 9.5t27.5 9.5l6 2l6 2l3 1.5l3 1.5q1 0 2.5 0.5t2.5 1.5l9 -2
v-85h2l74 64q1 -1 2 -0.5t2 1.5l2 2l2 2q7 5 14.5 8.5t15.5 5.5t19 3t24 1q44 0 75.5 -11.5t50.5 -34.5q20 -23 29.5 -55t9.5 -73v-191v-20t1 -17q0 -7 1.5 -13l2.5 -10q2 -4 4.5 -6t6.5 -4q4 -1 9 -2.5t12 -1.5l41 -1v-30h-3h-3q-2 1 -3.5 1h-3.5h-3h-3h-3.5h-3.5
q-5 1 -10 1.5t-10 0.5h-4.5h-4.5h-5.5h-4.5h-4.5h-4.5h-4h-4h-2.5h-3.5h-2.5h-3.5h-11.5h-10.5q-6 0 -11 -0.5t-10 -1.5h-7h-6h-2.5t-3.5 -1h-2.5h-3.5v284q0 29 -8 52.5t-24 39.5q-16 17 -36.5 25t-46.5 8h-1.5h-0.5v0v0h-1v0q-18 -1 -35 -6.5t-34 -16.5q-16 -11 -27.5 -23
t-17.5 -24q-1 -3 -2.5 -6t-2.5 -6t-1 -6v-6v2v0zM416 652h29q0 -6 -1 -12t-3 -12q-2 -7 -5 -13.5t-7 -13.5q-1 -1 -1.5 -2t-0.5 -2q-1 -1 -1.5 -2t-1.5 -2t-1.5 -2l-0.5 -1q-1 -1 -1.5 -2t-1.5 -2q-7 -8 -15 -15.5t-18 -13.5t-21.5 -9t-25.5 -3q-9 0 -16.5 1t-13.5 2
q-6 2 -12 3.5t-11 4.5q-2 1 -4.5 2t-4.5 2q-3 1 -5.5 2.5t-4.5 2.5q-4 2 -9.5 4.5t-11.5 5.5h-1.5t-0.5 1q-1 0 -1.5 0.5t-1.5 0.5q-1 1 -2.5 1.5t-3.5 1.5t-4.5 2t-4.5 2q-3 1 -5.5 1.5t-4.5 1.5q-3 0 -5.5 0.5t-4.5 1.5h-2.5t-2.5 1h-2h-2q-10 0 -18.5 -3.5t-14.5 -10.5
q-7 -7 -12 -14.5t-8 -16.5l-29 2q4 20 13 38t22 32q14 14 32.5 21t41.5 7q8 0 16.5 -1.5t16.5 -4.5q4 -1 8 -3t8 -3q3 -2 7 -3.5t8 -3.5q2 -1 3.5 -2t2.5 -2q2 -1 3.5 -1.5t2.5 -0.5q2 -1 3.5 -1.5t2.5 -1.5t2 -1.5t2 -0.5q0 -1 1 -1h2q2 -1 4.5 -2.5t5.5 -2.5q2 -1 4.5 -2
t5.5 -2l6 -2l6 -2q2 0 3 -0.5t3 -0.5h2.5h2.5h1.5h0.5h0.5h1.5q12 2 20.5 5t13.5 8t10 12.5t9 17.5v0.5t1 1.5v0.5v0.5q0 1 0.5 2t1.5 2v2v0z" />
    <glyph glyph-name="ograve" unicode="&#xf2;" horiz-adv-x="546" 
d="M252 -20h-1.5h-0.5h-1v0h-1.5h-0.5h-1.5h-0.5q-46 0 -84.5 16t-68.5 49t-45 74.5t-15 92.5q0 56 16.5 102t50.5 82q33 35 80 53t108 18q48 0 88 -16.5t73 -49.5t49.5 -73.5t16.5 -88.5q0 -58 -18.5 -105t-55.5 -83t-84 -53.5t-104 -17.5v0v0zM264 436q-40 -2 -67 -16
t-42 -41t-22.5 -58t-7.5 -66v-15.5t1 -16.5q0 -8 1.5 -16.5t2.5 -16.5q5 -34 16.5 -64.5t30.5 -58.5q18 -28 46.5 -42t67.5 -14q34 0 58.5 14.5t40.5 42.5q15 29 23 60.5t8 66.5q0 48 -11 90t-32 78q-21 35 -49.5 53t-64.5 18v2v0zM310 526l-144 90q-1 -1 -2.5 -0.5
t-3.5 1.5q-1 0 -1.5 0.5t-0.5 1.5q-1 0 -1.5 0.5l-1.5 1.5q-6 3 -10.5 7.5t-9.5 8.5q-4 5 -6.5 10.5t-2.5 12.5q0 8 2 14t6 11q5 5 11 7.5t14 2.5q3 0 6 -0.5t6 -2.5q3 -1 6 -2.5l7 -3.5l4.5 -4.5t5.5 -4.5q2 -1 3 -2t3 -2q1 -1 2.5 -2t2.5 -2t1.5 -2t1.5 -2t2 -1.5t2 -1.5
l138 -136h-40v0v0z" />
    <glyph glyph-name="oacute" unicode="&#xf3;" horiz-adv-x="546" 
d="M252 -20h-1.5h-0.5h-1v0h-1.5h-0.5h-1.5h-0.5q-46 0 -84.5 16t-68.5 49t-45 74.5t-15 92.5q0 56 16.5 102t50.5 82q33 35 80 53t108 18q48 0 88 -16.5t73 -49.5t49.5 -73.5t16.5 -88.5q0 -58 -18.5 -105t-55.5 -83t-84 -53.5t-104 -17.5v0v0zM264 436q-40 -2 -67 -16
t-42 -41t-22.5 -58t-7.5 -66v-15.5t1 -16.5q0 -8 1.5 -16.5t2.5 -16.5q5 -34 16.5 -64.5t30.5 -58.5q18 -28 46.5 -42t67.5 -14q34 0 58.5 14.5t40.5 42.5q15 29 23 60.5t8 66.5q0 48 -11 90t-32 78q-21 35 -49.5 53t-64.5 18v2v0zM185 526l138 138q1 -1 1.5 -0.5l1.5 1.5
l2 2l2 2q2 2 4.5 4t5.5 4q2 1 3 2l3 3q1 1 2.5 2t2.5 2q2 1 3.5 1.5t3.5 1.5q1 1 3 1.5t3 1.5q3 2 6 2.5t6 0.5q8 0 14 -2.5t10 -7.5q5 -5 7 -11t2 -14q0 -7 -2 -12.5t-7 -10.5q-4 -4 -9.5 -8.5t-10.5 -7.5q-1 -1 -2.5 -2t-3.5 -2q-1 0 -1.5 -0.5l-0.5 -0.5l-1.5 -1.5
t-1.5 -0.5l-144 -88h-40v0v0z" />
    <glyph glyph-name="ocircumflex" unicode="&#xf4;" horiz-adv-x="546" 
d="M252 -20h-1.5h-0.5h-1v0h-1.5h-0.5h-1.5h-0.5q-46 0 -84.5 16t-68.5 49t-45 74.5t-15 92.5q0 56 16.5 102t50.5 82q33 35 80 53t108 18q48 0 88 -16.5t73 -49.5t49.5 -73.5t16.5 -88.5q0 -58 -18.5 -105t-55.5 -83t-84 -53.5t-104 -17.5v0v0zM264 436q-40 -2 -67 -16
t-42 -41t-22.5 -58t-7.5 -66v-15.5t1 -16.5q0 -8 1.5 -16.5t2.5 -16.5q5 -34 16.5 -64.5t30.5 -58.5q18 -28 46.5 -42t67.5 -14q34 0 58.5 14.5t40.5 42.5q15 29 23 60.5t8 66.5q0 48 -11 90t-32 78q-21 35 -49.5 53t-64.5 18v2v0zM243 697h62l125 -167h-35l-121 103
l-121 -103h-35l125 167v0v0z" />
    <glyph glyph-name="otilde" unicode="&#xf5;" horiz-adv-x="546" 
d="M252 -20h-1.5h-0.5h-1v0h-1.5h-0.5h-1.5h-0.5q-46 0 -84.5 16t-68.5 49t-45 74.5t-15 92.5q0 56 16.5 102t50.5 82q33 35 80 53t108 18q48 0 88 -16.5t73 -49.5t49.5 -73.5t16.5 -88.5q0 -58 -18.5 -105t-55.5 -83t-84 -53.5t-104 -17.5v0v0zM264 436q-40 -2 -67 -16
t-42 -41t-22.5 -58t-7.5 -66v-15.5t1 -16.5q0 -8 1.5 -16.5t2.5 -16.5q5 -34 16.5 -64.5t30.5 -58.5q18 -28 46.5 -42t67.5 -14q34 0 58.5 14.5t40.5 42.5q15 29 23 60.5t8 66.5q0 48 -11 90t-32 78q-21 35 -49.5 53t-64.5 18v2v0zM410 652h29q0 -6 -1 -12t-3 -12
q-2 -7 -5 -13.5t-7 -13.5q-1 -1 -1.5 -2t-0.5 -2q-1 -1 -1.5 -2t-1.5 -2t-1.5 -2l-0.5 -1q-1 -1 -1.5 -2t-1.5 -2q-7 -8 -15 -15.5t-18 -13.5t-21.5 -9t-25.5 -3q-9 0 -16.5 1t-13.5 2q-6 2 -12 3.5t-11 4.5q-2 1 -4.5 2t-4.5 2q-3 1 -5.5 2.5t-4.5 2.5q-4 2 -9.5 4.5
t-11.5 5.5h-1.5t-0.5 1q-1 0 -1.5 0.5t-1.5 0.5q-1 1 -2.5 1.5t-3.5 1.5t-4.5 2t-4.5 2q-3 1 -5.5 1.5t-4.5 1.5q-3 0 -5.5 0.5t-4.5 1.5h-2.5t-2.5 1h-2h-2q-10 0 -18.5 -3.5t-14.5 -10.5q-7 -7 -12 -14.5t-8 -16.5l-29 2q4 20 13 38t22 32q14 14 32.5 21t41.5 7
q8 0 16.5 -1.5t16.5 -4.5q4 -1 8 -3t8 -3q3 -2 7 -3.5t8 -3.5q2 -1 3.5 -2t2.5 -2q2 -1 3.5 -1.5t2.5 -0.5q2 -1 3.5 -1.5t2.5 -1.5t2 -1.5t2 -0.5q0 -1 1 -1h2q2 -1 4.5 -2.5t5.5 -2.5q2 -1 4.5 -2t5.5 -2l6 -2l6 -2q2 0 3 -0.5t3 -0.5h2.5h2.5h1.5h0.5h0.5h1.5
q12 2 20.5 5t13.5 8t10 12.5t9 17.5v0.5t1 1.5v0.5v0.5q0 1 0.5 2t1.5 2v2v0z" />
    <glyph glyph-name="odieresis" unicode="&#xf6;" horiz-adv-x="546" 
d="M252 -20h-1.5h-0.5h-1v0h-1.5h-0.5h-1.5h-0.5q-46 0 -84.5 16t-68.5 49t-45 74.5t-15 92.5q0 56 16.5 102t50.5 82q33 35 80 53t108 18q48 0 88 -16.5t73 -49.5t49.5 -73.5t16.5 -88.5q0 -58 -18.5 -105t-55.5 -83t-84 -53.5t-104 -17.5v0v0zM264 436q-40 -2 -67 -16
t-42 -41t-22.5 -58t-7.5 -66v-15.5t1 -16.5q0 -8 1.5 -16.5t2.5 -16.5q5 -34 16.5 -64.5t30.5 -58.5q18 -28 46.5 -42t67.5 -14q34 0 58.5 14.5t40.5 42.5q15 29 23 60.5t8 66.5q0 48 -11 90t-32 78q-21 35 -49.5 53t-64.5 18v2v0zM174 657q11 -2 20 -5.5t16 -10.5t10.5 -16
t3.5 -20t-3.5 -20t-10.5 -16t-16 -10.5t-20 -3.5t-20 3.5t-16 10.5t-10.5 16t-3.5 20t3.5 20t10.5 16t16 10.5t20 3.5v2v0zM373 657q11 -2 20 -5.5t16 -10.5t10.5 -16t3.5 -20t-3.5 -20t-10.5 -16t-16 -10.5t-20 -3.5t-20 3.5t-16 10.5t-10.5 16t-3.5 20t3.5 20t10.5 16
t16 10.5t20 3.5v2v0z" />
    <glyph glyph-name="divide" unicode="&#xf7;" 
 />
    <glyph glyph-name="oslash" unicode="&#xf8;" horiz-adv-x="556" 
d="M16 0l67 64q-10 13 -18.5 29t-14.5 34q-6 17 -9 35t-4 37v3.5v2.5v2v2v1v2q0 56 17.5 101.5t51.5 81.5q35 36 81.5 54t104.5 18q21 0 41.5 -3.5t39.5 -11.5q19 -7 36 -17t32 -23l62 62l27 -25l-63 -61q12 -17 21.5 -34.5t16.5 -35.5q7 -19 10.5 -38.5t3.5 -40.5
q0 -58 -18.5 -105t-55.5 -83t-84 -53.5t-104 -17.5q-22 0 -42 3.5t-39 9.5q-19 5 -36 15.5t-34 26.5l-62 -58l-28 23v0v0zM404 327l-238 -232q10 -19 22.5 -34t28.5 -27t35.5 -17.5t43.5 -5.5q32 0 56.5 14t40.5 42q17 29 25 60.5t8 67.5v6.5v7.5q-1 3 -1 6.5v7.5
q-1 7 -1.5 14t-1.5 14q-1 9 -3.5 18.5t-4.5 19.5q-2 9 -4.5 18t-5.5 18v2v0zM150 130l238 232q-9 14 -21.5 27.5t-28.5 23.5q-16 11 -33.5 16t-35.5 5q-40 0 -67 -14t-42 -41t-22.5 -58t-7.5 -66v-8v-7q0 -4 0.5 -8t0.5 -8q0 -8 1.5 -16t2.5 -16q1 -9 2.5 -17t3.5 -16
t4 -15.5t5 -15.5v2v0z" />
    <glyph glyph-name="ugrave" unicode="&#xf9;" horiz-adv-x="603" 
d="M503 465v-363v-20t1 -17q0 -7 1.5 -13l2.5 -10q2 -4 4.5 -6t6.5 -4q4 -1 9 -2.5t12 -1.5l41 -1v-30h-3h-3q-2 1 -3.5 1h-3.5h-3h-3h-3.5h-3.5q-5 1 -10 1.5t-10 0.5h-4.5h-4.5h-5.5h-4.5h-4.5h-4.5h-4h-4h-7.5h-6.5h-7.5h-7.5q-7 0 -14 -0.5t-14 -1.5h-7.5h-6.5h-3t-3 -1
h-3.5h-3.5v2v1v1t1 2q0 9 0.5 19t1.5 20v10t1 11v12v12l-67 -60q-10 -11 -22.5 -18.5t-26.5 -10.5q-13 -5 -29 -7.5t-34 -2.5q-48 0 -77.5 11t-40.5 34t-17 48.5t-6 53.5v4.5v5.5v6v6v170q0 10 -0.5 20t-1.5 18t-2 13.5t-3 8.5t-5 5t-8 3q-4 2 -10 2.5t-14 0.5l-37 2v28
q1 -2 2 -2h2h0.5t1.5 1h0.5h0.5q17 2 34 5t33 7q17 5 31.5 9.5t27.5 9.5l6 2l6 2l3 1.5l3 1.5q1 0 2.5 0.5t2.5 1.5l9 -2v-295q0 -31 5 -54t15 -38q10 -16 32.5 -23.5t56.5 -7.5q19 0 37 6t34 19q17 13 29 27t19 29q1 2 1.5 4t1.5 5q1 2 1.5 4t1.5 4q0 2 0.5 4t0.5 5
q1 2 1 4v4v165q0 10 -0.5 20t-1.5 18t-2 13.5t-3 8.5t-5 5t-8 3q-4 2 -10 2.5t-14 0.5l-37 2v28q1 -2 2 -2h2h0.5t1.5 1h0.5h0.5q17 2 34 5t33 7q17 5 31.5 9.5t27.5 9.5l6 2l6 2l3 1.5l3 1.5q1 0 2.5 0.5t2.5 1.5l9 -2v0v0zM326 526l-144 90q-1 -1 -2.5 -0.5t-3.5 1.5
q-1 0 -1.5 0.5t-0.5 1.5q-1 0 -1.5 0.5l-1.5 1.5q-6 3 -10.5 7.5t-9.5 8.5q-4 5 -6.5 10.5t-2.5 12.5q0 8 2 14t6 11q5 5 11 7.5t14 2.5q3 0 6 -0.5t6 -2.5q3 -1 6 -2.5l7 -3.5l4.5 -4.5t5.5 -4.5q2 -1 3 -2t3 -2q1 -1 2.5 -2t2.5 -2t1.5 -2t1.5 -2t2 -1.5t2 -1.5l138 -136
h-40v0v0z" />
    <glyph glyph-name="uacute" unicode="&#xfa;" horiz-adv-x="603" 
d="M503 465v-363v-20t1 -17q0 -7 1.5 -13l2.5 -10q2 -4 4.5 -6t6.5 -4q4 -1 9 -2.5t12 -1.5l41 -1v-30h-3h-3q-2 1 -3.5 1h-3.5h-3h-3h-3.5h-3.5q-5 1 -10 1.5t-10 0.5h-4.5h-4.5h-5.5h-4.5h-4.5h-4.5h-4h-4h-7.5h-6.5h-7.5h-7.5q-7 0 -14 -0.5t-14 -1.5h-7.5h-6.5h-3t-3 -1
h-3.5h-3.5v2v1v1t1 2q0 9 0.5 19t1.5 20v10t1 11v12v12l-67 -60q-10 -11 -22.5 -18.5t-26.5 -10.5q-13 -5 -29 -7.5t-34 -2.5q-48 0 -77.5 11t-40.5 34t-17 48.5t-6 53.5v4.5v5.5v6v6v170q0 10 -0.5 20t-1.5 18t-2 13.5t-3 8.5t-5 5t-8 3q-4 2 -10 2.5t-14 0.5l-37 2v28
q1 -2 2 -2h2h0.5t1.5 1h0.5h0.5q17 2 34 5t33 7q17 5 31.5 9.5t27.5 9.5l6 2l6 2l3 1.5l3 1.5q1 0 2.5 0.5t2.5 1.5l9 -2v-295q0 -31 5 -54t15 -38q10 -16 32.5 -23.5t56.5 -7.5q19 0 37 6t34 19q17 13 29 27t19 29q1 2 1.5 4t1.5 5q1 2 1.5 4t1.5 4q0 2 0.5 4t0.5 5
q1 2 1 4v4v165q0 10 -0.5 20t-1.5 18t-2 13.5t-3 8.5t-5 5t-8 3q-4 2 -10 2.5t-14 0.5l-37 2v28q1 -2 2 -2h2h0.5t1.5 1h0.5h0.5q17 2 34 5t33 7q17 5 31.5 9.5t27.5 9.5l6 2l6 2l3 1.5l3 1.5q1 0 2.5 0.5t2.5 1.5l9 -2v0v0zM237 526l138 138q1 -1 1.5 -0.5l1.5 1.5l2 2l2 2
q2 2 4.5 4t5.5 4q2 1 3 2l3 3q1 1 2.5 2t2.5 2q2 1 3.5 1.5t3.5 1.5q1 1 3 1.5t3 1.5q3 2 6 2.5t6 0.5q8 0 14 -2.5t10 -7.5q5 -5 7 -11t2 -14q0 -7 -2 -12.5t-7 -10.5q-4 -4 -9.5 -8.5t-10.5 -7.5q-1 -1 -2.5 -2t-3.5 -2q-1 0 -1.5 -0.5l-0.5 -0.5l-1.5 -1.5t-1.5 -0.5
l-144 -88h-40v0v0z" />
    <glyph glyph-name="ucircumflex" unicode="&#xfb;" horiz-adv-x="603" 
d="M503 465v-363v-20t1 -17q0 -7 1.5 -13l2.5 -10q2 -4 4.5 -6t6.5 -4q4 -1 9 -2.5t12 -1.5l41 -1v-30h-3h-3q-2 1 -3.5 1h-3.5h-3h-3h-3.5h-3.5q-5 1 -10 1.5t-10 0.5h-4.5h-4.5h-5.5h-4.5h-4.5h-4.5h-4h-4h-7.5h-6.5h-7.5h-7.5q-7 0 -14 -0.5t-14 -1.5h-7.5h-6.5h-3t-3 -1
h-3.5h-3.5v2v1v1t1 2q0 9 0.5 19t1.5 20v10t1 11v12v12l-67 -60q-10 -11 -22.5 -18.5t-26.5 -10.5q-13 -5 -29 -7.5t-34 -2.5q-48 0 -77.5 11t-40.5 34t-17 48.5t-6 53.5v4.5v5.5v6v6v170q0 10 -0.5 20t-1.5 18t-2 13.5t-3 8.5t-5 5t-8 3q-4 2 -10 2.5t-14 0.5l-37 2v28
q1 -2 2 -2h2h0.5t1.5 1h0.5h0.5q17 2 34 5t33 7q17 5 31.5 9.5t27.5 9.5l6 2l6 2l3 1.5l3 1.5q1 0 2.5 0.5t2.5 1.5l9 -2v-295q0 -31 5 -54t15 -38q10 -16 32.5 -23.5t56.5 -7.5q19 0 37 6t34 19q17 13 29 27t19 29q1 2 1.5 4t1.5 5q1 2 1.5 4t1.5 4q0 2 0.5 4t0.5 5
q1 2 1 4v4v165q0 10 -0.5 20t-1.5 18t-2 13.5t-3 8.5t-5 5t-8 3q-4 2 -10 2.5t-14 0.5l-37 2v28q1 -2 2 -2h2h0.5t1.5 1h0.5h0.5q17 2 34 5t33 7q17 5 31.5 9.5t27.5 9.5l6 2l6 2l3 1.5l3 1.5q1 0 2.5 0.5t2.5 1.5l9 -2v0v0zM271 697h62l125 -167h-35l-121 103l-121 -103
h-35l125 167v0v0z" />
    <glyph glyph-name="udieresis" unicode="&#xfc;" horiz-adv-x="603" 
d="M503 465v-363v-20t1 -17q0 -7 1.5 -13l2.5 -10q2 -4 4.5 -6t6.5 -4q4 -1 9 -2.5t12 -1.5l41 -1v-30h-3h-3q-2 1 -3.5 1h-3.5h-3h-3h-3.5h-3.5q-5 1 -10 1.5t-10 0.5h-4.5h-4.5h-5.5h-4.5h-4.5h-4.5h-4h-4h-7.5h-6.5h-7.5h-7.5q-7 0 -14 -0.5t-14 -1.5h-7.5h-6.5h-3t-3 -1
h-3.5h-3.5v2v1v1t1 2q0 9 0.5 19t1.5 20v10t1 11v12v12l-67 -60q-10 -11 -22.5 -18.5t-26.5 -10.5q-13 -5 -29 -7.5t-34 -2.5q-48 0 -77.5 11t-40.5 34t-17 48.5t-6 53.5v4.5v5.5v6v6v170q0 10 -0.5 20t-1.5 18t-2 13.5t-3 8.5t-5 5t-8 3q-4 2 -10 2.5t-14 0.5l-37 2v28
q1 -2 2 -2h2h0.5t1.5 1h0.5h0.5q17 2 34 5t33 7q17 5 31.5 9.5t27.5 9.5l6 2l6 2l3 1.5l3 1.5q1 0 2.5 0.5t2.5 1.5l9 -2v-295q0 -31 5 -54t15 -38q10 -16 32.5 -23.5t56.5 -7.5q19 0 37 6t34 19q17 13 29 27t19 29q1 2 1.5 4t1.5 5q1 2 1.5 4t1.5 4q0 2 0.5 4t0.5 5
q1 2 1 4v4v165q0 10 -0.5 20t-1.5 18t-2 13.5t-3 8.5t-5 5t-8 3q-4 2 -10 2.5t-14 0.5l-37 2v28q1 -2 2 -2h2h0.5t1.5 1h0.5h0.5q17 2 34 5t33 7q17 5 31.5 9.5t27.5 9.5l6 2l6 2l3 1.5l3 1.5q1 0 2.5 0.5t2.5 1.5l9 -2v0v0zM202 657q11 -2 20 -5.5t16 -10.5t10.5 -16
t3.5 -20t-3.5 -20t-10.5 -16t-16 -10.5t-20 -3.5t-20 3.5t-16 10.5t-10.5 16t-3.5 20t3.5 20t10.5 16t16 10.5t20 3.5v2v0zM401 657q11 -2 20 -5.5t16 -10.5t10.5 -16t3.5 -20t-3.5 -20t-10.5 -16t-16 -10.5t-20 -3.5t-20 3.5t-16 10.5t-10.5 16t-3.5 20t3.5 20t10.5 16
t16 10.5t20 3.5v2v0z" />
    <glyph glyph-name="yacute" unicode="&#xfd;" 
 />
    <glyph glyph-name="thorn" unicode="&#xfe;" horiz-adv-x="601" 
d="M81 -176v796q0 7 -1 14t-3 13t-7.5 9t-13.5 3l-56 2v28q10 0 20 1.5t20 2.5q9 2 19 4l20 4q20 4 39 10t38 13l9 -6v-347h2l53 54q7 6 16 12t21 11t24.5 9t25.5 7q4 0 8.5 0.5t8.5 1.5h4t5 1h4h4q40 0 75 -14t66 -42t46.5 -65t15.5 -83q0 -7 -0.5 -13.5t-1.5 -13.5
q-1 -4 -1.5 -7.5t-0.5 -6.5q-1 -4 -1.5 -7.5t-1.5 -6.5q-4 -19 -11.5 -38t-17.5 -37t-20.5 -31t-22.5 -22l-100 -70q-2 -3 -4 -4.5t-4 -2.5q-3 -2 -5 -2.5t-4 -0.5q-4 -2 -8 -3.5t-8 -2.5q-8 -2 -15.5 -3.5t-15.5 -1.5h-7.5t-6.5 -1h-7h-6q-7 0 -14 0.5t-15 2.5
q-8 1 -16 2.5t-16 3.5q-3 1 -6 1.5t-6 1.5q-4 0 -7 0.5t-6 1.5l-12 4t-11 5v-187v-19t1 -16q0 -8 1.5 -13.5t2.5 -9.5q2 -3 4.5 -6t6.5 -4q4 -2 9 -2.5t12 -1.5l46 -3v-30h-4.5h-4.5q-3 1 -5.5 1h-4.5h-4.5h-4.5h-5.5h-4.5q-10 1 -20 1.5t-21 0.5h-22h-24h-23.5h-22.5
t-21.5 -0.5t-19.5 -1.5h-10h-10h-4.5t-4.5 -1h-4h-3l-2 30l46 3q6 1 11.5 1.5t9.5 2.5q4 1 7 4t4 6q2 4 2.5 9.5t1.5 13.5v8t1 8v9.5v9.5v0v0zM165 301v-203q14 -18 30 -30t34 -18q17 -7 36.5 -10t41.5 -3q30 0 56.5 12t48.5 37q23 24 34 61t11 86q0 35 -9.5 65t-29.5 55
q-19 24 -48.5 36.5t-68.5 12.5q-21 0 -39 -4.5t-32 -12.5t-25 -17t-19 -18q-3 -3 -5 -6l-4 -6t-3.5 -6t-3.5 -6q-2 -4 -3.5 -7.5t-1.5 -6.5v-3v-3v-3.5v-3.5v2v0z" />
    <glyph glyph-name="ydieresis" unicode="&#xff;" horiz-adv-x="556" 
d="M297 86l119 292q1 1 1.5 2.5t0.5 3.5q1 1 1.5 3t0.5 3q1 3 1.5 5.5t0.5 4.5q0 7 -3 12t-8 8q-6 3 -13.5 4.5t-17.5 2.5l-26 4v28q4 -2 8 -2.5t8 -0.5h8h8h2h2q1 -1 2 -1h2h4h4h5.5h5.5q3 -1 6 -1h6h12h12h12h12h6t6 1h6h6h3.5h3.5h2t2 1h2h2h8h8h4t4 1h4h4v-26l-28 -2
q-1 -2 -2 -2.5t-2 -0.5h-1.5h-0.5q-1 -1 -1.5 -1h-0.5q-8 -3 -16.5 -11t-17.5 -22q-9 -13 -19.5 -35t-22.5 -51l-203 -466q-12 -27 -26 -49.5t-31 -39.5q-16 -17 -39.5 -25.5t-55.5 -8.5h-2h-2q-2 1 -3 1h-2h-2h-2q-1 1 -2 1h-2q-2 1 -4 1.5t-4 0.5q-2 1 -4 1.5t-4 1.5
q-4 1 -7 2.5t-6 3.5h-0.5h-0.5l-1 1v0h-0.5h-0.5l-1 1v0l24 75h13q2 -2 5 -4.5t7 -5.5q4 -2 8 -4.5t8 -3.5q2 0 3 -0.5l3 -1.5q1 0 2.5 -0.5t2.5 -0.5q2 0 3 -0.5t3 -0.5q1 -1 2.5 -1h2.5v0v0v0h1v0v0v0v0q15 1 28 8t23 19q11 13 20 26.5t16 27.5q3 7 6 13.5t6 12.5
q3 7 5.5 13t4.5 11l23 61q-1 4 -2.5 7.5t-2.5 6.5q-2 4 -3 7t-3 6q-1 3 -2.5 6.5t-2.5 7.5q-2 3 -3 6.5t-3 7.5q-1 3 -2.5 6t-2.5 7q-2 3 -3 6l-2 6t-2.5 6t-2.5 7q-2 3 -3 6l-2 6l-2 4t-1 5l-2 4l-2 4t-2 4.5t-1 4.5q-1 2 -2 4.5t-2 4.5l-109 264q-1 0 -1.5 1t-0.5 3
q-1 1 -1.5 2t-1.5 2q-1 2 -2 4.5t-2 4.5q-5 8 -10 14t-10 9t-11 4.5t-12 2.5l-18 4v28q2 -1 4.5 -1.5t5.5 -0.5q2 -1 4.5 -1h4.5h10h10h2h3q1 -1 2 -1h2h4.5h5.5h6.5h7.5q3 -1 6.5 -1h7.5h15.5h14.5h7.5h7.5h6.5h7.5h7.5t7.5 1h6.5h7.5h4.5h4.5h2t3 1h2.5h2.5h4.5h5.5h4.5
h4.5h4.5t5.5 1h4.5h5.5v-26l-38 -2q-7 -2 -13 -4t-11 -4q-5 -3 -7.5 -8t-1.5 -13q0 -4 0.5 -8t1.5 -9q2 -4 3.5 -9.5t3.5 -11.5l64 -166q5 -16 11 -30l12 -28q6 -13 13 -26.5t15 -27.5v2v0zM179 657q11 -2 20 -5.5t16 -10.5t10.5 -16t3.5 -20t-3.5 -20t-10.5 -16t-16 -10.5
t-20 -3.5t-20 3.5t-16 10.5t-10.5 16t-3.5 20t3.5 20t10.5 16t16 10.5t20 3.5v2v0zM378 657q11 -2 20 -5.5t16 -10.5t10.5 -16t3.5 -20t-3.5 -20t-10.5 -16t-16 -10.5t-20 -3.5t-20 3.5t-16 10.5t-10.5 16t-3.5 20t3.5 20t10.5 16t16 10.5t20 3.5v2v0z" />
    <glyph glyph-name="Abreve" unicode="&#x102;" 
 />
    <glyph glyph-name="abreve" unicode="&#x103;" 
 />
    <glyph glyph-name="Aogonek" unicode="&#x104;" 
 />
    <glyph glyph-name="aogonek" unicode="&#x105;" 
 />
    <glyph glyph-name="Cacute" unicode="&#x106;" 
 />
    <glyph glyph-name="cacute" unicode="&#x107;" 
 />
    <glyph glyph-name="Ccaron" unicode="&#x10c;" 
 />
    <glyph glyph-name="ccaron" unicode="&#x10d;" 
 />
    <glyph glyph-name="Dcaron" unicode="&#x10e;" 
 />
    <glyph glyph-name="dcaron" unicode="&#x10f;" 
 />
    <glyph glyph-name="Dslash" unicode="&#x110;" 
 />
    <glyph glyph-name="dslash" unicode="&#x111;" 
 />
    <glyph glyph-name="Eogonek" unicode="&#x118;" 
 />
    <glyph glyph-name="eogonek" unicode="&#x119;" 
 />
    <glyph glyph-name="Ecaron" unicode="&#x11a;" 
 />
    <glyph glyph-name="ecaron" unicode="&#x11b;" 
 />
    <glyph glyph-name="Gbreve" unicode="&#x11e;" 
 />
    <glyph glyph-name="gbreve" unicode="&#x11f;" 
 />
    <glyph glyph-name="Idot" unicode="&#x130;" 
 />
    <glyph glyph-name="dotlessi" unicode="&#x131;" horiz-adv-x="287" 
d="M188 465v-363v-20t1 -17q0 -7 1.5 -13l2.5 -10q2 -4 4.5 -6t6.5 -4q4 -1 9 -2.5t12 -1.5l46 -1v-30h-4.5h-4.5q-3 1 -5.5 1h-4.5h-4.5h-4.5h-5.5h-4.5q-10 1 -20 1.5t-21 0.5h-22h-24h-23.5h-22.5t-21.5 -0.5t-19.5 -1.5h-10h-10h-4.5t-4.5 -1h-4.5h-4.5v30l46 3
q6 -1 11.5 0t9.5 2q4 2 7 4t4 6q2 4 2.5 10t1.5 13v8t1 8v9v10v227q0 10 -0.5 20t-1.5 18t-2 13.5t-3 8.5t-5 5t-8 3q-4 2 -10 2.5t-14 0.5l-37 2v28q1 -2 2 -2h2h0.5t1.5 1h0.5h0.5q17 2 34 5t33 7q17 5 31.5 9.5t27.5 9.5l6 2l6 2l3 1.5l3 1.5q1 0 2.5 0.5t2.5 1.5l9 -2v0
v0z" />
    <glyph glyph-name="Lacute" unicode="&#x139;" 
 />
    <glyph glyph-name="lacute" unicode="&#x13a;" 
 />
    <glyph glyph-name="Lcaron" unicode="&#x13d;" 
 />
    <glyph glyph-name="lcaron" unicode="&#x13e;" 
 />
    <glyph glyph-name="Ldot" unicode="&#x13f;" 
 />
    <glyph glyph-name="ldot" unicode="&#x140;" 
 />
    <glyph glyph-name="Lslash" unicode="&#x141;" horiz-adv-x="611" 
d="M121 330v239q0 13 -0.5 24.5t-1.5 21.5q-1 9 -3 16t-4 11t-5.5 7t-8.5 4q-5 2 -12 2.5t-16 1.5l-48 5v30q14 -2 27.5 -3t26.5 -1h12.5h13.5q6 -1 12.5 -1h13.5h10.5h10.5h10.5h10.5h34.5t35.5 1q18 0 37 0.5t38 1.5v-28l-48 -3q-4 -2 -8.5 -2.5t-7.5 -0.5q-4 -1 -7 -1.5
t-5 -1.5q-4 -1 -8 -4t-6 -7q-3 -4 -4.5 -11t-2.5 -16q-1 -10 -1.5 -22t-0.5 -26v-179l138 84l16 -32l-154 -94v-299q3 -2 6.5 -3.5t7.5 -1.5q3 -1 6.5 -1.5t7.5 -0.5l14 -2t14 -1h14.5h13.5h17h19h18.5t19.5 1q25 0 48.5 1.5t45.5 3.5t35.5 5.5t17.5 7.5q2 2 4.5 5.5
t3.5 9.5l2 6l2 6q0 3 1 6l2 6q0 2 0.5 3.5t1.5 3.5q0 1 0.5 3t0.5 3q1 3 1.5 6t1.5 6l12 52h32q-1 -5 -1.5 -10t-0.5 -9q-1 -5 -1.5 -9.5t-0.5 -9.5l-2 -18l-2 -18q-1 -13 -2.5 -26.5t-3.5 -26.5l-2 -12t-1 -12q-1 -6 -2 -11.5t-2 -9.5h-12h-13h-6.5t-7.5 -1h-7.5h-7.5
h-13.5t-13.5 -1h-14h-15h-14.5t-14.5 -1h-15h-15h-7.5h-6.5h-7.5h-6.5h-11.5h-10.5q-5 1 -10.5 1h-10.5h-20.5h-19.5q-19 1 -36.5 1.5t-34.5 0.5h-32.5h-31.5h-16.5h-15.5q-7 0 -14 -0.5t-13 -1.5h-5.5h-4.5h-4t-4 -1h-2h-2h-2h-2v23l31 16q6 2 11 7.5t8 13.5t4.5 17t1.5 19
v195l-99 -60l-16 32l115 70v0v0z" />
    <glyph glyph-name="lslash" unicode="&#x142;" horiz-adv-x="291" 
d="M104 390v230q0 7 -1 14t-3 13t-7.5 9t-13.5 3l-56 2v28q10 0 20 1.5t20 2.5q9 2 19 4l20 4q20 4 39 10t38 13l9 -6v-277l103 63l15 -32l-118 -72v-298v-20t1 -17q0 -7 1.5 -13l2.5 -10q2 -4 4.5 -6t6.5 -4q4 -1 9 -2.5t12 -1.5l46 -1v-30h-4.5h-4.5q-3 1 -5.5 1h-4.5
h-4.5h-4.5h-5.5h-4.5q-10 1 -20 1.5t-21 0.5h-22h-24h-23.5h-22.5t-21.5 -0.5t-19.5 -1.5h-10h-10h-4.5t-4.5 -1h-4.5h-4.5v30l46 3q6 -1 11.5 0t9.5 2q4 2 7 4t4 6q2 4 2.5 10t1.5 13v8t1 8v9v10v248l-102 -62l-16 32l118 72v0v0z" />
    <glyph glyph-name="Nacute" unicode="&#x143;" 
 />
    <glyph glyph-name="nacute" unicode="&#x144;" 
 />
    <glyph glyph-name="Ncaron" unicode="&#x147;" 
 />
    <glyph glyph-name="ncaron" unicode="&#x148;" 
 />
    <glyph glyph-name="Odblacute" unicode="&#x150;" 
 />
    <glyph glyph-name="odblacute" unicode="&#x151;" 
 />
    <glyph glyph-name="OE" unicode="&#x152;" horiz-adv-x="998" 
d="M22 341q0 81 26 147t78 117q53 51 119.5 76.5t148.5 25.5q11 0 21.5 -0.5t20.5 -1.5q5 -1 10.5 -1.5t10.5 -0.5q5 -1 10.5 -1.5t10.5 -1.5t9.5 -1.5t8.5 -0.5q5 -1 9.5 -1.5t8.5 -0.5q4 -1 7.5 -1.5t7.5 -0.5q2 0 3.5 -0.5t3.5 -0.5q1 -1 3 -1h3t1.5 -0.5t1.5 -0.5
q0 -1 0.5 -1h1.5h3.5h2.5q3 -1 6.5 -1.5t7.5 -0.5q3 -1 6.5 -1h7.5h8h8h4h5h4h4h24h24t24 0.5t24 1.5h30h28h13.5t12.5 1h12h11h16.5h17.5q8 -1 16.5 -1h16.5q17 0 32 -0.5t30 -1.5q-3 -12 -5.5 -24t-4.5 -25q-1 -7 -1.5 -13.5t-1.5 -12.5q0 -7 -0.5 -13.5t-0.5 -13.5
q-1 -7 -1.5 -13.5t-0.5 -12.5v-12v-12l-35 2v65q0 4 -0.5 7.5t-1.5 7.5t-2.5 6.5t-4.5 3.5q-10 4 -22 7t-25 5t-25.5 3.5t-26.5 2.5q-12 1 -24 1.5t-23 0.5h-11t-11 1h-10h-10h-6.5h-7.5q-3 -1 -6.5 -1h-7.5q-7 0 -14 -0.5t-14 -1.5q-4 -1 -7.5 -1.5t-6.5 -0.5
q-4 -1 -7.5 -1.5t-6.5 -1.5v-265q12 -2 25 -3t26 -1q14 -1 28 -1h29q23 0 41 1t31 2q13 2 21.5 3.5t12.5 4.5q2 2 3 4t2 5t1.5 7.5t1.5 9.5l5 54h30v-7v-5q-1 -3 -1 -5.5v-4.5v-10v-10q-1 -10 -1.5 -20t-0.5 -19v-9v-9v-9.5v-9.5v-4.5v-4.5v-5.5v-4.5v-8.5t1 -9.5v-9.5v-9.5
v-8.5t1 -9.5v-9.5v-9.5v-4.5t1 -4.5v-4.5v-4.5l-30 2l-5 59q-1 4 -1.5 7.5t-1.5 6.5t-2 5.5t-3 3.5q-4 3 -12.5 5.5t-21.5 3.5q-13 2 -31 2.5t-41 0.5h-14.5h-15.5q-7 -1 -14 -1h-14q-13 0 -26 -0.5t-24 -1.5v-278q3 -2 6.5 -3.5t7.5 -1.5q3 -1 6.5 -1.5t7.5 -0.5l14 -2
t14 -1h14.5h13.5h14.5h14.5h15.5t14.5 1q23 0 44.5 1t40.5 2q20 2 32.5 4t17.5 5t10.5 12t9.5 24q5 15 8.5 34.5t6.5 41.5l35 2q-3 -13 -5 -25.5t-4 -26.5q-1 -7 -1.5 -13.5t-1.5 -12.5q-1 -7 -1.5 -13.5t-0.5 -13.5q0 -4 -0.5 -8t-0.5 -7q-1 -4 -1 -8v-8v-14.5v-13.5h-12
h-13h-6.5t-7.5 -1h-7.5h-7.5h-13.5t-13.5 -1h-14h-15h-14.5t-14.5 -1h-15h-15h-7.5h-6.5h-7.5h-6.5h-7.5h-7.5h-7.5h-7.5q-4 1 -7.5 1h-6.5h-7.5h-6.5q-31 0 -59 -1.5t-53 -2.5q-25 -2 -47.5 -3.5t-43.5 -4.5q-7 -1 -14.5 -1.5t-15.5 -1.5q-7 0 -14.5 -0.5t-15.5 -1.5h-5.5
t-4.5 -1h-5.5h-4.5h-10h-10q-78 0 -143 23t-118 71q-52 48 -78.5 114t-26.5 151v2v0zM519 139v399v9v10q-1 5 -1 9.5v8.5q0 8 -0.5 16.5t-1.5 16.5q0 1 -0.5 1.5t-0.5 1.5q-1 0 -1 0.5v1.5v3.5v2.5q-7 8 -16 14t-20 10q-10 5 -21.5 8.5t-22.5 6.5q-7 1 -13.5 1.5t-12.5 1.5
t-12 1.5t-12 0.5q-61 0 -109 -19t-83 -57t-52.5 -92t-17.5 -124q0 -71 17 -132.5t51 -113.5q35 -52 85 -77.5t117 -25.5q5 0 11 0.5t13 1.5t14.5 2.5t14.5 2.5q5 1 9 2t9 2q4 1 8.5 2.5t8.5 2.5q4 2 8 3t7 3q3 1 6 2.5t6 2.5q1 0 2 0.5t2 1.5l1.5 1.5l1.5 1.5v1.5v1.5v0.5
v1.5q0 2 0.5 3.5t1.5 2.5q1 8 1.5 16t0.5 17v8.5t1 9.5v10v11v2v0z" />
    <glyph glyph-name="oe" unicode="&#x153;" horiz-adv-x="827" 
d="M617 230h-146q0 -46 11 -82t33 -63q23 -27 57 -40.5t80 -13.5q13 0 25 1.5t24 5.5q11 4 22.5 9t22.5 12l8 4t8 5q4 2 8 4.5t8 5.5l14 -8l-20 -34q-1 -4 -4.5 -7t-9.5 -6q-6 -4 -13.5 -7.5t-15.5 -8.5q-4 -2 -9 -3.5t-10 -3.5q-5 -1 -10.5 -2.5t-10.5 -3.5l-22 -6t-22 -5
q-4 0 -8.5 -0.5t-9.5 -1.5h-4.5t-4.5 -1h-4h-4q-28 0 -52 5.5t-45 14.5q-21 11 -40.5 27t-37.5 38q-19 -22 -39.5 -38t-42.5 -27q-22 -9 -45 -14.5t-47 -5.5q-48 0 -88.5 16t-73.5 49q-34 33 -50.5 80t-16.5 108q0 55 17.5 98t53.5 74q35 31 77 46.5t91 15.5q26 0 50 -5
t45 -14t40.5 -23t38.5 -34q11 11 21.5 19.5t20.5 15.5q5 4 10 7.5t11 6.5q5 3 10 5.5t10 4.5q9 5 19 8t20 5q11 2 21.5 3t21.5 1q41 0 75 -12.5t61 -36.5q27 -25 40.5 -58.5t13.5 -75.5v-10.5v-10.5t-0.5 -10.5t-1.5 -10.5q-11 -2 -22.5 -3.5t-22.5 -3.5q-12 -1 -23 -2
l-22 -2q-12 -1 -23.5 -1.5t-22.5 -0.5q-11 -1 -22.5 -1h-22.5v2v0zM251 436q-33 -2 -57 -14t-39 -35t-22.5 -53.5t-7.5 -68.5q0 -55 10 -100.5t30 -81.5t48 -54t64 -18q35 0 59.5 14t38.5 42q14 29 21 62t7 71v8v8q-1 4 -1 8.5v8.5q-1 8 -1.5 17t-2.5 18q-4 31 -14.5 59.5
t-27.5 54.5q-16 26 -42.5 39t-62.5 13v2v0zM615 436q-34 -2 -60 -12.5t-45 -31.5t-28 -52t-9 -72q17 -2 33.5 -3.5t32.5 -1.5q8 0 16 -0.5t17 -0.5h16h16h28.5t28.5 1q14 0 28 0.5t28 1.5v1.5v1.5v2v2v1v2v1.5v1.5q0 32 -8 60t-23 50q-16 23 -33.5 34.5t-37.5 11.5v2v0z" />
    <glyph glyph-name="Racute" unicode="&#x154;" 
 />
    <glyph glyph-name="racute" unicode="&#x155;" 
 />
    <glyph glyph-name="Rcaron" unicode="&#x158;" 
 />
    <glyph glyph-name="rcaron" unicode="&#x159;" 
 />
    <glyph glyph-name="Sacute" unicode="&#x15a;" 
 />
    <glyph glyph-name="sacute" unicode="&#x15b;" 
 />
    <glyph glyph-name="Scedilla" unicode="&#x15e;" 
 />
    <glyph glyph-name="scedilla" unicode="&#x15f;" 
 />
    <glyph glyph-name="Scaron" unicode="&#x160;" horiz-adv-x="525" 
d="M447 526h-32l-6 57q-1 4 -1.5 8.5t-2.5 8.5q-1 5 -3 8.5t-5 7.5l-6 6t-7 6t-8.5 6l-10.5 7q-9 5 -19 9t-22 7q-6 2 -12 3t-11 2q-6 0 -12 1t-12 1h-2.5t-2.5 1h-3h-3h-5.5h-4.5h-2.5h-2.5q-2 -1 -3 -1h-2h-5.5h-4.5q-24 -3 -46 -13.5t-42 -28.5t-30 -44t-10 -59
q0 -25 8.5 -46t26.5 -36q18 -16 50.5 -26.5t79.5 -15.5q53 -6 95 -17t73 -28q31 -16 46.5 -46t15.5 -73q0 -63 -23 -109.5t-68 -77.5q-46 -31 -96 -47t-104 -17h-1.5h-0.5h-1.5h-1.5h-2.5h-3.5q-21 0 -40.5 2t-39.5 7q-10 2 -18.5 4t-16.5 4q-9 3 -16 4.5t-14 3.5
q-2 1 -4 1.5t-4 1.5q-2 0 -3.5 0.5t-3.5 1.5q-3 2 -6 3.5l-5 2.5q1 5 1.5 10t1.5 10v4.5t1 5.5q0 2 0.5 4.5t0.5 4.5q0 10 0.5 20t1.5 20v19.5v18.5v9.5v8.5v9.5v8.5l32 2l8 -67q2 -17 15.5 -31.5t38.5 -26.5t52 -18t57 -6q34 0 64.5 10t58.5 30t42 48.5t14 65.5
q0 35 -12.5 60t-37.5 38q-25 14 -56.5 23t-69.5 13q-59 7 -101 20.5t-68 32.5q-25 20 -37.5 49.5t-12.5 68.5q0 52 17 91.5t51 66.5t71.5 43.5t78.5 22.5h4.5t4.5 1h4.5h5.5h4.5t5.5 1h4.5h4.5q21 0 40.5 -2t37.5 -7q18 -4 34 -8.5t30 -9.5q5 -2 10.5 -4t9.5 -4q2 -1 4.5 -2
t5.5 -2q2 -1 4.5 -1.5t4.5 -1.5q-3 -13 -4.5 -25t-3.5 -24q-1 -12 -2.5 -23.5t-2.5 -22.5v-6v-5q-1 -3 -1 -6v-6v-6v-5v-6v-6v2v0zM263 805l122 103h34l-125 -167h-62l-125 167h35l121 -103v0v0z" />
    <glyph glyph-name="scaron" unicode="&#x161;" horiz-adv-x="424" 
d="M41 143h30v-41q0 -21 7.5 -36t23.5 -25t33.5 -16t36.5 -8q3 -1 6.5 -1.5t7.5 -0.5h6.5h7.5q23 0 43.5 6t38.5 19q17 13 26 29.5t9 36.5q0 12 -3.5 22.5t-9.5 19.5t-15 15t-20 9q-10 2 -21 4.5t-22 5.5q-12 3 -23.5 6t-22.5 6q-7 2 -14.5 4t-15.5 4q-7 2 -14 4.5t-14 5.5
q-18 7 -33.5 16.5t-27.5 21.5t-18 30t-6 41q0 41 14.5 69t44.5 44q29 17 61.5 25t67.5 8q17 0 34 -2t33 -5q17 -4 32 -8.5t30 -9.5q-1 -7 -1.5 -14t-0.5 -13q-1 -7 -1 -14v-14q-1 -14 -1.5 -28.5t-0.5 -29.5l-28 2v23q0 17 -9 32t-26 25q-17 11 -36 16.5t-39 6.5h-2h-2h-1.5
h-0.5q-25 0 -42.5 -4.5t-28.5 -13.5q-10 -9 -16.5 -19t-8.5 -21q-1 -3 -1.5 -6t-0.5 -6v-2.5v-2.5v-3v-3q0 -16 6.5 -29t19.5 -22t34 -16t49 -12q44 -7 77 -17.5t55 -24.5q21 -13 32 -35t11 -51q0 -41 -17 -72.5t-52 -52.5q-34 -20 -72.5 -30.5t-79.5 -10.5h-8h-8q-4 1 -8 1
h-8q-8 1 -15.5 1.5t-15.5 2.5q-10 1 -19.5 3t-18.5 4q-5 1 -10 2.5t-9 2.5q-5 2 -10 3l-10 2q3 13 5 26.5t3 27.5t1.5 28t1.5 29v6.5v7.5v6.5v7.5v2v0zM213 582l122 103h34l-125 -167h-62l-125 167h35l121 -103v0v0z" />
    <glyph glyph-name="Tcedilla" unicode="&#x162;" 
 />
    <glyph glyph-name="tcedilla" unicode="&#x163;" 
 />
    <glyph glyph-name="Tcaron" unicode="&#x164;" 
 />
    <glyph glyph-name="tcaron" unicode="&#x165;" 
 />
    <glyph glyph-name="Uring" unicode="&#x16e;" 
 />
    <glyph glyph-name="uring" unicode="&#x16f;" 
 />
    <glyph glyph-name="udblacute" unicode="&#x170;" 
 />
    <glyph glyph-name="Udblacute" unicode="&#x171;" 
 />
    <glyph glyph-name="Ydieresis" unicode="&#x178;" horiz-adv-x="667" 
d="M220 602l143 -261l103 163q15 22 29 45t27 47q14 24 26.5 48t25.5 48l80 2v-15q-10 -13 -20.5 -26t-21.5 -27t-22.5 -28.5t-22.5 -29.5l-6 -8t-5 -7l-6 -8l-6 -8q-6 -7 -11.5 -14.5t-10.5 -15.5q-18 -26 -35 -51.5t-32 -49.5q-16 -25 -27.5 -46t-19.5 -38
q-4 -10 -7 -19.5t-5 -18.5q-1 -10 -1.5 -19t-0.5 -18v-127q0 -16 0.5 -28t1.5 -22t2.5 -16.5t4.5 -10.5q2 -4 6 -6.5t8 -4.5q5 -1 12 -2.5t16 -1.5l48 -1v-30q-19 1 -38 1.5t-37 0.5q-18 1 -35.5 1h-34.5h-10.5h-10.5h-10.5h-10.5h-13.5t-12.5 -1h-13.5h-12.5
q-13 0 -26.5 -0.5t-27.5 -1.5v30l48 3q9 -1 16 0t12 2q5 2 8.5 4.5t5.5 6.5t4 10.5t3 16.5t1.5 22t0.5 26v144q0 4 -0.5 9.5t-1.5 10.5t-3 9.5t-4 8.5l-124 218q-19 32 -38 56.5t-36 39.5q-18 15 -31.5 23t-22.5 9l-29 5v29l115 24v-1.5t1 -0.5v0v0h0.5t1.5 1v0h1v0v0v0h1v0
v0q5 -1 10.5 -3t9.5 -6q5 -4 9.5 -8.5t8.5 -9.5q1 -1 2 -2.5t2 -3.5l1.5 -1.5t1.5 -0.5q0 -1 0.5 -1.5l1.5 -1.5l1.5 -1.5l1.5 -1.5q0 -1 0.5 -1.5l1.5 -1.5q0 -1 0.5 -2t1.5 -1q1 -1 1.5 -2t1.5 -2l4 -6t5 -6q2 -4 4 -7l4 -6t4 -6.5t5 -6.5q2 -4 4 -7.5t4 -6.5v2v0z
M258 868q11 -2 20 -5.5t16 -10.5t10.5 -16t3.5 -20t-3.5 -20t-10.5 -16t-16 -10.5t-20 -3.5t-20 3.5t-16 10.5t-10.5 16t-3.5 20t3.5 20t10.5 16t16 10.5t20 3.5v2v0zM457 868q11 -2 20 -5.5t16 -10.5t10.5 -16t3.5 -20t-3.5 -20t-10.5 -16t-16 -10.5t-20 -3.5t-20 3.5
t-16 10.5t-10.5 16t-3.5 20t3.5 20t10.5 16t16 10.5t20 3.5v2v0z" />
    <glyph glyph-name="Zacute" unicode="&#x179;" 
 />
    <glyph glyph-name="zacute" unicode="&#x17a;" 
 />
    <glyph glyph-name="Zdot" unicode="&#x17b;" 
 />
    <glyph glyph-name="zdot" unicode="&#x17c;" 
 />
    <glyph glyph-name="Zcaron" unicode="&#x17d;" 
 />
    <glyph glyph-name="zcaron" unicode="&#x17e;" 
 />
    <glyph glyph-name="florin" unicode="&#x192;" horiz-adv-x="500" 
d="M311 364l-72 -348q-1 -5 -2 -9t-1 -7l-2 -8l-2 -8q-2 -8 -4.5 -16.5t-4.5 -16.5q-13 -40 -32 -76.5t-45 -69.5t-62.5 -50t-83.5 -17q1 4 2 9t2 9q0 5 1 9.5t2 9.5l2 10t2 9q0 5 1 10l2 10v2v1v2v2v1.5t1 1.5v1.5v1.5l11 7q4 -5 9 -8t11 -6t12 -4.5t13 -1.5q11 0 19 3.5
t15 10.5t13 21t12 35q1 3 2 6.5t2 7.5q0 4 1 7.5t2 7.5q2 8 4 17l4 18l80 416q-13 -2 -26.5 -3t-27.5 -2q-13 -1 -26.5 -1.5t-27.5 -0.5v1.5v1.5v0.5v1.5v1.5t1 1.5l0.5 0.5t0.5 1.5v4.5t1 5.5q1 2 1.5 5t1.5 6q0 2 0.5 4.5t1.5 5.5q0 3 0.5 6t1.5 6q7 -1 13.5 -1.5
t13.5 -0.5h13h14h6h7q3 -1 6.5 -1h6.5h6.5h7.5q3 -1 6.5 -1h6.5q2 6 3.5 12t2.5 12q1 3 1.5 6t1.5 7q1 3 1.5 6t1.5 6q5 20 12 39.5t14 38.5q8 19 17 37t20 34q14 21 31.5 39t37.5 32t43.5 21t51.5 8q-3 -10 -5 -21.5t-4 -23.5q-1 -6 -1.5 -12t-1.5 -11q-1 -6 -1.5 -12
t-0.5 -12l-10 -6q-1 -1 -2.5 0.5t-3.5 2.5q-1 1 -2 1.5t-1 1.5q-1 1 -2 1.5t-2 1.5q-3 2 -6.5 4.5t-8.5 4.5q-4 2 -9 3t-11 1q-14 0 -23.5 -5t-14.5 -14q-5 -10 -9 -23t-7 -30l-27 -148q2 -1 4 -1h5h4h4h9.5h8.5h2t3 1h2h2h4h5h12.5h13.5q6 0 12.5 0.5t13.5 1.5
q-1 -2 -1.5 -4t-0.5 -4v-2v-1q-1 -1 -1 -2v-2q-1 -6 -2 -11.5t-2 -10.5t-1.5 -9.5t-0.5 -7.5q-11 1 -23 1.5t-26 1.5q-13 1 -27.5 1.5t-28.5 1.5v2v0z" />
    <glyph glyph-name="hungarumlaut" unicode="&#x2ba;" horiz-adv-x="380" 
d="M3 506l128 148v-1h1v0v0v0l1 1v0.5v0.5q2 2 3.5 3t2.5 3q2 1 3.5 2.5t3.5 2.5q2 2 3.5 3t3.5 3q1 1 3 2.5t4 2.5t3.5 1.5t3.5 1.5q1 0 3 0.5t3 1.5l3 1.5t3 0.5q1 1 2.5 1h2.5q8 0 14 -2.5t10 -7.5q5 -5 7 -11t2 -14q0 -6 -2 -11t-7 -10q-4 -5 -8.5 -9.5t-9.5 -8.5
l-1.5 -1.5t-1.5 -0.5l-1.5 -1.5l-1.5 -1.5t-2.5 -2t-3.5 -2l-135 -96h-40v0v0zM163 506l128 148v-1h1v0v0v0l1 1v0.5v0.5q2 2 3.5 3t2.5 3q2 1 3.5 2.5t3.5 2.5q2 2 3.5 3t3.5 3q1 1 3 2.5t4 2.5t3.5 1.5t3.5 1.5q1 0 3 0.5t3 1.5l3 1.5t3 0.5q1 1 2.5 1h2.5q8 0 14 -2.5
t10 -7.5q5 -5 7 -11t2 -14q0 -6 -2 -11t-7 -10q-4 -5 -8.5 -9.5t-9.5 -8.5l-1.5 -1.5t-1.5 -0.5l-1.5 -1.5l-1.5 -1.5t-2.5 -2t-3.5 -2l-135 -96h-40v0v0z" />
    <glyph glyph-name="tilde" unicode="&#x2c6;" horiz-adv-x="333" 
d="M303 640h29q0 -6 -1 -12t-3 -12q-2 -7 -5 -13.5t-7 -13.5q-1 -1 -1.5 -2t-0.5 -2q-1 -1 -1.5 -2t-1.5 -2t-1.5 -2l-0.5 -1q-1 -1 -1.5 -2t-1.5 -2q-7 -8 -15 -15.5t-18 -13.5t-21.5 -9t-25.5 -3q-9 0 -16.5 1t-13.5 2q-6 2 -12 3.5t-11 4.5q-2 1 -4.5 2t-4.5 2
q-3 1 -5.5 2.5t-4.5 2.5q-4 2 -9.5 4.5t-11.5 5.5h-1.5t-0.5 1q-1 0 -1.5 0.5t-1.5 0.5q-1 1 -2.5 1.5t-3.5 1.5t-4.5 2t-4.5 2q-3 1 -5.5 1.5t-4.5 1.5q-3 0 -5.5 0.5t-4.5 1.5h-2.5t-2.5 1h-2h-2q-10 0 -18.5 -3.5t-14.5 -10.5q-7 -7 -12 -14.5t-8 -16.5l-29 2q4 20 13 38
t22 32q14 14 32.5 21t41.5 7q8 0 16.5 -1.5t16.5 -4.5q4 -1 8 -3t8 -3q3 -2 7 -3.5t8 -3.5q2 -1 3.5 -2t2.5 -2q2 -1 3.5 -1.5t2.5 -0.5q2 -1 3.5 -1.5t2.5 -1.5t2 -1.5t2 -0.5q0 -1 1 -1h2q2 -1 4.5 -2.5t5.5 -2.5q2 -1 4.5 -2t5.5 -2l6 -2l6 -2q2 0 3 -0.5t3 -0.5h2.5h2.5
h1.5h0.5h0.5h1.5q12 2 20.5 5t13.5 8t10 12.5t9 17.5v0.5t1 1.5v0.5v0.5q0 1 0.5 2t1.5 2v2v0z" />
    <glyph glyph-name="caron" unicode="&#x2c7;" horiz-adv-x="333" 
d="M167 574l122 103h34l-125 -167h-62l-125 167h35l121 -103v0v0z" />
    <glyph glyph-name="macron" unicode="&#x2c9;" horiz-adv-x="333" 
d="M323 538h-312v53h312v-53v0v0z" />
    <glyph glyph-name="breve" unicode="&#x2d8;" horiz-adv-x="333" 
d="M26 664h30q0 -22 7 -39t22 -30t31 -20.5t34 -9.5h2h2q1 -1 2 -1h2h4.5h4.5h4h4h2t3 1h2h2q17 2 33 9.5t31 20.5t22.5 29.5t7.5 37.5l30 2q0 -34 -9 -62t-27 -51q-18 -24 -44 -35.5t-61 -11.5q-34 0 -60.5 11.5t-44.5 35.5q-18 23 -27 51t-9 60v2v0z" />
    <glyph glyph-name="dotaccent" unicode="&#x2d9;" 
d="M125 637q11 -2 20 -5.5t16 -10.5t10.5 -16t3.5 -20t-3.5 -20t-10.5 -16t-16 -10.5t-20 -3.5t-20 3.5t-16 10.5t-10.5 16t-3.5 20t3.5 20t10.5 16t16 10.5t20 3.5v2v0z" />
    <glyph glyph-name="ring" unicode="&#x2da;" horiz-adv-x="333" 
d="M167 696q20 -2 37.5 -9.5t32.5 -21.5q15 -15 22.5 -32.5t7.5 -37.5v0v0v0v0v-1v0v0v0q0 -21 -7 -38.5t-22 -32.5t-33 -22t-38 -7q-21 0 -38.5 7t-32.5 22q-15 14 -22 31.5t-7 38.5v0v0v0v1v0v0v0v0q-1 20 6.5 37.5t22.5 32.5t32.5 22.5t38.5 7.5v2v0zM167 660
q-14 -2 -25.5 -6.5t-19.5 -13.5q-9 -9 -13 -20.5t-4 -25.5q0 -15 4 -26.5t13 -20.5q8 -9 19.5 -13t25.5 -4t25 4t20 13q8 9 12.5 20.5t4.5 26.5q0 14 -4.5 25.5t-12.5 20.5q-9 9 -20 13.5t-25 4.5v2v0z" />
    <glyph glyph-name="ogonek" unicode="&#x2db;" horiz-adv-x="313" 
d="M229 -88l16 -21q-13 -11 -26 -21t-27 -18t-29 -12.5t-31 -4.5q-13 0 -25 5t-21 14t-13.5 20.5t-4.5 25.5v1.5v0.5v1.5v1.5v1.5v0.5q0 1 0.5 1.5t0.5 1.5q2 10 6 20.5t11 19.5q7 10 15 17.5t17 12.5h37q-1 -1 -2 -1.5t-2 -1.5l-2 -2l-2 -2q-6 -5 -11 -10.5t-10 -12.5
q-4 -6 -7 -13t-4 -14v-1v-2v-1.5v-1.5q0 -8 3 -15.5t9 -13.5t13 -9t16 -3h3h3q1 1 2.5 1h2.5q3 1 6 1.5t6 1.5q7 3 13.5 6t13.5 8q6 4 12 8.5t11 9.5v0v0z" />
    <glyph glyph-name="circumflex" unicode="&#x2dc;" horiz-adv-x="333" 
d="M136 677h62l125 -167h-35l-121 103l-121 -103h-35l125 167v0v0z" />
    <glyph glyph-name="Gamma" unicode="&#x393;" 
 />
    <glyph glyph-name="Theta" unicode="&#x398;" 
 />
    <glyph glyph-name="summation" unicode="&#x3a3;" 
 />
    <glyph glyph-name="Phi" unicode="&#x3a6;" 
 />
    <glyph glyph-name="Omega" unicode="&#x3a9;" 
 />
    <glyph glyph-name="alpha" unicode="&#x3b1;" 
 />
    <glyph glyph-name="delta" unicode="&#x3b4;" 
 />
    <glyph glyph-name="epsilon" unicode="&#x3b5;" 
 />
    <glyph glyph-name="pi" unicode="&#x3c0;" 
 />
    <glyph glyph-name="sigma" unicode="&#x3c3;" 
 />
    <glyph glyph-name="tau" unicode="&#x3c4;" 
 />
    <glyph glyph-name="phi" unicode="&#x3c6;" 
 />
    <glyph glyph-name="glyph276" unicode="&#x2013;" horiz-adv-x="500" 
d="M500 219h-500v58h500v-58v0v0z" />
    <glyph glyph-name="emdash" unicode="&#x2014;" horiz-adv-x="1000" 
d="M1000 219h-1000v58h1000v-58v0v0z" />
    <glyph glyph-name="underscoredbl" unicode="&#x2017;" 
 />
    <glyph glyph-name="quoteleft" unicode="&#x2018;" horiz-adv-x="278" 
d="M174 685l44 24l15 -10q-16 -27 -29.5 -54t-24.5 -56q-10 -28 -16 -57t-8 -58q-8 -2 -16.5 -4.5t-16.5 -4.5q-4 -1 -8 -2.5t-8 -2.5q-4 -2 -8 -3t-8 -3q-2 -1 -4 -1.5t-4 -0.5q-2 -1 -4 -1.5t-4 -1.5t-4 -1.5t-4 -0.5q-2 -1 -4 -1.5t-4 -1.5l-13 15q11 29 25.5 58.5
t30.5 57.5q17 29 35 56t38 52v2v0z" />
    <glyph glyph-name="quoteright" unicode="&#x2019;" horiz-adv-x="278" 
d="M104 470l-44 -24l-15 10q17 24 30 51t23 55q11 29 17 57.5t8 57.5q8 2 16.5 4t16.5 5q8 2 16 5l16 6q4 1 8 2.5t8 2.5q2 1 4 1.5t4 1.5q2 0 4 0.5t4 1.5l13 -11q-12 -32 -25.5 -61.5t-30.5 -58.5q-16 -28 -34.5 -55t-38.5 -53v2v0z" />
    <glyph glyph-name="quotesinglbase" unicode="&#x201a;" 
 />
    <glyph glyph-name="quotedblleft" unicode="&#x201c;" horiz-adv-x="500" 
d="M180 685l44 24l15 -10q-16 -27 -29.5 -54t-24.5 -56q-10 -28 -16 -57t-8 -58q-8 -2 -16.5 -4.5t-16.5 -4.5q-4 -1 -8 -2.5t-8 -2.5q-4 -2 -8 -3t-8 -3q-2 -1 -4 -1.5t-4 -0.5q-2 -1 -4 -1.5t-4 -1.5t-4 -1.5t-4 -0.5q-2 -1 -4 -1.5t-4 -1.5l-13 15q11 29 25.5 58.5
t30.5 57.5q17 29 35 56t38 52v2v0zM390 685l44 24l15 -10q-16 -27 -29.5 -54t-24.5 -56q-10 -28 -16 -57t-8 -58q-8 -2 -16.5 -4.5t-16.5 -4.5q-4 -1 -8 -2.5t-8 -2.5q-4 -2 -8 -3t-8 -3q-2 -1 -4 -1.5t-4 -0.5q-2 -1 -4 -1.5t-4 -1.5t-4 -1.5t-4 -0.5q-2 -1 -4 -1.5
t-4 -1.5l-13 15q11 29 25.5 58.5t30.5 57.5q17 29 35 56t38 52v2v0z" />
    <glyph glyph-name="quotedblright" unicode="&#x201d;" horiz-adv-x="500" 
d="M110 470l-44 -24l-15 10q17 24 30 51t23 55q11 29 17 57.5t8 57.5q8 2 16.5 4t16.5 5q8 2 16 5l16 6q4 1 8 2.5t8 2.5q2 1 4 1.5t4 1.5q2 0 4 0.5t4 1.5l13 -11q-12 -32 -25.5 -61.5t-30.5 -58.5q-16 -28 -34.5 -55t-38.5 -53v2v0zM320 470l-44 -24l-15 10q17 24 30 51
t23 55q11 29 17 57.5t8 57.5q8 2 16.5 4t16.5 5q8 2 16 5l16 6q4 1 8 2.5t8 2.5q2 1 4 1.5t4 1.5q2 0 4 0.5t4 1.5l13 -11q-12 -32 -25.5 -61.5t-30.5 -58.5q-16 -28 -34.5 -55t-38.5 -53v2v0z" />
    <glyph glyph-name="quotedblbase" unicode="&#x201e;" horiz-adv-x="500" 
d="M226 110l13 -13q-12 -32 -25.5 -61.5t-30.5 -56.5q-16 -29 -34.5 -56t-38.5 -52l-44 -24l-15 10q17 25 30 52t23 56q11 28 17 56t8 57q8 2 16.5 4t16.5 5q8 2 16 5l16 6q4 1 8 2.5t8 2.5q2 1 4 1.5t4 1.5q2 0 4 0.5t4 1.5v2v0zM436 110l13 -13q-12 -32 -25.5 -61.5
t-30.5 -56.5q-16 -29 -34.5 -56t-38.5 -52l-44 -24l-15 10q17 25 30 52t23 56q11 28 17 56t8 57q8 2 16.5 4t16.5 5q8 2 16 5l16 6q4 1 8 2.5t8 2.5q2 1 4 1.5t4 1.5q2 0 4 0.5t4 1.5v2v0z" />
    </font>
</defs>
</svg>
